osu file format v14

[General]
AudioFilename: _Dysnomia_7A.mp3
AudioLeadIn: 0
PreviewTime: 11726
Countdown: 0
SampleSet: Normal
StackLeniency: 0.4
Mode: 3
LetterboxInBreaks: 0
SpecialStyle: 1
WidescreenStoryboard: 1

[Editor]
Bookmarks: 3550,19061,23561,45161,51986,53636,79152,82833,85561,87365,103360
DistanceSpacing: 1.4
BeatDivisor: 4
GridSize: 8
TimelineZoom: 1.6

[Metadata]
Title:Dysnomia
TitleUnicode:Dysnomia
Artist:Hermit
ArtistUnicode:Hermit
Creator:-Kamikaze-
Version:8K Advanced
Source:BMS
Tags:春のソフランまつり Satellite of Plutoid 夢幻 海 osu!mania Tournoi Francophone 2015 Kaito-Kun YunoFanatic Whagwha_Victus Tidek Rayz141 R141 dosyeru
BeatmapID:687822
BeatmapSetID:303999

[Difficulty]
HPDrainRate:7.5
CircleSize:8
OverallDifficulty:7.5
ApproachRate:10
SliderMultiplier:1.8
SliderTickRate:4

[Events]
//Background and Video events
0,0,"2178088_9832.jpg",0,0
Video,3200,"dysnomia02.avi"
//Break Periods
//Storyboard Layer 0 (Background)
//Storyboard Layer 1 (Fail)
//Storyboard Layer 2 (Pass)
//Storyboard Layer 3 (Foreground)
//Storyboard Sound Samples

[TimingPoints]
3566,750,4,2,1,30,1,0
3566,-40,4,2,1,30,0,0
4316,705.882352941176,4,2,1,30,1,0
4316,-42.5531914893617,4,2,1,30,0,0
5022,666.666666666667,4,2,1,30,1,0
5022,-45.045045045045,4,2,1,30,0,0
5689,631.578947368421,4,2,1,30,1,0
5689,-47.6190476190476,4,2,1,30,0,0
6321,600,4,2,1,30,1,0
6321,-50,4,2,1,30,0,0
6921,571.428571428571,4,2,1,30,1,0
6921,-52.6315789473684,4,2,1,30,0,0
7492,545.454545454545,4,2,1,30,1,0
7492,-55.2486187845304,4,2,1,30,0,0
8037,521.739130434783,4,2,1,30,1,0
8037,-57.8034682080925,4,2,1,30,0,0
8559,500,4,2,1,30,1,0
8559,-60.2409638554217,4,2,1,30,0,0
9059,461.538461538462,4,2,1,30,1,0
9059,-64.9350649350649,4,2,1,30,0,0
9521,428.571428571429,4,2,1,30,1,0
9521,-69.9300699300699,4,2,1,30,0,0
9950,400,4,2,1,30,1,0
9950,-75.187969924812,4,2,1,30,0,0
10350,375,4,2,1,30,1,0
10350,-80,4,2,1,30,0,0
10725,352.941176470588,4,2,1,30,1,0
10725,-84.7457627118644,4,2,1,30,0,0
11078,333.333333333333,4,2,1,30,1,0
11078,-90.0900900900901,4,2,1,30,0,0
11411,315.789473684211,4,2,1,30,1,0
11411,-95.2380952380952,4,2,1,30,0,0
11727,300,4,1,1,30,1,0
15477,300,4,1,1,30,1,0
23577,300,4,2,1,30,1,0
53652,600,4,2,1,30,1,0
53652,-50,4,2,1,30,0,0
63252,545.454545454545,4,2,1,30,1,0
63252,-55.2486187845304,4,2,1,30,0,0
64342,500,4,2,1,30,1,0
64342,-60.2409638554217,4,2,1,30,0,0
65342,461.538461538462,4,2,1,30,1,0
65342,-64.9350649350649,4,2,1,30,0,0
66266,428.571428571429,4,2,1,30,1,0
66266,-69.9300699300699,4,2,1,30,0,0
67123,400,4,2,1,30,1,0
67123,-75.187969924812,4,2,1,30,0,0
67523,375,4,2,1,30,1,0
67523,-80,4,2,1,30,0,0
67898,352.941176470588,4,2,1,30,1,0
67898,-84.7457627118644,4,2,1,30,0,0
68250,333.333333333333,4,2,1,30,1,0
68250,-90.0900900900901,4,2,1,30,0,0
68583,315.789473684211,4,2,1,30,1,0
68583,-95.2380952380952,4,2,1,30,0,0
68898,300,4,2,1,30,1,0
69198,285.714285714286,4,2,1,30,1,0
69198,-105.263157894737,4,2,1,30,0,0
69486,279.06976744186,4,2,1,30,1,0
69486,-107.52688172043,4,2,1,30,0,0
69765,272.727272727273,4,1,1,30,1,0
69765,-109.89010989011,4,1,1,30,0,0
73174,272.727272727273,4,1,1,30,1,0
73174,-109.89010989011,4,1,1,30,0,0
76310,272.727272727273,4,1,1,30,1,0
76310,-109.89010989011,4,1,1,30,0,0
78492,272.727272727273,4,1,1,30,1,0
78492,-111.111111111111,4,1,1,30,0,0
79577,272.727272727273,4,1,1,30,1,0
79577,-109.89010989011,4,1,1,30,0,0
82303,260.869565217391,4,1,1,30,1,0
82303,-114.942528735632,4,1,1,30,0,0
83346,255.31914893617,4,1,1,30,1,0
83346,-117.647058823529,4,1,1,30,0,0
83856,250,4,1,1,30,1,0
83856,-120.481927710843,4,1,1,30,0,0
84356,244.897959183673,4,1,1,30,1,0
84356,-121.951219512195,4,1,1,30,0,0
84845,240,4,1,1,30,1,0
84845,-125,4,1,1,30,0,0
85445,235.294117647059,4,1,1,30,1,0
85445,-128.205128205128,4,1,1,30,0,0
85565,235.294117647059,4,1,1,30,1,0
85565,-128.205128205128,4,1,1,30,0,0
85682,236.220472440945,4,1,1,30,1,0
85682,-128.205128205128,4,1,1,30,0,0
85800,237.154150197628,4,1,1,30,1,0
85800,-126.582278481013,4,1,1,30,0,0
85918,238.095238095238,4,1,1,30,1,0
85918,-126.582278481013,4,1,1,30,0,0
86037,239.043824701195,4,1,1,30,1,0
86037,-126.582278481013,4,1,1,30,0,0
86156,240,4,1,1,30,1,0
86156,-125,4,1,1,30,0,0
86276,240.963855421687,4,1,1,30,1,0
86276,-125,4,1,1,30,0,0
86396,241.935483870968,4,1,1,30,1,0
86396,-125,4,1,1,30,0,0
86516,242.914979757085,4,1,1,30,1,0
86516,-123.456790123457,4,1,1,30,0,0
86637,243.90243902439,4,1,1,30,1,0
86637,-123.456790123457,4,1,1,30,0,0
86758,244.897959183673,4,1,1,30,1,0
86758,-121.951219512195,4,1,1,30,0,0
86880,245.901639344262,4,1,1,30,1,0
86880,-121.951219512195,4,1,1,30,0,0
87002,246.913580246914,4,1,1,30,1,0
87002,-121.951219512195,4,1,1,30,0,0
87125,247.933884297521,4,1,1,30,1,0
87125,-120.481927710843,4,1,1,30,0,0
87248,248.96265560166,4,1,1,30,1,0
87248,-120.481927710843,4,1,1,30,0,0
87372,250,4,1,1,30,1,0
87372,-120.481927710843,4,1,1,30,0,0
115184,250,4,1,1,30,1,0
115184,-120.481927710843,4,1,1,30,0,0
116684,244.897959183673,4,1,1,30,1,0
116684,-121.951219512195,4,1,1,30,0,0
118153,240,4,1,1,30,1,0
118153,-125,4,1,1,30,0,0
118873,235.294117647059,4,1,1,30,1,0
118873,-128.205128205128,4,1,1,30,0,0
119579,230.769230769231,4,1,1,30,1,0
119579,-129.87012987013,4,1,1,30,0,0
120040,226.415094339623,4,1,1,30,1,0
120040,-133.333333333333,4,1,1,30,0,0
120494,222.222222222222,4,1,1,30,1,0
120494,-135.135135135135,4,1,1,30,0,0
120938,218.181818181818,4,1,1,30,1,0
120938,-136.986301369863,4,1,1,30,0,0
121156,214.285714285714,4,1,1,30,1,0
121156,-140.845070422535,4,1,1,30,0,0
121370,210.526315789474,4,1,1,30,1,0
121370,-142.857142857143,4,1,1,30,0,0
121581,206.896551724138,4,1,1,30,1,0
121581,-144.927536231884,4,1,1,30,0,0
121788,203.389830508475,4,1,1,30,1,0
121788,-147.058823529412,4,1,1,30,0,0
121991,200,4,1,1,30,1,0
121991,-149.253731343284,4,1,1,30,0,0
122191,196.72131147541,4,1,1,30,1,0
122191,-151.515151515152,4,1,1,30,0,0
122388,193.548387096774,4,1,1,30,1,0
122388,-153.846153846154,4,1,1,30,0,0
122582,190.47619047619,4,1,1,30,1,0
122582,-156.25,4,1,1,30,0,0
122772,187.5,4,1,1,30,1,0
122772,-158.730158730159,4,1,1,30,0,0
122960,184.615384615385,4,1,1,30,1,0
122960,-161.290322580645,4,1,1,30,0,0
123145,181.818181818182,4,1,1,30,1,0
123145,-163.934426229508,4,1,1,30,0,0
123327,179.10447761194,4,1,1,30,1,0
123327,-166.666666666667,4,1,1,30,0,0
123506,176.470588235294,4,1,1,30,1,0
123506,-169.491525423729,4,1,1,30,0,0
123682,173.913043478261,4,1,1,30,1,0
123682,-172.413793103448,4,1,1,30,0,0
123855,171.428571428571,4,1,1,30,1,0
123855,-175.438596491228,4,1,1,30,0,0
124026,190.47619047619,4,1,1,30,1,0
124026,-156.25,4,1,1,30,0,0
125168,120,4,1,1,30,1,0
125168,-250,4,1,1,30,0,0
125288,150,4,1,1,30,1,0
125288,-200,4,1,1,30,0,0
125438,144.578313253012,4,1,1,30,1,0
125438,-207.46887966805,4,1,1,30,0,0
125727,214.285714285714,4,1,1,30,1,0
125727,-140.845070422535,4,1,1,30,0,0
125941,300,4,1,1,30,1,0

[HitObjects]
224,192,3566,5,2,0:0:0:0:
288,192,4316,1,2,0:0:0:0:
224,192,5022,1,2,0:0:0:0:
160,192,5689,1,2,0:0:0:0:
224,192,6321,1,2,0:0:0:0:
288,192,6921,1,2,0:0:0:0:
224,192,7492,1,2,0:0:0:0:
160,192,8037,1,2,0:0:0:0:
480,192,8297,1,0,0:0:0:0:
480,192,8559,1,2,0:0:0:0:
224,192,8559,1,0,0:0:0:0:
288,192,9059,1,2,0:0:0:0:
224,192,9521,1,2,0:0:0:0:
160,192,9949,1,2,0:0:0:0:
416,192,9950,128,0,11727:0:0:0:0:
224,192,10350,1,2,0:0:0:0:
288,192,10725,1,2,0:0:0:0:
224,192,11078,1,2,0:0:0:0:
160,192,11411,1,2,0:0:0:0:
32,192,11727,1,4,0:0:0:0:
224,192,11727,1,0,0:0:0:0:
224,192,11877,1,0,0:0:0:0:
96,192,12027,1,0,0:0:0:0:
288,192,12027,1,0,0:0:0:0:
224,192,12327,1,0,0:0:0:0:
352,192,12327,1,0,0:0:0:0:
160,192,12627,1,0,0:0:0:0:
160,192,12777,1,0,0:0:0:0:
416,192,12927,1,0,0:0:0:0:
288,192,12927,1,0,0:0:0:0:
352,192,13227,1,0,0:0:0:0:
480,192,13227,1,0,0:0:0:0:
288,192,13527,1,0,0:0:0:0:
288,192,13677,1,0,0:0:0:0:
32,192,13827,1,4,0:0:0:0:
160,192,13827,1,0,0:0:0:0:
416,192,13827,1,0,0:0:0:0:
288,192,14127,1,0,0:0:0:0:
224,192,14277,1,0,0:0:0:0:
160,192,14427,128,0,15477:0:0:0:0:
32,192,15477,1,4,0:0:0:0:
352,192,15477,1,0,0:0:0:0:
352,192,15627,1,0,0:0:0:0:
480,192,15777,1,0,0:0:0:0:
288,192,15777,1,0,0:0:0:0:
224,192,16077,1,0,0:0:0:0:
352,192,16077,1,0,0:0:0:0:
288,192,16377,1,0,0:0:0:0:
288,192,16527,1,0,0:0:0:0:
96,192,16677,1,0,0:0:0:0:
224,192,16677,1,0,0:0:0:0:
160,192,16977,1,0,0:0:0:0:
96,192,16977,1,0,0:0:0:0:
224,192,17277,1,0,0:0:0:0:
224,192,17427,1,0,0:0:0:0:
32,192,17577,1,4,0:0:0:0:
352,192,17577,1,0,0:0:0:0:
288,192,17577,1,0,0:0:0:0:
480,192,17877,1,0,0:0:0:0:
416,192,18027,1,0,0:0:0:0:
352,192,18177,1,0,0:0:0:0:
288,192,18327,1,0,0:0:0:0:
96,192,18477,1,0,0:0:0:0:
224,192,18477,1,0,0:0:0:0:
160,192,18777,1,0,0:0:0:0:
288,192,18777,1,0,0:0:0:0:
32,192,19077,1,4,0:0:0:0:
352,192,19077,1,0,0:0:0:0:
224,192,19077,1,0,0:0:0:0:
160,192,19227,128,0,19377:0:0:0:0:
416,192,19377,1,0,0:0:0:0:
352,192,19602,128,0,19902:0:0:0:0:
96,192,19902,1,0,0:0:0:0:
480,192,20052,128,0,20202:0:0:0:0:
288,192,20202,1,0,0:0:0:0:
96,192,20352,128,0,20502:0:0:0:0:
416,192,20502,1,0,0:0:0:0:
224,192,20727,128,0,21027:0:0:0:0:
352,192,21027,1,0,0:0:0:0:
416,192,21177,128,0,21327:0:0:0:0:
288,192,21327,1,0,0:0:0:0:
160,192,21552,128,0,21852:0:0:0:0:
416,192,21852,1,0,0:0:0:0:
480,192,22002,128,0,22152:0:0:0:0:
96,192,22152,1,0,0:0:0:0:
288,192,22377,128,0,22677:0:0:0:0:
32,192,22677,1,4,0:0:0:0:
96,192,22677,1,0,0:0:0:0:
352,192,22677,1,0,0:0:0:0:
32,192,22977,1,4,0:0:0:0:
224,192,22977,1,0,0:0:0:0:
480,192,22977,1,0,0:0:0:0:
32,192,23277,1,4,0:0:0:0:
160,192,23277,1,0,0:0:0:0:
416,192,23277,1,0,0:0:0:0:
32,192,23577,1,4,0:0:0:0:
96,192,23577,1,0,0:0:0:0:
352,192,23577,128,0,24777:0:0:0:0:
224,192,24777,128,0,25977:0:0:0:0:
96,192,25977,1,0,0:0:0:0:
96,192,26127,1,0,0:0:0:0:
480,192,26427,1,0,0:0:0:0:
288,192,26427,1,0,0:0:0:0:
416,192,26727,1,0,0:0:0:0:
224,192,26727,1,0,0:0:0:0:
96,192,27177,1,0,0:0:0:0:
96,192,27327,1,0,0:0:0:0:
288,192,27627,1,0,0:0:0:0:
480,192,27627,1,0,0:0:0:0:
416,192,27927,1,0,0:0:0:0:
224,192,27927,1,0,0:0:0:0:
96,192,28227,1,0,0:0:0:0:
160,192,28377,1,0,0:0:0:0:
160,192,28527,1,0,0:0:0:0:
160,192,28827,1,0,0:0:0:0:
480,192,28827,1,0,0:0:0:0:
352,192,29127,1,0,0:0:0:0:
160,192,29127,1,0,0:0:0:0:
416,192,29577,1,0,0:0:0:0:
416,192,29727,1,0,0:0:0:0:
416,192,30027,1,0,0:0:0:0:
224,192,30027,1,0,0:0:0:0:
416,192,30327,1,0,0:0:0:0:
96,192,30327,1,0,0:0:0:0:
352,192,30627,1,0,0:0:0:0:
480,192,30777,1,0,0:0:0:0:
480,192,30927,1,0,0:0:0:0:
480,192,31227,1,0,0:0:0:0:
160,192,31227,1,0,0:0:0:0:
480,192,31527,1,0,0:0:0:0:
288,192,31527,1,0,0:0:0:0:
96,192,31977,1,0,0:0:0:0:
96,192,32127,1,0,0:0:0:0:
96,192,32427,1,0,0:0:0:0:
416,192,32427,1,0,0:0:0:0:
352,192,32727,1,0,0:0:0:0:
96,192,32727,1,0,0:0:0:0:
160,192,33027,1,0,0:0:0:0:
160,192,33177,1,0,0:0:0:0:
224,192,33327,1,0,0:0:0:0:
480,192,33477,128,2,33777:2:0:0:0:
96,192,33927,128,2,34227:2:0:0:0:
416,192,34377,128,2,34677:2:0:0:0:
160,192,34827,128,2,35577:2:0:0:0:
32,192,34902,1,4,0:0:0:0:
352,192,35127,128,2,35577:2:0:0:0:
32,192,35577,1,4,0:0:0:0:
480,192,35577,1,0,0:0:0:0:
480,192,35727,1,0,0:0:0:0:
160,192,36027,1,0,0:0:0:0:
352,192,36027,1,0,0:0:0:0:
288,192,36327,1,0,0:0:0:0:
96,192,36327,1,0,0:0:0:0:
480,192,36777,1,0,0:0:0:0:
480,192,36927,1,0,0:0:0:0:
160,192,37227,1,0,0:0:0:0:
352,192,37227,1,0,0:0:0:0:
288,192,37527,1,0,0:0:0:0:
96,192,37527,1,0,0:0:0:0:
480,192,37827,1,0,0:0:0:0:
416,192,37977,1,0,0:0:0:0:
416,192,38127,1,0,0:0:0:0:
224,192,38427,1,0,0:0:0:0:
416,192,38427,1,0,0:0:0:0:
416,192,38727,1,0,0:0:0:0:
96,192,38727,1,0,0:0:0:0:
160,192,39177,1,0,0:0:0:0:
160,192,39327,1,0,0:0:0:0:
160,192,39627,1,0,0:0:0:0:
480,192,39627,1,0,0:0:0:0:
352,192,39927,1,0,0:0:0:0:
160,192,39927,1,0,0:0:0:0:
224,192,40227,1,0,0:0:0:0:
96,192,40377,1,0,0:0:0:0:
96,192,40527,1,0,0:0:0:0:
416,192,40827,1,0,0:0:0:0:
96,192,40827,1,0,0:0:0:0:
288,192,41127,1,0,0:0:0:0:
96,192,41127,1,0,0:0:0:0:
480,192,41577,1,0,0:0:0:0:
480,192,41727,1,0,0:0:0:0:
480,192,42027,1,0,0:0:0:0:
224,192,42027,1,0,0:0:0:0:
160,192,42327,1,0,0:0:0:0:
480,192,42327,1,0,0:0:0:0:
96,192,42627,1,0,0:0:0:0:
160,192,42777,1,0,0:0:0:0:
224,192,42927,1,0,0:0:0:0:
288,192,43077,128,2,43977:2:0:0:0:
480,192,43977,1,2,2:0:0:0:
352,192,44077,1,2,2:0:0:0:
224,192,44177,1,2,2:0:0:0:
416,192,44277,1,2,2:0:0:0:
288,192,44377,1,2,2:0:0:0:
160,192,44477,1,2,2:0:0:0:
352,192,44577,1,2,2:0:0:0:
224,192,44677,1,2,2:0:0:0:
96,192,44777,1,2,2:0:0:0:
480,192,44877,1,2,2:0:0:0:
352,192,44977,1,2,2:0:0:0:
224,192,45077,1,2,2:0:0:0:
32,192,45177,5,4,0:0:0:0:
480,192,45177,1,0,0:0:0:0:
96,192,45177,1,0,0:0:0:0:
480,192,45627,1,0,0:0:0:0:
160,192,45627,1,0,0:0:0:0:
352,192,45927,1,0,0:0:0:0:
416,192,46077,1,0,0:0:0:0:
160,192,46152,1,0,0:0:0:0:
352,192,46227,1,0,0:0:0:0:
224,192,46302,1,0,0:0:0:0:
288,192,46377,1,0,0:0:0:0:
96,192,46677,1,0,0:0:0:0:
352,192,46827,1,0,0:0:0:0:
352,192,47127,1,0,0:0:0:0:
480,192,47127,1,0,0:0:0:0:
480,192,47427,1,0,0:0:0:0:
32,192,47577,1,4,0:0:0:0:
96,192,47577,1,0,0:0:0:0:
160,192,47877,1,0,0:0:0:0:
288,192,47952,1,0,0:0:0:0:
416,192,48027,1,0,0:0:0:0:
352,192,48102,1,0,0:0:0:0:
224,192,48177,1,0,0:0:0:0:
160,192,48252,1,0,0:0:0:0:
32,192,48327,1,4,0:0:0:0:
96,192,48327,1,0,0:0:0:0:
480,192,48327,1,0,0:0:0:0:
416,192,48627,1,0,0:0:0:0:
352,192,48702,1,0,0:0:0:0:
288,192,48777,1,0,0:0:0:0:
224,192,48852,1,0,0:0:0:0:
160,192,48927,1,0,0:0:0:0:
96,192,49002,1,0,0:0:0:0:
32,192,49077,1,4,0:0:0:0:
224,192,49077,1,0,0:0:0:0:
480,192,49377,1,0,0:0:0:0:
416,192,49452,1,0,0:0:0:0:
96,192,49527,1,0,0:0:0:0:
352,192,49527,1,0,0:0:0:0:
416,192,49827,1,0,0:0:0:0:
352,192,49902,1,0,0:0:0:0:
96,192,49977,1,0,0:0:0:0:
288,192,49977,1,0,0:0:0:0:
160,192,50277,1,0,0:0:0:0:
224,192,50352,1,0,0:0:0:0:
480,192,50427,1,0,0:0:0:0:
416,192,50502,1,0,0:0:0:0:
288,192,50577,1,0,0:0:0:0:
32,192,50652,1,4,0:0:0:0:
224,192,50652,1,0,0:0:0:0:
160,192,50952,1,0,0:0:0:0:
224,192,51027,1,0,0:0:0:0:
288,192,51102,1,0,0:0:0:0:
352,192,51177,1,0,0:0:0:0:
416,192,51252,1,0,0:0:0:0:
480,192,51327,1,0,0:0:0:0:
32,192,51402,1,4,0:0:0:0:
96,192,51402,1,0,0:0:0:0:
160,192,51702,1,0,0:0:0:0:
224,192,51702,1,0,0:0:0:0:
32,192,52002,1,4,0:0:0:0:
288,192,52002,1,0,0:0:0:0:
352,192,52002,1,0,0:0:0:0:
96,192,52152,1,0,0:0:0:0:
160,192,52302,1,0,0:0:0:0:
224,192,52452,1,0,0:0:0:0:
288,192,52602,1,0,0:0:0:0:
352,192,52752,1,0,0:0:0:0:
416,192,52902,1,0,0:0:0:0:
480,192,53052,1,0,0:0:0:0:
416,192,53202,1,0,0:0:0:0:
352,192,53352,1,0,0:0:0:0:
288,192,53502,1,0,0:0:0:0:
32,192,53652,1,4,0:0:0:0:
224,192,53652,1,0,0:0:0:0:
224,192,53952,1,0,0:0:0:0:
480,192,54252,1,8,0:0:0:0:
160,192,54552,1,0,0:0:0:0:
352,192,54702,1,0,0:0:0:0:
288,192,54852,1,0,0:0:0:0:
160,192,55152,1,0,0:0:0:0:
96,192,55302,1,0,0:0:0:0:
288,192,55452,1,8,0:0:0:0:
416,192,55752,1,0,0:0:0:0:
352,192,55902,1,0,0:0:0:0:
288,192,56052,1,0,0:0:0:0:
352,192,56352,1,0,0:0:0:0:
96,192,56502,1,0,0:0:0:0:
160,192,56652,1,8,0:0:0:0:
288,192,56952,1,0,0:0:0:0:
224,192,57102,1,0,0:0:0:0:
160,192,57252,1,0,0:0:0:0:
224,192,57402,1,0,0:0:0:0:
288,192,57552,1,0,0:0:0:0:
352,192,57702,1,0,0:0:0:0:
160,192,57852,1,8,0:0:0:0:
224,192,58002,1,0,0:0:0:0:
288,192,58152,1,0,0:0:0:0:
352,192,58302,1,0,0:0:0:0:
32,192,58452,1,4,0:0:0:0:
416,192,58452,1,0,0:0:0:0:
480,192,58452,1,0,0:0:0:0:
224,192,58752,1,0,0:0:0:0:
288,192,58902,1,0,0:0:0:0:
352,192,59052,1,8,0:0:0:0:
160,192,59652,1,0,0:0:0:0:
288,192,59852,1,0,0:0:0:0:
224,192,60052,1,0,0:0:0:0:
352,192,60252,1,8,0:0:0:0:
96,192,60552,1,0,0:0:0:0:
160,192,60702,1,0,0:0:0:0:
224,192,60852,1,0,0:0:0:0:
288,192,61002,1,0,0:0:0:0:
352,192,61152,1,0,0:0:0:0:
416,192,61302,1,0,0:0:0:0:
480,192,61452,1,8,0:0:0:0:
288,192,61652,1,0,0:0:0:0:
416,192,61852,1,0,0:0:0:0:
224,192,62052,1,0,0:0:0:0:
96,192,62352,1,2,0:0:0:0:
480,192,62652,1,8,0:0:0:0:
160,192,62652,1,2,0:0:0:0:
480,192,62952,1,8,0:0:0:0:
224,192,62952,1,2,0:0:0:0:
32,192,63252,1,4,0:0:0:0:
480,192,63252,1,0,0:0:0:0:
288,192,63252,1,0,0:0:0:0:
352,192,63524,1,0,0:0:0:0:
352,192,63661,1,0,0:0:0:0:
224,192,63797,1,2,0:0:0:0:
224,192,64342,1,0,0:0:0:0:
288,192,64508,1,0,0:0:0:0:
352,192,64675,1,0,0:0:0:0:
416,192,64842,1,2,0:0:0:0:
352,192,65342,1,0,0:0:0:0:
288,192,65457,1,0,0:0:0:0:
224,192,65572,1,0,0:0:0:0:
160,192,65688,1,0,0:0:0:0:
96,192,65803,1,2,0:0:0:0:
160,192,66266,1,2,0:0:0:0:
224,192,66480,1,2,0:0:0:0:
288,192,66694,1,2,0:0:0:0:
352,192,66908,1,2,0:0:0:0:
416,192,67123,1,0,0:0:0:0:
160,192,67323,1,2,0:0:0:0:
352,192,67523,1,0,0:0:0:0:
224,192,67710,1,2,0:0:0:0:
416,192,67898,1,0,0:0:0:0:
160,192,68074,1,2,0:0:0:0:
352,192,68250,1,0,0:0:0:0:
224,192,68583,1,0,0:0:0:0:
288,192,68740,1,0,0:0:0:0:
352,192,68898,1,0,0:0:0:0:
416,192,69048,1,0,0:0:0:0:
480,192,69198,1,0,0:0:0:0:
96,192,69269,1,0,0:0:0:0:
160,192,69340,1,0,0:0:0:0:
224,192,69412,1,0,0:0:0:0:
288,192,69486,1,0,0:0:0:0:
352,192,69555,1,0,0:0:0:0:
416,192,69625,1,0,0:0:0:0:
480,192,69695,1,0,0:0:0:0:
32,192,69765,5,4,0:0:0:0:
96,192,69765,1,0,0:0:0:0:
96,192,69901,1,0,0:0:0:0:
224,192,70037,1,0,0:0:0:0:
352,192,70037,1,0,0:0:0:0:
288,192,70310,1,0,0:0:0:0:
416,192,70310,1,0,0:0:0:0:
160,192,70583,1,0,0:0:0:0:
160,192,70719,1,0,0:0:0:0:
288,192,70855,1,0,0:0:0:0:
416,192,70855,1,0,0:0:0:0:
480,192,71128,1,0,0:0:0:0:
352,192,71128,1,0,0:0:0:0:
224,192,71401,1,0,0:0:0:0:
224,192,71537,1,0,0:0:0:0:
32,192,71674,1,4,0:0:0:0:
96,192,71674,1,0,0:0:0:0:
480,192,71674,1,0,0:0:0:0:
352,192,71946,1,0,0:0:0:0:
224,192,72083,1,0,0:0:0:0:
96,192,72219,128,0,72901:0:0:0:0:
32,192,73174,1,4,0:0:0:0:
352,192,73174,1,0,0:0:0:0:
352,192,73310,1,0,0:0:0:0:
160,192,73446,1,0,0:0:0:0:
416,192,73446,1,0,0:0:0:0:
480,192,73719,1,0,0:0:0:0:
288,192,73719,1,0,0:0:0:0:
416,192,73992,1,0,0:0:0:0:
416,192,74128,1,0,0:0:0:0:
288,192,74264,1,0,0:0:0:0:
160,192,74264,1,0,0:0:0:0:
96,192,74537,1,0,0:0:0:0:
224,192,74537,1,0,0:0:0:0:
352,192,74810,1,0,0:0:0:0:
288,192,74946,1,0,0:0:0:0:
32,192,75083,1,4,0:0:0:0:
224,192,75083,1,0,0:0:0:0:
480,192,75083,1,0,0:0:0:0:
160,192,75355,1,0,0:0:0:0:
224,192,75492,1,0,0:0:0:0:
288,192,75628,1,0,0:0:0:0:
352,192,75764,1,0,0:0:0:0:
416,192,75901,1,0,0:0:0:0:
160,192,75901,1,0,0:0:0:0:
480,192,76174,1,0,0:0:0:0:
224,192,76174,1,0,0:0:0:0:
32,192,76310,1,4,0:0:0:0:
352,192,76310,1,0,0:0:0:0:
288,192,76582,128,0,76855:0:0:0:0:
32,192,76855,1,4,0:0:0:0:
480,192,76855,1,0,0:0:0:0:
96,192,76855,1,0,0:0:0:0:
160,192,77128,1,0,0:0:0:0:
224,192,77264,1,0,0:0:0:0:
352,192,77264,1,0,0:0:0:0:
352,192,77537,1,0,0:0:0:0:
160,192,77673,1,4,0:0:0:0:
416,192,77673,1,0,0:0:0:0:
32,192,77946,1,4,0:0:0:0:
224,192,77946,1,0,0:0:0:0:
480,192,77946,1,0,0:0:0:0:
288,192,78219,1,0,0:0:0:0:
288,192,78355,1,0,0:0:0:0:
160,192,78492,1,4,0:0:0:0:
416,192,78492,1,0,0:0:0:0:
32,192,78764,1,4,0:0:0:0:
480,192,78764,1,0,0:0:0:0:
96,192,78764,1,0,0:0:0:0:
352,192,79037,1,0,0:0:0:0:
160,192,79173,1,4,0:0:0:0:
160,192,79310,1,0,0:0:0:0:
288,192,79446,1,4,0:0:0:0:
416,192,79446,1,0,0:0:0:0:
32,192,79713,1,4,0:0:0:0:
480,192,79713,1,0,0:0:0:0:
224,192,79713,1,0,0:0:0:0:
352,192,79986,1,0,0:0:0:0:
352,192,80122,1,0,0:0:0:0:
224,192,80258,1,4,0:0:0:0:
416,192,80258,1,0,0:0:0:0:
32,192,80531,1,4,0:0:0:0:
480,192,80531,1,0,0:0:0:0:
288,192,80531,1,0,0:0:0:0:
160,192,80804,1,0,0:0:0:0:
160,192,80940,1,0,0:0:0:0:
480,192,81077,1,0,0:0:0:0:
224,192,81077,1,0,0:0:0:0:
32,192,81077,1,4,0:0:0:0:
352,192,81349,1,0,0:0:0:0:
352,192,81486,1,0,0:0:0:0:
288,192,81622,1,0,0:0:0:0:
160,192,81622,1,4,0:0:0:0:
96,192,81895,1,0,0:0:0:0:
32,192,81895,1,4,0:0:0:0:
352,192,81895,1,0,0:0:0:0:
224,192,82167,1,0,0:0:0:0:
32,192,82303,1,4,0:0:0:0:
288,192,82303,1,0,0:0:0:0:
160,192,82563,1,4,0:0:0:0:
352,192,82563,1,0,0:0:0:0:
416,192,82824,1,0,0:0:0:0:
32,192,82824,1,4,0:0:0:0:
416,192,82955,1,0,0:0:0:0:
224,192,83085,1,0,0:0:0:0:
480,192,83085,1,0,0:0:0:0:
160,192,83346,1,0,0:0:0:0:
160,192,83473,1,0,0:0:0:0:
32,192,83601,1,4,0:0:0:0:
352,192,83601,1,0,0:0:0:0:
224,192,83601,1,0,0:0:0:0:
288,192,83856,1,0,0:0:0:0:
288,192,83981,1,0,0:0:0:0:
32,192,84106,1,4,0:0:0:0:
96,192,84106,1,0,0:0:0:0:
352,192,84106,1,0,0:0:0:0:
480,192,84356,1,0,0:0:0:0:
32,192,84356,1,4,0:0:0:0:
224,192,84478,1,0,0:0:0:0:
352,192,84723,1,0,0:0:0:0:
32,192,84723,1,4,0:0:0:0:
224,192,84845,1,0,0:0:0:0:
352,192,85085,1,0,0:0:0:0:
32,192,85085,1,4,0:0:0:0:
160,192,85205,1,0,0:0:0:0:
352,192,85445,1,0,0:0:0:0:
32,192,85445,1,4,0:0:0:0:
416,192,85562,1,0,0:0:0:0:
480,192,85682,1,0,0:0:0:0:
96,192,85800,1,0,0:0:0:0:
160,192,85918,1,0,0:0:0:0:
224,192,86037,1,0,0:0:0:0:
288,192,86156,1,0,0:0:0:0:
352,192,86276,1,0,0:0:0:0:
416,192,86396,1,0,0:0:0:0:
480,192,86516,1,0,0:0:0:0:
96,192,86637,1,0,0:0:0:0:
160,192,86758,1,0,0:0:0:0:
224,192,86880,1,0,0:0:0:0:
288,192,87002,1,0,0:0:0:0:
352,192,87125,1,0,0:0:0:0:
416,192,87248,1,0,0:0:0:0:
480,192,87372,1,0,0:0:0:0:
32,192,87372,1,4,0:0:0:0:
480,192,87497,1,0,0:0:0:0:
160,192,87747,1,0,0:0:0:0:
288,192,87747,1,0,0:0:0:0:
224,192,87997,1,0,0:0:0:0:
96,192,87997,1,0,0:0:0:0:
480,192,88122,1,8,0:0:0:0:
96,192,88372,1,0,0:0:0:0:
96,192,88497,1,0,0:0:0:0:
352,192,88622,1,8,0:0:0:0:
224,192,88747,1,0,0:0:0:0:
416,192,88747,1,0,0:0:0:0:
288,192,88997,1,0,0:0:0:0:
480,192,88997,1,0,0:0:0:0:
160,192,89122,1,8,0:0:0:0:
416,192,89247,1,0,0:0:0:0:
352,192,89372,1,0,0:0:0:0:
352,192,89497,1,0,0:0:0:0:
224,192,89622,1,8,0:0:0:0:
160,192,89747,1,0,0:0:0:0:
352,192,89747,1,0,0:0:0:0:
96,192,89997,1,0,0:0:0:0:
352,192,89997,1,0,0:0:0:0:
480,192,90122,1,8,0:0:0:0:
224,192,90372,1,0,0:0:0:0:
224,192,90497,1,0,0:0:0:0:
288,192,90622,1,8,0:0:0:0:
224,192,90747,1,0,0:0:0:0:
416,192,90747,1,0,0:0:0:0:
480,192,90997,1,0,0:0:0:0:
224,192,90997,1,0,0:0:0:0:
96,192,91122,1,8,0:0:0:0:
224,192,91247,1,0,0:0:0:0:
416,192,91372,1,0,0:0:0:0:
416,192,91497,1,0,0:0:0:0:
288,192,91622,1,8,0:0:0:0:
224,192,91747,1,0,0:0:0:0:
416,192,91747,1,0,0:0:0:0:
416,192,91997,1,0,0:0:0:0:
96,192,91997,1,0,0:0:0:0:
480,192,92122,1,8,0:0:0:0:
160,192,92372,1,0,0:0:0:0:
160,192,92497,1,0,0:0:0:0:
288,192,92622,1,8,0:0:0:0:
160,192,92747,1,0,0:0:0:0:
352,192,92747,1,0,0:0:0:0:
480,192,92997,1,0,0:0:0:0:
160,192,92997,1,0,0:0:0:0:
96,192,93122,1,8,0:0:0:0:
288,192,93247,1,0,0:0:0:0:
352,192,93372,1,0,0:0:0:0:
416,192,93497,1,0,0:0:0:0:
480,192,93622,1,0,0:0:0:0:
96,192,93622,1,8,0:0:0:0:
224,192,93622,1,0,0:0:0:0:
352,192,93747,1,0,0:0:0:0:
288,192,94122,1,8,0:0:0:0:
96,192,94372,1,0,0:0:0:0:
160,192,94497,1,0,0:0:0:0:
224,192,94622,1,0,0:0:0:0:
480,192,94622,1,8,0:0:0:0:
416,192,94872,1,0,0:0:0:0:
352,192,94997,1,0,0:0:0:0:
416,192,95122,1,8,0:0:0:0:
288,192,95122,1,0,0:0:0:0:
352,192,95247,1,0,0:0:0:0:
32,192,95372,5,4,0:0:0:0:
224,192,95372,1,0,0:0:0:0:
224,192,95497,1,0,0:0:0:0:
160,192,95622,1,8,0:0:0:0:
480,192,95747,1,0,0:0:0:0:
352,192,95747,1,0,0:0:0:0:
288,192,95997,1,0,0:0:0:0:
416,192,95997,1,0,0:0:0:0:
224,192,96122,1,8,0:0:0:0:
96,192,96372,1,0,0:0:0:0:
96,192,96497,1,0,0:0:0:0:
288,192,96622,1,8,0:0:0:0:
224,192,96747,1,0,0:0:0:0:
352,192,96747,1,0,0:0:0:0:
288,192,96997,1,0,0:0:0:0:
160,192,96997,1,0,0:0:0:0:
96,192,97122,1,8,0:0:0:0:
352,192,97247,1,0,0:0:0:0:
352,192,97372,1,0,0:0:0:0:
480,192,97497,1,0,0:0:0:0:
160,192,97622,1,8,0:0:0:0:
288,192,97747,1,0,0:0:0:0:
416,192,97747,1,0,0:0:0:0:
224,192,97997,1,0,0:0:0:0:
352,192,97997,1,0,0:0:0:0:
96,192,98122,1,8,0:0:0:0:
352,192,98372,1,0,0:0:0:0:
352,192,98497,1,0,0:0:0:0:
416,192,98622,1,8,0:0:0:0:
288,192,98747,1,0,0:0:0:0:
160,192,98747,1,0,0:0:0:0:
96,192,98997,1,0,0:0:0:0:
224,192,98997,1,0,0:0:0:0:
480,192,99122,1,8,0:0:0:0:
352,192,99247,1,0,0:0:0:0:
352,192,99372,1,0,0:0:0:0:
288,192,99497,1,0,0:0:0:0:
224,192,99622,1,8,0:0:0:0:
480,192,99747,1,0,0:0:0:0:
96,192,99747,1,0,0:0:0:0:
416,192,99997,1,0,0:0:0:0:
160,192,99997,1,0,0:0:0:0:
288,192,100122,1,8,0:0:0:0:
224,192,100372,1,0,0:0:0:0:
224,192,100497,1,0,0:0:0:0:
352,192,100622,1,8,0:0:0:0:
160,192,100747,1,0,0:0:0:0:
416,192,100747,1,0,0:0:0:0:
96,192,100997,1,0,0:0:0:0:
480,192,100997,1,0,0:0:0:0:
288,192,101122,1,8,0:0:0:0:
96,192,101247,1,0,0:0:0:0:
224,192,101372,1,0,0:0:0:0:
352,192,101497,1,0,0:0:0:0:
480,192,101622,128,8,102372:0:0:0:0:
416,192,102372,1,2,2:0:0:0:
288,192,102455,1,0,0:0:0:0:
160,192,102538,1,0,0:0:0:0:
352,192,102622,1,2,2:0:0:0:
224,192,102705,1,0,0:0:0:0:
96,192,102788,1,0,0:0:0:0:
480,192,102872,1,2,2:0:0:0:
352,192,102955,1,0,0:0:0:0:
224,192,103038,1,0,0:0:0:0:
416,192,103122,1,2,2:0:0:0:
288,192,103205,1,0,0:0:0:0:
160,192,103288,1,0,0:0:0:0:
32,192,103372,5,4,0:0:0:0:
480,192,103372,1,0,0:0:0:0:
352,192,103372,1,0,0:0:0:0:
96,192,103747,1,0,0:0:0:0:
416,192,103747,1,0,0:0:0:0:
352,192,104122,1,0,0:0:0:0:
416,192,104184,1,0,0:0:0:0:
480,192,104247,1,0,0:0:0:0:
96,192,104247,1,0,0:0:0:0:
160,192,104309,1,0,0:0:0:0:
224,192,104372,1,0,0:0:0:0:
288,192,104372,1,0,0:0:0:0:
160,192,104747,1,0,0:0:0:0:
288,192,104997,1,0,0:0:0:0:
352,192,105247,1,0,0:0:0:0:
416,192,105309,1,0,0:0:0:0:
32,192,105372,1,4,0:0:0:0:
96,192,105372,1,0,0:0:0:0:
480,192,105372,1,0,0:0:0:0:
416,192,105622,1,0,0:0:0:0:
352,192,105684,1,0,0:0:0:0:
288,192,105747,1,0,0:0:0:0:
224,192,105809,1,0,0:0:0:0:
160,192,105872,1,0,0:0:0:0:
96,192,105934,1,0,0:0:0:0:
32,192,105997,1,4,0:0:0:0:
288,192,105997,1,0,0:0:0:0:
480,192,105997,1,0,0:0:0:0:
96,192,106247,1,0,0:0:0:0:
160,192,106309,1,0,0:0:0:0:
224,192,106372,1,0,0:0:0:0:
416,192,106434,1,0,0:0:0:0:
352,192,106497,1,0,0:0:0:0:
288,192,106559,1,0,0:0:0:0:
32,192,106622,1,4,0:0:0:0:
480,192,106622,1,0,0:0:0:0:
224,192,106622,1,0,0:0:0:0:
160,192,106997,1,0,0:0:0:0:
352,192,106997,1,0,0:0:0:0:
96,192,107372,1,0,0:0:0:0:
480,192,107372,1,0,0:0:0:0:
224,192,107622,1,0,0:0:0:0:
416,192,107684,1,0,0:0:0:0:
288,192,107747,1,0,0:0:0:0:
352,192,107809,1,0,0:0:0:0:
224,192,107872,1,0,0:0:0:0:
32,192,107934,1,4,0:0:0:0:
160,192,107934,1,0,0:0:0:0:
416,192,107934,1,0,0:0:0:0:
288,192,108184,1,0,0:0:0:0:
352,192,108247,1,0,0:0:0:0:
416,192,108309,1,0,0:0:0:0:
480,192,108372,1,0,0:0:0:0:
224,192,108434,1,0,0:0:0:0:
160,192,108497,1,0,0:0:0:0:
32,192,108559,1,4,0:0:0:0:
96,192,108559,1,0,0:0:0:0:
352,192,108559,1,0,0:0:0:0:
160,192,108809,1,0,0:0:0:0:
416,192,108809,1,0,0:0:0:0:
32,192,109059,1,4,0:0:0:0:
224,192,109059,1,0,0:0:0:0:
480,192,109059,1,0,0:0:0:0:
352,192,109309,1,0,0:0:0:0:
416,192,109372,1,0,0:0:0:0:
32,192,109434,1,4,0:0:0:0:
224,192,109434,1,0,0:0:0:0:
480,192,109434,1,0,0:0:0:0:
96,192,109684,1,0,0:0:0:0:
160,192,109747,1,0,0:0:0:0:
416,192,109809,1,0,0:0:0:0:
352,192,109872,1,0,0:0:0:0:
32,192,109934,1,4,0:0:0:0:
480,192,109934,1,0,0:0:0:0:
288,192,109934,1,0,0:0:0:0:
96,192,110184,1,0,0:0:0:0:
160,192,110247,1,0,0:0:0:0:
224,192,110309,1,0,0:0:0:0:
288,192,110372,1,0,0:0:0:0:
32,192,110434,1,4,0:0:0:0:
480,192,110434,1,0,0:0:0:0:
352,192,110434,1,0,0:0:0:0:
416,192,110684,1,0,0:0:0:0:
352,192,110747,1,0,0:0:0:0:
32,192,110809,1,4,0:0:0:0:
288,192,110809,1,0,0:0:0:0:
96,192,110809,1,0,0:0:0:0:
416,192,111059,1,0,0:0:0:0:
480,192,111122,1,0,0:0:0:0:
160,192,111184,1,0,0:0:0:0:
96,192,111247,1,0,0:0:0:0:
32,192,111309,1,4,0:0:0:0:
224,192,111309,1,0,0:0:0:0:
416,192,111309,1,0,0:0:0:0:
288,192,111559,1,0,0:0:0:0:
224,192,111622,1,0,0:0:0:0:
160,192,111684,1,0,0:0:0:0:
96,192,111747,1,0,0:0:0:0:
32,192,111809,1,4,0:0:0:0:
352,192,111809,1,0,0:0:0:0:
480,192,111809,1,0,0:0:0:0:
224,192,112059,1,0,0:0:0:0:
96,192,112059,1,0,0:0:0:0:
32,192,112059,1,4,0:0:0:0:
160,192,112309,1,0,0:0:0:0:
224,192,112372,1,0,0:0:0:0:
32,192,112434,1,4,0:0:0:0:
288,192,112434,1,0,0:0:0:0:
352,192,112434,1,0,0:0:0:0:
160,192,112684,1,0,0:0:0:0:
224,192,112747,1,0,0:0:0:0:
416,192,112809,1,0,0:0:0:0:
352,192,112872,1,0,0:0:0:0:
32,192,112934,1,4,0:0:0:0:
288,192,112934,1,0,0:0:0:0:
96,192,112934,1,0,0:0:0:0:
480,192,113184,1,0,0:0:0:0:
416,192,113309,1,0,0:0:0:0:
352,192,113434,1,0,0:0:0:0:
288,192,113559,1,0,0:0:0:0:
224,192,113684,1,0,0:0:0:0:
288,192,113809,1,0,0:0:0:0:
96,192,113809,1,0,0:0:0:0:
32,192,113809,1,4,0:0:0:0:
352,192,114059,1,0,0:0:0:0:
352,192,114184,1,0,0:0:0:0:
96,192,114309,1,0,0:0:0:0:
288,192,114309,1,0,0:0:0:0:
352,192,114559,1,0,0:0:0:0:
96,192,114684,1,0,0:0:0:0:
288,192,114684,1,0,0:0:0:0:
32,192,115184,1,4,0:0:0:0:
480,192,115184,1,0,0:0:0:0:
480,192,115309,1,0,0:0:0:0:
352,192,115434,1,0,0:0:0:0:
224,192,115434,1,0,0:0:0:0:
288,192,115684,1,0,0:0:0:0:
160,192,115684,1,0,0:0:0:0:
96,192,115934,1,0,0:0:0:0:
96,192,116059,1,0,0:0:0:0:
352,192,116184,1,0,0:0:0:0:
32,192,116434,1,4,0:0:0:0:
480,192,116434,1,0,0:0:0:0:
352,192,116684,1,0,0:0:0:0:
352,192,116806,1,0,0:0:0:0:
288,192,116928,1,0,0:0:0:0:
160,192,116928,1,0,0:0:0:0:
96,192,117173,1,0,0:0:0:0:
224,192,117173,1,0,0:0:0:0:
160,192,117418,1,0,0:0:0:0:
160,192,117541,1,0,0:0:0:0:
288,192,117663,1,0,0:0:0:0:
32,192,117908,1,4,0:0:0:0:
416,192,117908,1,0,0:0:0:0:
96,192,118153,1,0,0:0:0:0:
96,192,118273,1,0,0:0:0:0:
224,192,118393,1,0,0:0:0:0:
352,192,118393,1,0,0:0:0:0:
32,192,118633,1,4,0:0:0:0:
288,192,118633,1,0,0:0:0:0:
416,192,118633,1,0,0:0:0:0:
160,192,118873,1,0,0:0:0:0:
160,192,118990,1,0,0:0:0:0:
288,192,119108,1,0,0:0:0:0:
416,192,119108,1,0,0:0:0:0:
32,192,119343,1,4,0:0:0:0:
352,192,119343,1,0,0:0:0:0:
480,192,119343,1,0,0:0:0:0:
160,192,119579,1,0,0:0:0:0:
224,192,119694,1,0,0:0:0:0:
288,192,119809,1,0,0:0:0:0:
32,192,119925,1,4,0:0:0:0:
480,192,119925,1,0,0:0:0:0:
416,192,120040,1,0,0:0:0:0:
352,192,120153,1,0,0:0:0:0:
160,192,120266,1,0,0:0:0:0:
32,192,120379,1,4,0:0:0:0:
96,192,120379,1,0,0:0:0:0:
224,192,120494,1,0,0:0:0:0:
416,192,120494,1,0,0:0:0:0:
352,192,120605,1,0,0:0:0:0:
288,192,120716,1,0,0:0:0:0:
96,192,120827,1,0,0:0:0:0:
224,192,120827,1,0,0:0:0:0:
480,192,120938,1,0,0:0:0:0:
160,192,121047,1,0,0:0:0:0:
288,192,121047,1,0,0:0:0:0:
416,192,121156,1,0,0:0:0:0:
96,192,121263,1,0,0:0:0:0:
480,192,121263,1,0,0:0:0:0:
352,192,121370,1,0,0:0:0:0:
224,192,121475,1,0,0:0:0:0:
416,192,121475,1,0,0:0:0:0:
288,192,121580,1,0,0:0:0:0:
96,192,121684,1,0,0:0:0:0:
352,192,121684,1,0,0:0:0:0:
224,192,121787,1,0,0:0:0:0:
160,192,121889,1,0,0:0:0:0:
416,192,121889,1,0,0:0:0:0:
96,192,121991,1,0,0:0:0:0:
480,192,122091,1,0,0:0:0:0:
352,192,122091,1,0,0:0:0:0:
160,192,122191,1,0,0:0:0:0:
288,192,122289,1,0,0:0:0:0:
224,192,122388,1,0,0:0:0:0:
352,192,122484,1,0,0:0:0:0:
96,192,122484,1,0,0:0:0:0:
480,192,122582,1,0,0:0:0:0:
416,192,122582,1,0,0:0:0:0:
352,192,122708,1,0,0:0:0:0:
288,192,122708,1,0,0:0:0:0:
160,192,122834,1,0,0:0:0:0:
224,192,122834,1,0,0:0:0:0:
352,192,122960,1,0,0:0:0:0:
416,192,122960,1,0,0:0:0:0:
288,192,123083,1,0,0:0:0:0:
224,192,123083,1,0,0:0:0:0:
160,192,123205,1,0,0:0:0:0:
96,192,123205,1,0,0:0:0:0:
288,192,123327,1,0,0:0:0:0:
352,192,123327,1,0,0:0:0:0:
160,192,123446,1,0,0:0:0:0:
224,192,123446,1,0,0:0:0:0:
96,192,123564,1,0,0:0:0:0:
480,192,123564,1,0,0:0:0:0:
416,192,123682,1,0,0:0:0:0:
352,192,123682,1,0,0:0:0:0:
288,192,123797,1,0,0:0:0:0:
224,192,123797,1,0,0:0:0:0:
160,192,123912,1,0,0:0:0:0:
96,192,123912,1,0,0:0:0:0:
32,192,125168,1,4,0:0:0:0:
480,192,125168,1,0,0:0:0:0:
480,192,125288,1,0,0:0:0:0:
160,192,125438,1,4,0:0:0:0:
288,192,125438,1,8,0:0:0:0:
352,192,125727,1,0,0:0:0:0:
32,192,125941,1,4,0:0:0:0:
224,192,125941,128,0,126541:0:0:0:0:
