osu file format v14

[General]
AudioFilename: audio.mp3
AudioLeadIn: 0
PreviewTime: 87620
Countdown: 1
SampleSet: Normal
StackLeniency: 0.7
Mode: 1
LetterboxInBreaks: 0
WidescreenStoryboard: 1

[Editor]
Bookmarks: 36038,43428,50812,65581,72966,87735
DistanceSpacing: 0.1
BeatDivisor: 1
GridSize: 32
TimelineZoom: 1

[Metadata]
Title:The Glorious (Final Sketch Remix)
TitleUnicode:The Glorious (Final Sketch Remix)
Artist:Her Bright Skies
ArtistUnicode:Her Bright Skies
Creator:tasuke912
Version:Kantan
Source:
Tags:Breakcore
BeatmapID:1579880
BeatmapSetID:750181

[Difficulty]
HPDrainRate:7
CircleSize:2
OverallDifficulty:4
ApproachRate:5
SliderMultiplier:1.4
SliderTickRate:1

[Events]
//Background and Video events
0,0,"bg.jpg",0,-15
//Break Periods
//Storyboard Layer 0 (Background)
//Storyboard Layer 1 (Fail)
//Storyboard Layer 2 (Pass)
//Storyboard Layer 3 (Foreground)
//Storyboard Sound Samples

[TimingPoints]
6510,230.769230769231,4,1,0,70,1,0
6510,-133.333333333333,4,1,0,70,0,0
65586,-133.333333333333,4,1,0,50,0,0
66510,-142.857142857143,4,1,0,50,0,0
67433,-153.846153846153,4,1,0,50,0,0
68356,-166.666666666667,4,1,0,50,0,0
69279,-153.846153846153,4,1,0,50,0,0
70202,-166.666666666667,4,1,0,50,0,0
71125,-181.818181818182,4,1,0,50,0,0
72048,-200,4,1,0,50,0,0
72510,-117.647058823529,4,1,0,80,0,0
72971,-117.647058823529,4,1,0,90,0,0
87740,-117.647058823529,4,1,0,90,0,1
100663,-117.647058823529,4,1,0,90,0,0
102510,-117.647058823529,4,1,0,90,0,1
117279,-117.647058823529,4,1,0,90,0,0
117394,-117.647058823529,4,1,0,50,0,0
117510,-133.333333333333,4,1,0,50,0,0
122760,-133.333333333333,4,1,0,80,0,0
126509,230.769230769231,4,1,0,80,1,8
126529,230.769230769231,4,1,0,80,1,0
126529,-133.333333333333,4,1,0,80,0,0
128356,230.769230769231,4,1,0,80,1,0
128356,-133.333333333333,4,1,0,80,0,0
132048,-117.647058823529,4,1,0,90,0,1
144971,-117.647058823529,4,1,0,90,0,0
146817,-117.647058823529,4,1,0,90,0,1
161586,-117.647058823529,4,1,0,90,0,0
163432,-117.647058823529,4,1,0,90,0,1
165279,-117.647058823529,4,1,0,90,0,0
167125,-117.647058823529,4,1,0,90,0,1
168971,-117.647058823529,4,1,0,90,0,0
170817,-117.647058823529,4,1,0,90,0,1
172663,-117.647058823529,4,1,0,90,0,0
174509,-117.647058823529,4,1,0,90,0,1
177279,-117.647058823529,4,1,0,90,0,0

[HitObjects]
256,192,36048,5,0,0:0:0:0:
256,192,36510,1,2,0:0:0:0:
256,192,37433,1,2,0:0:0:0:
256,192,37894,1,0,0:0:0:0:
256,192,38356,1,2,0:0:0:0:
256,192,38817,1,0,0:0:0:0:
256,192,39048,1,2,0:0:0:0:
256,192,39279,1,0,0:0:0:0:
256,192,39740,1,0,0:0:0:0:
256,192,40202,1,2,0:0:0:0:
256,192,40894,1,2,0:0:0:0:
256,192,41125,1,0,0:0:0:0:
256,192,41586,1,0,0:0:0:0:
256,192,42048,1,2,0:0:0:0:
256,192,42510,1,2,0:0:0:0:
256,192,42740,1,2,0:0:0:0:
256,192,42971,1,0,0:0:0:0:
256,192,43433,1,0,0:0:0:0:
256,192,43894,1,2,0:0:0:0:
256,192,44817,1,2,0:0:0:0:
256,192,45279,1,0,0:0:0:0:
256,192,45740,1,2,0:0:0:0:
256,192,46202,1,2,0:0:0:0:
256,192,46433,1,0,0:0:0:0:
256,192,46663,1,2,0:0:0:0:
256,192,47125,1,0,0:0:0:0:
256,192,47586,1,2,0:0:0:0:
256,192,48279,1,2,0:0:0:0:
256,192,48510,1,0,0:0:0:0:
256,192,48971,1,0,0:0:0:0:
256,192,49433,1,2,0:0:0:0:
256,192,49894,1,2,0:0:0:0:
256,192,50356,1,0,0:0:0:0:
256,192,50586,1,0,0:0:0:0:
256,192,50817,1,0,0:0:0:0:
256,192,51279,1,2,0:0:0:0:
256,192,52202,1,2,0:0:0:0:
256,192,52663,1,0,0:0:0:0:
256,192,53125,1,2,0:0:0:0:
256,192,53586,1,0,0:0:0:0:
256,192,53817,1,2,0:0:0:0:
256,192,54048,1,0,0:0:0:0:
256,192,54510,1,0,0:0:0:0:
256,192,54971,1,2,0:0:0:0:
256,192,55663,1,2,0:0:0:0:
256,192,55894,1,0,0:0:0:0:
256,192,56356,1,0,0:0:0:0:
256,192,56817,1,2,0:0:0:0:
256,192,57279,1,2,0:0:0:0:
256,192,57510,1,2,0:0:0:0:
256,192,57740,1,0,0:0:0:0:
256,192,58202,1,0,0:0:0:0:
256,192,58663,1,2,0:0:0:0:
256,192,59586,1,2,0:0:0:0:
256,192,60048,1,0,0:0:0:0:
256,192,60279,1,0,0:0:0:0:
256,192,60510,1,2,0:0:0:0:
256,192,60971,1,0,0:0:0:0:
256,192,61202,1,2,0:0:0:0:
256,192,61433,1,2,0:0:0:0:
256,192,61894,1,0,0:0:0:0:
256,192,62356,1,2,0:0:0:0:
256,192,63048,1,2,0:0:0:0:
256,192,63279,1,0,0:0:0:0:
256,192,63740,1,0,0:0:0:0:
256,192,64202,1,2,0:0:0:0:
256,192,64433,1,2,0:0:0:0:
256,192,64663,1,2,0:0:0:0:
256,192,65125,1,2,0:0:0:0:
256,192,65586,1,0,0:0:0:0:
256,192,65817,1,0,0:0:0:0:
256,192,67433,1,0,0:0:0:0:
256,192,67663,1,0,0:0:0:0:
256,192,69279,1,0,0:0:0:0:
256,192,69510,1,0,0:0:0:0:
256,192,71125,1,0,0:0:0:0:
256,192,72971,5,4,0:0:0:0:
256,192,73317,1,4,0:0:0:0:
256,192,73663,1,4,0:0:0:0:
256,192,75048,1,4,0:0:0:0:
256,192,75394,1,4,0:0:0:0:
256,192,75740,1,6,0:0:0:0:
256,192,76086,1,6,0:0:0:0:
256,192,76433,1,6,0:0:0:0:
256,192,76663,1,4,0:0:0:0:
256,192,77010,1,6,0:0:0:0:
256,192,77356,1,4,0:0:0:0:
256,192,78510,1,4,0:0:0:0:
256,192,78971,1,2,0:0:0:0:
256,192,79202,1,4,0:0:0:0:
256,192,79433,1,2,0:0:0:0:
256,192,79894,1,4,0:0:0:0:
256,192,80125,1,2,0:0:0:0:
256,192,80356,1,4,0:0:0:0:
256,192,80702,1,4,0:0:0:0:
256,192,81048,1,4,0:0:0:0:
256,192,82433,1,4,0:0:0:0:
256,192,82779,1,4,0:0:0:0:
256,192,83125,1,6,0:0:0:0:
256,192,83471,1,6,0:0:0:0:
256,192,83817,1,6,0:0:0:0:
256,192,84048,1,4,0:0:0:0:
256,192,84394,1,6,0:0:0:0:
256,192,84740,1,4,0:0:0:0:
256,192,86125,1,2,0:0:0:0:
256,192,86471,1,2,0:0:0:0:
256,192,86817,1,2,0:0:0:0:
256,192,87048,1,0,0:0:0:0:
256,192,87279,1,2,0:0:0:0:
256,192,87740,1,4,0:0:0:0:
256,192,88202,1,2,0:0:0:0:
256,192,88663,1,0,0:0:0:0:
256,192,88894,1,0,0:0:0:0:
256,192,89125,1,2,0:0:0:0:
256,192,89586,1,2,0:0:0:0:
256,192,89817,1,0,0:0:0:0:
256,192,90048,1,2,0:0:0:0:
256,192,90510,1,2,0:0:0:0:
256,192,91202,1,2,0:0:0:0:
256,192,91433,1,0,0:0:0:0:
256,192,91894,1,2,0:0:0:0:
256,192,92356,1,0,0:0:0:0:
256,192,92586,1,2,0:0:0:0:
256,192,92817,1,2,0:0:0:0:
256,192,93279,1,0,0:0:0:0:
256,192,93740,1,2,0:0:0:0:
256,192,93971,1,0,0:0:0:0:
256,192,94202,1,2,0:0:0:0:
256,192,94663,1,0,0:0:0:0:
256,192,95356,1,2,0:0:0:0:
256,192,95702,1,2,0:0:0:0:
256,192,96048,1,2,0:0:0:0:
256,192,96510,1,0,0:0:0:0:
256,192,97202,1,4,0:0:0:0:
256,192,97548,1,4,0:0:0:0:
256,192,97894,1,6,0:0:0:0:
256,192,98240,1,6,0:0:0:0:
256,192,98586,1,6,0:0:0:0:
256,192,99048,1,2,0:0:0:0:
256,192,99394,1,2,0:0:0:0:
256,192,99740,1,2,0:0:0:0:
256,192,100202,1,0,0:0:0:0:
256,192,100433,1,2,0:0:0:0:
256,192,101586,1,2,0:0:0:0:
256,192,101817,1,0,0:0:0:0:
256,192,102048,1,2,0:0:0:0:
256,192,102510,1,4,0:0:0:0:
256,192,102971,1,2,0:0:0:0:
256,192,103433,1,0,0:0:0:0:
256,192,103663,1,0,0:0:0:0:
256,192,103894,1,2,0:0:0:0:
256,192,104356,1,2,0:0:0:0:
256,192,104586,1,0,0:0:0:0:
256,192,104817,1,2,0:0:0:0:
256,192,105279,1,2,0:0:0:0:
256,192,105625,1,2,0:0:0:0:
256,192,105971,1,2,0:0:0:0:
256,192,106202,1,0,0:0:0:0:
256,192,106663,1,2,0:0:0:0:
256,192,107125,1,0,0:0:0:0:
256,192,107356,1,2,0:0:0:0:
256,192,107586,1,2,0:0:0:0:
256,192,108048,1,0,0:0:0:0:
256,192,108510,1,2,0:0:0:0:
256,192,108740,1,0,0:0:0:0:
256,192,108971,1,2,0:0:0:0:
256,192,109433,1,0,0:0:0:0:
256,192,110125,1,2,0:0:0:0:
256,192,110471,1,2,0:0:0:0:
256,192,110817,1,2,0:0:0:0:
256,192,111279,1,0,0:0:0:0:
256,192,111971,1,4,0:0:0:0:
256,192,112317,1,4,0:0:0:0:
256,192,112663,1,6,0:0:0:0:
256,192,113010,1,6,0:0:0:0:
256,192,113356,1,6,0:0:0:0:
256,192,113817,1,2,0:0:0:0:
256,192,114163,1,2,0:0:0:0:
256,192,114510,1,2,0:0:0:0:
256,192,114971,1,0,0:0:0:0:
256,192,115202,1,2,0:0:0:0:
256,192,116356,1,2,0:0:0:0:
256,192,116586,1,0,0:0:0:0:
256,192,116817,1,2,0:0:0:0:
256,192,117279,1,6,0:0:0:0:
256,192,117394,12,0,120971,0:0:0:0:
256,192,122817,5,2,0:0:0:0:
256,192,123048,1,0,0:0:0:0:
256,192,123510,1,0,0:0:0:0:
256,192,123740,1,0,0:0:0:0:
256,192,124202,1,2,0:0:0:0:
256,192,124663,1,4,0:0:0:0:
256,192,126529,1,2,0:0:0:0:
256,192,127221,1,2,0:0:0:0:
256,192,127942,1,2,0:0:0:0:
256,192,128356,12,0,131586,0:0:0:0:
256,192,132048,5,4,0:0:0:0:
256,192,132509,1,2,0:0:0:0:
256,192,132971,1,0,0:0:0:0:
256,192,133202,1,0,0:0:0:0:
256,192,133432,1,2,0:0:0:0:
256,192,133894,1,2,0:0:0:0:
256,192,134125,1,0,0:0:0:0:
256,192,134356,1,2,0:0:0:0:
256,192,134817,1,4,0:0:0:0:
256,192,135163,1,4,0:0:0:0:
256,192,135509,1,6,0:0:0:0:
256,192,135971,1,0,0:0:0:0:
256,192,136202,1,2,0:0:0:0:
256,192,136663,1,2,0:0:0:0:
256,192,137125,1,0,0:0:0:0:
256,192,137356,1,2,0:0:0:0:
256,192,137586,1,0,0:0:0:0:
256,192,138048,1,2,0:0:0:0:
256,192,138279,1,0,0:0:0:0:
256,192,138509,1,2,0:0:0:0:
256,192,138971,1,2,0:0:0:0:
256,192,139663,1,0,0:0:0:0:
256,192,139894,1,0,0:0:0:0:
256,192,140125,1,0,0:0:0:0:
256,192,140356,1,2,0:0:0:0:
256,192,140817,1,0,0:0:0:0:
256,192,141048,1,2,0:0:0:0:
256,192,141509,1,2,0:0:0:0:
256,192,141740,1,2,0:0:0:0:
256,192,141971,1,2,0:0:0:0:
256,192,142202,1,0,0:0:0:0:
256,192,142663,1,2,0:0:0:0:
256,192,142894,1,0,0:0:0:0:
256,192,143356,1,2,0:0:0:0:
256,192,143586,1,0,0:0:0:0:
256,192,143817,1,0,0:0:0:0:
256,192,144048,1,2,0:0:0:0:
256,192,144509,1,0,0:0:0:0:
256,192,144740,1,2,0:0:0:0:
256,192,145894,1,2,0:0:0:0:
256,192,146125,1,0,0:0:0:0:
256,192,146356,1,2,0:0:0:0:
256,192,146817,1,4,0:0:0:0:
256,192,147279,1,2,0:0:0:0:
256,192,147740,1,0,0:0:0:0:
256,192,147971,1,0,0:0:0:0:
256,192,148202,1,2,0:0:0:0:
256,192,148432,1,2,0:0:0:0:
256,192,148894,1,0,0:0:0:0:
256,192,149125,1,2,0:0:0:0:
256,192,149586,1,4,0:0:0:0:
256,192,149932,1,4,0:0:0:0:
256,192,150279,1,6,0:0:0:0:
256,192,150740,1,0,0:0:0:0:
256,192,150971,1,2,0:0:0:0:
256,192,151432,1,2,0:0:0:0:
256,192,151894,1,2,0:0:0:0:
256,192,152125,1,2,0:0:0:0:
256,192,152356,1,0,0:0:0:0:
256,192,152817,1,2,0:0:0:0:
256,192,153048,1,0,0:0:0:0:
256,192,153279,1,2,0:0:0:0:
256,192,153740,1,2,0:0:0:0:
256,192,154432,1,2,0:0:0:0:
256,192,154663,1,0,0:0:0:0:
256,192,154894,1,0,0:0:0:0:
256,192,155125,1,2,0:0:0:0:
256,192,155586,1,0,0:0:0:0:
256,192,155817,1,2,0:0:0:0:
256,192,156279,1,0,0:0:0:0:
256,192,156509,1,2,0:0:0:0:
256,192,156740,1,2,0:0:0:0:
256,192,156971,1,0,0:0:0:0:
256,192,157432,1,2,0:0:0:0:
256,192,157663,1,0,0:0:0:0:
256,192,158125,1,2,0:0:0:0:
256,192,158356,1,2,0:0:0:0:
256,192,158586,1,2,0:0:0:0:
256,192,158817,1,2,0:0:0:0:
256,192,159279,1,0,0:0:0:0:
256,192,159509,1,2,0:0:0:0:
256,192,160663,1,2,0:0:0:0:
256,192,160894,1,0,0:0:0:0:
256,192,161125,1,2,0:0:0:0:
256,192,161586,5,6,0:0:0:0:
256,192,163432,1,0,0:0:0:0:
256,192,163779,1,0,0:0:0:0:
256,192,164125,1,0,0:0:0:0:
256,192,164356,1,2,0:0:0:0:
256,192,164702,1,2,0:0:0:0:
256,192,165048,1,2,0:0:0:0:
256,192,165279,1,4,0:0:0:0:
256,192,167125,1,0,0:0:0:0:
256,192,167471,1,0,0:0:0:0:
256,192,167817,1,0,0:0:0:0:
256,192,168048,1,2,0:0:0:0:
256,192,168394,1,2,0:0:0:0:
256,192,168740,1,2,0:0:0:0:
256,192,168971,1,4,0:0:0:0:
256,192,170817,1,0,0:0:0:0:
256,192,171163,1,0,0:0:0:0:
256,192,171509,1,0,0:0:0:0:
256,192,171740,1,2,0:0:0:0:
256,192,172086,1,2,0:0:0:0:
256,192,172432,1,2,0:0:0:0:
256,192,172663,1,4,0:0:0:0:
256,192,174509,1,4,0:0:0:0:
256,192,174856,1,4,0:0:0:0:
256,192,175202,1,4,0:0:0:0:
256,192,175432,1,6,0:0:0:0:
256,192,175894,1,2,0:0:0:0:
256,192,176125,1,0,0:0:0:0:
256,192,176356,1,6,0:0:0:0:
256,192,177048,1,2,0:0:0:0:
256,192,177279,1,0,0:0:0:0:
