osu file format v14

[General]
AudioFilename: audio.mp3
AudioLeadIn: 0
PreviewTime: 17257
Countdown: 0
SampleSet: Normal
StackLeniency: 0.4
Mode: 0
LetterboxInBreaks: 0
WidescreenStoryboard: 1

[Editor]
DistanceSpacing: 0.8
BeatDivisor: 4
GridSize: 8
TimelineZoom: 6.100002

[Metadata]
Title:Brick by Brick
TitleUnicode:Brick by Brick
Artist:Henry Salvia, Kathleen Enright
ArtistUnicode:Henry Salvia, Kathleen Enright
Creator:Apo11o
Version:Tock by Tick
Source:LEGO Island
Tags:ajt respirte frenz396 mrowswares english folk country vgm video game project alternator
BeatmapID:3218312
BeatmapSetID:1576337

[Difficulty]
HPDrainRate:5
CircleSize:4
OverallDifficulty:9.4
ApproachRate:9.4
SliderMultiplier:2.9
SliderTickRate:1

[Events]
//Background and Video events
0,0,"3282726d-40bc-46d3-bc8c-59a9f3227eb9.jpg",0,0
//Break Periods
2,30822,33399
2,61088,63069
2,92969,93679
2,121354,123320
//Storyboard Layer 0 (Background)
//Storyboard Layer 1 (Fail)
//Storyboard Layer 2 (Pass)
//Storyboard Layer 3 (Foreground)
//Storyboard Layer 4 (Overlay)
//Storyboard Sound Samples

[TimingPoints]
170,427.350427350427,4,1,1,60,1,0
1879,421.052631578947,4,1,1,60,1,0
3563,425.531914893617,4,1,1,60,1,0
5265,427.960057061341,4,1,1,60,1,0
6976,424.628450106157,4,1,1,60,1,0
6976,-83.3333333333333,4,1,1,60,0,0
10373,416.377515614157,4,1,1,60,1,0
10373,-71.4285714285714,4,1,1,60,0,0
10790,-83.3333333333333,4,1,1,60,0,0
11206,-71.4285714285714,4,1,1,60,0,0
11623,-83.3333333333333,4,1,1,60,0,0
12039,417.827298050139,4,1,1,60,1,0
12039,-58.8235294117647,4,1,1,60,0,0
13710,421.348314606742,4,1,1,60,1,0
13710,-83.3333333333333,4,1,1,60,0,0
15395,413.507925568573,4,1,1,60,1,0
15395,-58.8235294117647,4,1,1,60,0,0
17049,416.666666666667,4,1,1,60,1,0
17257,-71.4285714285714,4,1,1,70,0,1
18715,417.827298050139,4,1,1,70,1,1
18923,-66.6666666666667,4,1,1,70,0,1
20386,420.168067226891,4,1,1,70,1,1
20386,-71.4285714285714,4,1,1,70,0,1
23746,418.410041841004,4,1,1,70,1,1
23746,-71.4285714285714,4,1,1,70,0,1
27093,423.429781227946,4,1,1,70,1,1
27093,-66.6666666666667,4,1,1,70,0,1
28786,472.44094488189,4,1,1,60,1,0
29730,446.096654275093,4,1,1,60,1,0
30622,414.651002073255,4,1,1,60,1,0
35600,419.874037788663,4,1,1,60,1,0
35600,-83.3333333333333,4,1,1,60,0,0
37279,418.994413407821,4,1,1,60,1,0
38954,414.573645553352,4,1,1,60,1,0
38954,-83.3333333333333,4,1,1,60,0,0
40197,-100,4,1,1,60,0,0
40612,417.827298050139,4,1,1,60,1,0
40612,-71.4285714285714,4,1,1,60,0,0
41656,-58.8235294117647,4,1,1,60,0,0
42283,416.377515614157,4,1,1,60,1,0
42283,-83.3333333333333,4,1,1,60,0,0
43948,418.994413407821,4,1,1,60,1,0
43948,-71.4285714285714,4,1,1,60,0,0
45623,421.644413211525,4,1,1,60,1,0
47309,418.410041841004,4,1,1,60,1,0
47518,-66.6666666666667,4,1,1,70,0,1
49191,-55.5555555555556,4,1,1,70,0,1
50655,420.168067226891,4,1,1,70,1,1
50655,-66.6666666666667,4,1,1,70,0,1
52335,422.832980972516,4,1,1,70,1,1
52335,-55.5555555555556,4,1,1,70,0,1
54026,420.757363253857,4,1,1,70,1,1
54026,-66.6666666666667,4,1,1,70,0,1
55709,417.246175243394,4,1,1,70,1,1
55709,-66.6666666666667,4,1,1,70,0,1
57377,422.832980972516,4,1,1,70,1,1
59068,461.538461538462,4,1,1,60,1,0
59991,448.765893792072,4,1,1,60,1,0
60888,419.58041958042,4,1,1,60,1,0
62566,417.536534446764,4,1,1,60,1,0
63609,-71.4285714285714,4,1,1,60,0,0
64236,417.827298050139,4,1,1,60,1,0
64236,-71.4285714285714,4,1,1,60,0,0
64967,-100,4,1,1,60,0,0
65907,416.088765603329,4,1,1,60,1,0
65907,-71.4285714285714,4,1,1,60,0,0
67571,417.246175243394,4,1,1,60,1,0
68822,-55.5555555555556,4,1,1,60,0,0
69239,418.118466898955,4,1,1,60,1,0
70075,-71.4285714285714,4,1,1,60,0,0
70911,414.9377593361,4,1,1,60,1,0
72570,415.800415800416,4,1,1,60,1,0
74233,418.702023726448,4,1,1,60,1,0
74547,-83.3333333333333,4,1,1,60,0,0
74861,-71.4285714285714,4,1,1,60,0,0
75175,-62.5,4,1,1,60,0,0
75907,418.118466898955,4,1,1,60,1,0
77161,-1000,4,1,1,60,0,0
77579,417.536534446764,4,1,1,60,1,0
77787,-71.4285714285714,4,1,1,60,0,0
78831,-83.3333333333333,4,1,1,60,0,0
79249,414.07867494824,4,1,1,60,1,0
79249,-83.3333333333333,4,1,1,60,0,0
80905,412.654745529574,4,1,1,60,1,0
80905,-83.3333333333333,4,1,1,60,0,0
82555,414.9377593361,4,1,1,60,1,0
82555,-83.3333333333333,4,1,1,60,0,0
84214,416.088765603329,4,1,1,60,1,0
84422,-71.4285714285714,4,1,1,60,0,0
85878,417.246175243394,4,1,1,60,1,0
86086,-71.4285714285714,4,1,1,60,0,0
86712,-76.3358778625954,4,1,1,60,0,0
87546,416.956219596942,4,1,1,60,1,0
87546,-71.4285714285714,4,1,1,60,0,0
89213,416.377515614157,4,1,1,60,1,0
89213,-71.4285714285714,4,1,1,60,0,0
90878,418.994413407821,4,1,1,60,1,0
92553,416.666666666667,4,1,1,60,1,0
94219,427.046263345196,4,1,1,60,1,0
95500,-55.5555555555556,4,1,1,60,0,0
95713,-100,4,1,1,60,0,0
95927,415.800415800416,4,1,1,60,1,0
95927,-83.3333333333333,4,1,1,60,0,0
97590,416.377515614157,4,1,1,60,1,0
99255,-83.3333333333333,4,1,1,60,0,0
100920,417.536534446764,4,1,1,60,1,0
100920,-71.4285714285714,4,1,1,60,0,0
102590,418.410041841004,4,1,1,60,1,0
102590,-71.4285714285714,4,1,1,60,0,0
104263,417.246175243394,4,1,1,60,1,0
104263,-71.4285714285714,4,1,1,60,0,0
105931,416.088765603329,4,1,1,60,1,0
105931,-58.8235294117647,4,1,1,60,0,0
107595,420.757363253857,4,1,1,60,1,0
107805,-66.6666666666667,4,1,1,70,0,1
109278,419.874037788663,4,1,1,70,1,1
109487,-55.5555555555556,4,1,1,70,0,1
110957,418.994413407821,4,1,1,70,1,1
110957,-66.6666666666667,4,1,1,70,0,1
112632,419.58041958042,4,1,1,70,1,1
112632,-66.6666666666667,4,1,1,70,0,1
114310,418.410041841004,4,1,1,70,1,1
114310,-66.6666666666667,4,1,1,70,0,1
115983,417.827298050139,4,1,1,70,1,1
115983,-66.6666666666667,4,1,1,70,0,1
117654,423.429781227946,4,1,1,70,1,1
119347,447.761194029851,4,1,1,60,1,0
120242,456.273764258555,4,1,1,60,1,0
121154,421.348314606742,4,1,1,60,1,0
121996,415.512465373961,4,1,1,60,1,0
122827,413.223140495868,4,1,1,60,1,0
124479,422.237860661506,4,1,1,60,1,0
124479,-71.4285714285714,4,1,1,60,0,0
125112,-83.3333333333333,4,1,1,60,0,0
126167,421.348314606742,4,1,1,60,1,0
126167,-83.3333333333333,4,1,1,60,0,0
131222,420.757363253857,4,1,1,60,1,0
131222,-62.5,4,1,1,60,0,0
132905,418.118466898955,4,1,1,60,1,0
132905,-62.5,4,1,1,60,0,0
134577,422.237860661506,4,1,1,60,1,0
134999,-83.3333333333333,4,1,1,60,0,0
135421,-71.4285714285714,4,1,1,60,0,0
135843,-62.5,4,1,1,60,0,0
136265,421.052631578947,4,1,1,60,1,0
137528,-1000,4,1,1,60,0,0
137949,417.827298050139,4,1,1,60,1,0
138157,-71.4285714285714,4,1,1,70,0,1
139620,420.757363253857,4,1,1,70,1,1
139830,-55.5555555555556,4,1,1,70,0,1
141303,419.874037788663,4,1,1,70,1,1
141303,-71.4285714285714,4,1,1,70,0,1
142982,423.429781227946,4,1,1,70,1,1
142982,-55.5555555555556,4,1,1,70,0,1
144675,421.940928270042,4,1,1,70,1,1
144675,-71.4285714285714,4,1,1,70,0,1
145518,-55.5555555555556,4,1,1,70,0,1
145940,-71.4285714285714,4,1,1,70,0,1
146362,421.348314606742,4,1,1,70,1,1
146362,-71.4285714285714,4,1,1,70,0,1
148047,424.328147100424,4,1,1,70,1,1
148047,-71.4285714285714,4,1,1,70,0,1
149744,421.052631578947,4,1,1,70,1,1
149744,-62.5,4,1,1,70,0,1
151428,420.462508759636,4,1,1,70,1,1
151428,-55.5555555555556,4,1,1,70,0,1
153109,451.127819548872,4,1,1,60,1,0
154011,466.926070038911,4,1,1,60,1,0
154944,416.666666666667,4,1,1,60,1,0
156610,416.088765603329,4,1,1,60,1,0
158274,400,4,1,1,60,1,0
158674,408.163265306122,4,1,1,60,1,0
159082,408.719346049046,4,1,1,60,1,0

[Colours]
Combo1 : 138,223,134
Combo2 : 140,151,242
Combo3 : 228,99,99
Combo4 : 218,221,100

[HitObjects]
279,310,3142,6,0,L|285:236,1,72.5,2|0,0:1|0:0,0:0:0:0:
291,165,3352,2,0,L|285:237,1,72.5,10|0,0:0|0:0,0:0:0:0:
354,319,3563,2,0,L|366:173,1,145,2|8,3:1|0:0,0:0:0:0:
219,124,3882,1,0,0:0:0:0:
219,124,3988,2,0,L|214:197,1,72.5,2|0,3:1|0:0,0:0:0:0:
373,72,4201,6,0,B|308:104|263:74|283:45|220:21|168:57,1,217.5,10|0,0:0|0:0,0:0:0:0:
92,108,4626,2,0,L|79:25,1,72.5,10|0,0:0|0:0,0:0:0:0:
63,185,4839,2,0,L|-2:237,1,72.5,2|0,3:1|0:0,0:0:0:0:
146,170,5052,2,0,L|224:200,1,72.5,10|0,0:0|0:0,0:0:0:0:
50,303,5265,6,0,L|194:281,1,145,2|8,3:1|0:0,0:0:0:0:
353,343,5585,1,0,0:0:0:0:
353,343,5692,2,0,L|209:365,1,145,2|8,3:1|0:0,0:0:0:0:
38,295,6013,1,0,0:0:0:0:
38,295,6120,2,0,B|52:260|40:221|21:235|14:193|32:156,2,145,2|8|0,3:1|0:0|3:1,0:0:0:0:
38,295,6762,1,8,0:0:0:0:
154,208,6976,6,0,P|200:216|246:199,1,86.9999973449708,2|0,3:1|0:0,0:0:0:0:
283,20,7188,2,0,L|273:130,1,86.9999973449708,10|0,0:0|0:0,0:0:0:0:
467,227,7400,2,0,P|420:230|376:208,1,86.9999973449708,2|0,3:1|0:0,0:0:0:0:
364,29,7612,2,0,L|354:139,1,86.9999973449708,10|0,0:0|0:0,0:0:0:0:
227,203,7825,5,2,3:1:0:0:
227,203,7931,1,0,0:0:0:0:
227,203,8037,2,0,B|163:198|163:198|180:215,1,86.9999973449708,8|0,0:0|0:0,0:0:0:0:
382,257,8249,1,2,3:1:0:0:
382,257,8356,1,0,0:0:0:0:
382,257,8462,2,0,B|445:263|445:263|429:245,1,86.9999973449708,8|0,0:0|0:0,0:0:0:0:
204,283,8674,6,0,P|173:305|151:355,1,86.9999973449708,2|0,3:1|0:0,0:0:0:0:
382,270,8886,2,0,P|354:237|315:221,1,86.9999973449708,10|0,0:0|0:0,0:0:0:0:
307,304,9099,2,0,P|330:341|333:384,1,86.9999973449708,2|0,3:1|0:0,0:0:0:0:
146,225,9311,2,0,P|183:203|227:203,1,86.9999973449708,10|0,0:0|0:0,0:0:0:0:
399,103,9523,5,2,3:1:0:0:
399,103,9629,1,0,0:0:0:0:
399,103,9736,2,0,B|515:91,1,86.9999973449708,8|0,0:0|0:0,0:0:0:0:
314,115,9948,1,2,3:1:0:0:
314,115,10054,1,0,0:0:0:0:
314,115,10160,2,0,B|198:127,1,86.9999973449708,8|0,0:0|0:0,0:0:0:0:
61,151,10374,6,0,B|83:152|106:177|106:177|117:144|146:134,1,101.499996902466,2|0,3:1|0:0,0:0:0:0:
127,50,10582,2,0,B|101:51|82:24|82:24|74:52|46:63,1,101.499996902466,10|0,0:0|0:0,0:0:0:0:
123,257,10790,1,2,3:1:0:0:
123,257,10894,1,0,0:0:0:0:
123,257,10998,2,0,L|131:353,1,86.9999973449708,10|0,0:0|0:0,0:0:0:0:
200,282,11206,2,0,B|245:310|245:310|200:345,1,101.499996902466,2|0,3:1|0:0,0:0:0:0:
57,353,11414,2,0,B|13:323|13:323|67:285,1,101.499996902466,10|0,0:0|0:0,0:0:0:0:
115,180,11623,2,0,L|106:29,2,86.9999973449708,2|0|10,3:1|0:0|0:0,0:0:0:0:
26,50,11935,1,0,0:0:0:0:
26,50,12039,6,0,L|155:43,1,123.250002350807,2|0,3:1|0:0,0:0:0:0:
277,56,12247,2,0,L|23:71,1,246.500004701614,8|0,0:1|3:0,0:0:0:0:
486,334,12665,6,0,L|357:341,1,123.250002350807,8|0,0:1|0:0,0:0:0:0:
235,328,12874,2,0,L|481:314,1,246.500004701614,2|8,3:1|0:0,0:0:0:0:
256,192,13292,5,0,3:0:0:0:
256,192,13396,1,0,0:0:0:0:
256,192,13501,1,8,0:0:0:0:
389,245,13710,6,0,L|480:239,1,86.9999973449708,2|0,3:1|0:0,0:0:0:0:
427,166,13920,2,0,L|386:247,1,86.9999973449708,10|0,0:1|0:0,0:0:0:0:
340,171,14131,2,0,L|431:165,1,86.9999973449708,2|0,3:1|0:0,0:0:0:0:
378,92,14342,2,0,L|337:173,1,86.9999973449708,10|0,0:1|0:0,0:0:0:0:
291,97,14552,2,0,L|464:85,2,173.999994689942,2|8|0,3:1|0:0|3:0,0:0:0:0:
208,295,15184,5,8,0:0:0:0:
208,295,15290,1,0,0:0:0:0:
208,295,15395,2,0,L|389:283,1,123.250002350807,2|0,3:1|0:0,0:0:0:0:
262,184,15601,1,8,0:0:0:0:
262,184,15705,1,0,0:0:0:0:
262,184,15808,2,0,L|181:347,1,123.250002350807,2|0,3:1|0:0,0:0:0:0:
139,192,16015,1,8,0:0:0:0:
139,192,16118,1,0,0:0:0:0:
139,192,16222,2,0,L|320:179,1,123.250002350807,2|0,3:1|0:0,0:0:0:0:
242,85,16428,5,10,0:0:0:0:
239,65,16532,1,2,0:0:0:0:
321,89,16635,5,10,3:1:0:0:
311,106,16738,1,10,0:0:0:0:
383,150,16842,5,10,0:0:0:0:
364,157,16945,1,10,0:0:0:0:
360,232,17049,5,10,3:1:0:0:
54,347,17257,6,0,P|102:347|158:391,1,101.499996902466,10|0,0:0|0:0,0:0:0:0:
124,280,17465,1,0,3:0:0:0:
124,280,17569,2,0,P|79:303|54:346,1,101.499996902466,2|8,0:0|0:0,0:0:0:0:
31,252,17778,1,0,0:0:0:0:
31,252,17882,2,0,P|79:252|135:296,1,101.499996902466,2|0,3:1|0:0,0:0:0:0:
101,185,18090,2,0,P|56:208|31:251,1,101.499996902466,8|0,0:0|0:0,0:0:0:0:
246,311,18299,5,0,3:0:0:0:
255,274,18403,1,0,0:0:0:0:
264,237,18507,1,8,0:0:0:0:
438,351,18715,5,0,3:0:0:0:
427,81,18923,6,0,P|384:56|321:61,1,108.750004148483,10|0,0:0|0:0,0:0:0:0:
357,156,19132,1,0,3:0:0:0:
357,156,19237,2,0,P|380:107|426:80,1,108.750004148483,2|8,0:0|0:0,0:0:0:0:
457,178,19446,1,0,0:0:0:0:
457,178,19550,2,0,P|414:153|351:158,1,108.750004148483,2|0,3:1|0:0,0:0:0:0:
387,253,19759,2,0,P|410:204|456:177,1,108.750004148483,8|0,0:0|0:0,0:0:0:0:
244,223,19968,5,0,3:1:0:0:
257,274,20072,1,0,0:0:0:0:
269,324,20177,1,10,0:0:0:0:
23,143,20386,6,0,P|57:180|106:195,1,101.499996902466,2|0,3:1|0:0,0:0:0:0:
113,43,20596,2,0,P|118:93|149:134,1,101.499996902466,10|0,0:0|0:0,0:0:0:0:
243,14,20806,2,0,P|219:58|219:109,1,101.499996902466,2|0,3:1|0:0,0:0:0:0:
365,66,21016,2,0,P|319:87|291:129,1,101.499996902466,8|0,0:0|0:0,0:0:0:0:
432,179,21226,2,0,P|383:169|336:187,1,101.499996902466,2|0,3:1|0:0,0:0:0:0:
420,310,21436,2,0,P|385:274|338:259,1,101.499996902466,8|0,0:0|0:0,0:0:0:0:
346,358,21646,1,0,3:1:0:0:
346,358,21751,1,0,0:0:0:0:
346,358,21856,1,10,0:0:0:0:
346,358,21961,1,0,0:0:0:0:
346,358,22066,6,0,P|392:344|429:306,1,101.499996902466,2|0,3:1|0:0,0:0:0:0:
351,271,22276,2,0,P|380:232|387:180,1,101.499996902466,10|0,0:0|0:0,0:0:0:0:
307,200,22486,2,0,P|308:150|283:104,1,101.499996902466,2|0,3:1|0:0,0:0:0:0:
234,168,22696,2,0,P|206:127|158:105,1,101.499996902466,8|0,0:0|0:0,0:0:0:0:
149,188,22907,1,2,3:1:0:0:
149,188,23012,1,0,0:0:0:0:
149,188,23117,2,0,P|102:171|51:181,1,101.499996902466,8|0,0:0|0:3,0:3:0:0:
102,258,23327,1,0,3:1:0:0:
102,258,23432,1,0,0:0:0:0:
102,258,23537,2,0,P|54:272|18:310,1,101.499996902466,8|0,0:0|0:3,0:3:0:0:
187,359,23747,6,0,L|177:241,1,101.499996902466,2|0,3:1|0:0,0:0:0:0:
261,199,23955,2,0,L|163:266,1,101.499996902466,10|0,0:0|0:0,0:0:0:0:
269,300,24164,2,0,L|251:90,1,202.999993804932,2|8,3:1|0:0,0:0:0:0:
336,216,24478,1,0,0:0:0:0:
336,216,24582,2,0,P|377:224|435:202,1,101.499996902466,2|0,3:1|0:0,0:0:0:0:
183,139,24792,2,0,P|142:131|84:153,1,101.499996902466,10|0,0:0|0:0,0:0:0:0:
319,54,25001,1,0,3:1:0:0:
319,54,25105,1,0,0:0:0:0:
319,54,25210,2,0,P|360:62|418:40,1,101.499996902466,10|0,0:0|0:0,0:0:0:0:
431,204,25419,6,0,P|441:271|438:308,1,101.499996902466,2|0,3:1|0:0,0:0:0:0:
295,312,25628,2,0,P|285:245|288:208,1,101.499996902466,10|0,0:0|0:0,0:0:0:0:
357,139,25838,2,0,L|369:358,1,202.999993804932,2|8,3:1|0:0,0:0:0:0:
215,353,26151,1,0,0:0:0:0:
215,353,26256,2,0,L|203:134,1,202.999993804932,2|8,3:1|0:0,0:0:0:0:
42,356,26674,5,0,3:1:0:0:
42,356,26779,1,0,0:0:0:0:
42,356,26884,1,8,0:0:0:0:
147,21,27093,6,0,P|126:70|142:121,1,108.750004148483,2|0,3:1|0:0,0:0:0:0:
309,72,27304,2,0,P|255:61|202:71,1,108.750004148483,10|0,0:0|0:0,0:0:0:0:
370,120,27516,2,0,P|385:69|365:19,1,108.750004148483,2|0,3:1|0:0,0:0:0:0:
159,201,27728,1,10,0:0:0:0:
159,201,27834,1,0,0:0:0:0:
159,201,27939,2,0,P|259:163|358:201,1,217.500008296967,2|8,3:1|0:0,0:0:0:0:
391,377,28363,5,2,3:1:0:0:
327,339,28469,1,2,0:0:0:0:
256,327,28575,1,10,0:0:0:0:
185,339,28680,1,2,0:0:0:0:
123,377,28786,1,10,3:1:0:0:
256,192,29730,12,2,30622,3:1:0:0:
389,283,33939,6,0,P|423:292|457:282,1,72.5,2|0,3:1|0:0,0:0:0:0:
293,251,34146,2,0,P|283:285|293:319,1,72.5,10|0,0:0|0:0,0:0:0:0:
325,154,34353,2,0,P|290:144|256:154,1,72.5,2|0,3:1|0:0,0:0:0:0:
422,186,34561,2,0,P|431:151|421:117,1,72.5,10|0,0:0|0:0,0:0:0:0:
337,22,34768,5,2,3:1:0:0:
337,22,34872,1,0,0:0:0:0:
337,22,34975,2,0,L|432:16,1,72.5,8|0,0:0|0:0,0:0:0:0:
482,13,35183,1,2,3:1:0:0:
482,13,35286,1,0,0:0:0:0:
482,13,35390,2,0,L|387:19,1,72.5,8|0,0:0|0:0,0:0:0:0:
290,76,35600,6,0,P|311:104|325:158,1,86.9999973449708,2|0,3:1|0:0,0:0:0:0:
236,228,35809,2,0,P|248:186|244:143,1,86.9999973449708,10|0,0:0|0:0,0:0:0:0:
134,102,36019,2,0,P|155:130|169:184,1,86.9999973449708,2|0,3:1|0:0,0:0:0:0:
80,254,36229,2,0,P|92:212|88:169,1,86.9999973449708,10|0,0:0|0:0,0:0:0:0:
20,43,36439,5,2,3:1:0:0:
63,39,36544,1,0,0:0:0:0:
106,35,36649,1,8,0:0:0:0:
149,31,36754,1,0,0:0:0:0:
159,108,36859,1,0,3:1:0:0:
116,112,36964,1,0,0:0:0:0:
73,116,37069,1,8,0:0:0:0:
30,120,37174,1,0,0:0:0:0:
36,196,37279,6,0,L|44:299,1,72.5,2|0,3:1|0:0,0:0:0:0:
54,373,37488,2,0,L|139:314,1,72.5,10|0,0:0|0:0,0:0:0:0:
198,268,37697,2,0,L|104:223,1,72.5,2|0,3:1|0:0,0:0:0:0:
36,196,37907,2,0,L|43:299,1,72.5,10|0,0:0|0:0,0:0:0:0:
113,331,38116,2,0,B|147:347|185:332|172:313|217:299|253:318,1,145,2|8,3:1|0:0,0:0:0:0:
335,282,38431,1,0,0:0:0:0:
335,282,38535,2,0,B|301:298|262:283|275:264|231:250|195:269,1,145,2|8,3:1|0:0,0:0:0:0:
221,383,38850,1,0,0:0:0:0:
221,383,38954,6,2,L|227:207,1,173.999994689942,2|8,3:1|0:0,0:0:0:0:
273,12,39368,5,2,3:1:0:0:
273,56,39472,1,0,0:0:0:0:
271,99,39575,1,8,0:0:0:0:
269,142,39679,1,0,0:0:0:0:
186,139,39783,1,2,3:1:0:0:
189,96,39886,1,0,0:0:0:0:
190,53,39990,1,8,0:0:0:0:
192,10,40094,1,0,0:0:0:0:
273,56,40197,2,0,L|348:58,1,72.5,0|0,3:1|0:0,0:0:0:0:
190,53,40405,2,0,L|117:51,1,72.5,8|0,0:0|0:0,0:0:0:0:
345,57,40612,6,0,P|390:29|444:31,1,101.499996902466,2|0,3:1|0:0,0:0:0:0:
483,178,40820,2,0,P|457:135|412:112,1,101.499996902466,10|0,0:0|0:0,0:0:0:0:
306,230,41029,2,0,P|351:202|405:204,1,101.499996902466,2|0,3:1|0:0,0:0:0:0:
444,351,41238,2,0,P|418:308|373:285,1,101.499996902466,10|0,0:1|0:0,0:0:0:0:
297,320,41447,5,2,3:1:0:0:
373,285,41552,1,2,0:0:0:0:
362,370,41656,2,2,L|93:308,1,246.500004701614,10|0,0:0|3:0,0:0:0:0:
25,293,41969,1,0,0:0:0:0:
55,381,42074,1,8,0:0:0:0:
121,314,42178,1,0,0:0:0:0:
25,293,42283,6,0,P|10:256|16:210,1,86.9999973449708,2|0,3:1|0:0,0:0:0:0:
18,104,42491,2,0,P|56:109|94:138,1,86.9999973449708,10|0,0:0|0:0,0:0:0:0:
120,241,42699,2,0,P|160:225|187:192,1,86.9999973449708,2|0,3:1|0:0,0:0:0:0:
190,78,42907,2,0,P|232:85|266:112,1,86.9999973449708,10|0,0:0|0:0,0:0:0:0:
308,220,43115,2,0,P|370:161|454:170,1,173.999994689942,2|8,3:1|0:0,0:0:0:0:
454,280,43428,1,0,0:0:0:0:
454,280,43532,2,0,P|417:303|374:306,1,86.9999973449708,2|0,3:1|0:0,0:0:0:0:
448,384,43740,2,0,L|421:301,1,86.9999973449708,10|0,0:0|0:0,0:0:0:0:
454,170,43948,5,2,3:1:0:0:
454,170,44052,1,0,0:0:0:0:
454,170,44157,2,0,L|445:55,1,101.499996902466,10|0,0:0|0:0,0:0:0:0:
341,144,44366,1,2,3:1:0:0:
341,144,44471,1,0,0:0:0:0:
341,144,44576,2,0,L|332:29,1,101.499996902466,10|0,0:0|0:0,0:0:0:0:
228,118,44785,1,2,3:1:0:0:
228,118,44890,1,0,0:0:0:0:
228,118,44995,2,0,L|219:3,1,101.499996902466,8|0,0:0|0:0,0:0:0:0:
123,101,45204,1,0,3:1:0:0:
123,101,45309,1,0,0:0:0:0:
123,101,45414,2,0,L|114:-14,1,101.499996902466,10|0,0:0|0:0,0:0:0:0:
31,158,45623,5,2,3:1:0:0:
33,191,45728,1,0,0:0:0:0:
36,225,45833,1,10,0:0:0:0:
38,259,45939,1,0,0:0:0:0:
124,196,46044,5,2,3:1:0:0:
126,229,46150,1,0,0:0:0:0:
129,263,46255,1,10,0:0:0:0:
131,297,46360,1,0,0:0:0:0:
211,232,46466,5,2,3:1:0:0:
213,265,46571,1,0,0:0:0:0:
216,299,46677,1,8,0:0:0:0:
218,333,46782,1,0,0:0:0:0:
299,280,46887,5,10,3:1:0:0:
324,353,46993,1,10,0:0:0:0:
360,230,47098,1,10,0:0:0:0:
402,350,47204,1,10,0:0:0:0:
424,275,47309,1,10,3:1:0:0:
307,59,47518,6,0,P|253:39|205:60,1,108.750004148483,10|0,0:0|0:0,0:0:0:0:
303,155,47727,1,0,3:1:0:0:
303,155,47832,2,0,P|326:101|301:53,1,108.750004148483,2|8,0:0|0:0,0:0:0:0:
206,151,48041,1,0,0:0:0:0:
206,151,48145,2,0,P|258:174|307:149,1,108.750004148483,2|0,3:1|0:0,0:0:0:0:
207,57,48355,2,0,P|186:108|208:158,1,108.750004148483,10|0,0:0|0:0,0:0:0:0:
221,323,48564,5,0,3:0:0:0:
256,318,48668,1,0,0:0:0:0:
291,313,48773,1,8,0:0:0:0:
48,272,48982,5,0,3:0:0:0:
195,54,49191,6,0,P|255:30|318:55,1,130.499996017456,10|0,0:0|0:0,0:0:0:0:
199,172,49401,1,0,3:1:0:0:
199,172,49505,2,0,P|173:109|200:48,1,130.499996017456,2|8,0:0|0:0,0:0:0:0:
320,172,49714,1,0,0:0:0:0:
320,172,49819,2,0,P|258:195|196:170,1,130.499996017456,2|0,3:1|0:0,3:1:0:0:
314,51,50028,2,0,P|339:113|312:174,1,130.499996017456,10|0,0:0|0:0,0:0:0:0:
322,350,50237,5,0,3:0:0:0:
256,320,50342,1,0,0:0:0:0:
190,290,50447,1,10,0:0:0:0:
456,58,50656,6,0,P|474:108|459:159,1,108.750004148483,2|0,3:1|0:0,0:0:0:0:
397,208,50865,2,0,P|378:157|393:106,1,108.750004148483,10|0,0:0|0:0,0:0:0:0:
228,20,51075,6,0,P|209:70|224:121,1,108.750004148483,2|0,3:1|0:0,0:0:0:0:
287,170,51285,2,0,P|305:119|290:68,1,108.750004148483,8|0,0:0|0:0,0:0:0:0:
112,85,51495,6,0,P|130:135|115:186,1,108.750004148483,2|0,3:1|0:0,0:0:0:0:
53,235,51704,2,0,P|34:184|49:133,1,108.750004148483,8|0,0:0|0:0,0:0:0:0:
258,116,51915,5,0,3:1:0:0:
258,116,52020,1,0,0:0:0:0:
258,116,52125,1,10,0:0:0:0:
205,252,52335,6,0,P|187:305|123:357,1,130.499996017456,2|0,3:1|0:0,0:0:0:0:
318,130,52546,2,0,P|349:84|425:51,1,130.499996017456,10|0,0:0|0:0,0:0:0:0:
177,215,52757,2,0,P|134:250|52:261,1,130.499996017456,2|0,3:1|0:0,0:0:0:0:
337,172,52969,2,0,P|387:149|467:162,1,130.499996017456,10|0,0:0|0:0,0:0:0:0:
171,170,53180,2,0,P|106:176|48:149,1,130.499996017456,2|0,3:1|0:0,0:0:0:0:
329,217,53392,2,0,P|385:224|446:279,1,130.499996017456,10|0,0:0|0:0,0:0:0:0:
190,128,53603,2,0,P|139:104|94:36,1,130.499996017456,2|0,3:1|0:0,0:0:0:0:
299,252,53814,2,0,P|342:288|366:366,1,130.499996017456,10|0,0:0|0:0,0:0:0:0:
110,189,54026,6,0,P|158:213|179:262,1,108.750004148483,2|0,3:1|0:0,0:0:0:0:
247,334,54236,2,0,P|200:310|179:261,1,108.750004148483,10|0,0:0|0:0,0:0:0:0:
182,163,54446,2,0,B|206:194|204:236|179:262|179:262|179:262|179:262|154:292|154:334|176:363,1,217.500008296967,2|8,3:1|0:0,0:0:0:0:
251,193,54762,1,0,0:0:0:0:
251,193,54867,2,0,P|227:241|178:262,1,108.750004148483,2|0,3:1|0:0,0:0:0:0:
105,330,55077,2,0,P|130:283|179:262,1,108.750004148483,10|0,0:0|0:0,0:0:0:0:
279,265,55288,2,0,B|248:288|206:287|180:262|180:262|180:262|180:262|150:236|108:237|79:259,1,217.500008296967,2|10,3:1|0:0,0:0:0:0:
369,70,55709,6,0,B|420:44|420:44|418:97,1,108.750004148483,2|0,3:1|0:0,0:0:0:0:
417,233,55917,2,0,B|414:290|414:290|368:263,1,108.750004148483,10|0,0:1|0:0,3:0:0:0:
251,193,56126,2,0,B|202:161|202:161|248:135,1,108.750004148483,2|0,3:1|0:0,3:0:0:0:
498,64,56334,1,8,0:0:0:0:
498,64,56439,1,0,0:0:0:0:
498,64,56543,6,0,L|495:301,1,217.500008296967,2|8,3:1|0:0,0:0:0:0:
14,64,56960,2,0,L|16:281,1,217.500008296967,0|8,3:1|0:0,0:0:0:0:
210,85,57377,5,2,3:1:0:0:
210,85,57482,1,0,0:0:0:0:
210,85,57588,1,10,0:0:0:0:
210,85,57693,1,0,0:0:0:0:
302,85,57799,5,2,3:1:0:0:
302,85,57905,1,0,0:0:0:0:
302,85,58011,1,10,0:0:0:0:
302,85,58116,1,0,0:0:0:0:
301,177,58222,5,2,3:1:0:0:
301,177,58327,1,0,0:0:0:0:
211,177,58434,5,10,0:0:0:0:
211,177,58539,1,0,0:0:0:0:
212,268,58645,5,2,3:1:0:0:
300,268,58751,1,2,0:0:0:0:
212,277,58856,5,10,0:0:0:0:
300,277,58962,1,2,0:0:0:0:
256,352,59068,5,10,3:1:0:0:
256,192,59991,12,2,60888,3:1:0:0:
151,135,63609,6,2,B|183:74|265:61|265:61|232:128|249:184|249:184|302:113|380:128,1,405.999987609864,10|10,0:0|0:0,0:0:0:0:
458,159,64131,1,0,0:0:0:0:
458,159,64236,6,0,P|416:132|365:126,1,101.499996902466,2|0,3:1|0:0,0:0:0:0:
262,287,64444,2,2,P|379:355|457:158,1,405.999987609864,10|8,0:0|0:0,0:0:0:0:
247,187,64967,1,0,0:0:0:0:
247,187,65071,6,0,P|210:196|185:220,2,72.5,0|0|8,3:2|0:0|0:0,0:0:0:0:
396,129,65489,2,0,P|433:138|458:162,2,72.5,0|0|8,3:2|0:0|0:0,0:0:0:0:
226,68,65907,6,0,L|107:37,1,101.499996902466,2|0,3:1|0:0,0:0:0:0:
154,140,66115,2,0,L|240:52,1,101.499996902466,10|0,0:0|0:0,0:0:0:0:
127,42,66323,2,0,L|160:161,1,101.499996902466,2|0,3:1|0:0,0:0:0:0:
0,127,66531,6,2,B|226:67|226:67|164:291|164:291|2:127,1,608.999981414795,10|0,0:0|3:0,0:0:0:0:
63,189,67363,1,8,0:0:0:0:
104,330,67571,5,2,3:1:0:0:
69,268,67675,1,2,0:0:0:0:
32,331,67779,1,10,0:0:0:0:
132,161,67988,1,2,3:1:0:0:
222,344,68196,1,10,0:0:0:0:
289,257,68405,5,2,3:1:0:0:
291,245,68475,1,2,0:0:0:0:
293,233,68544,1,2,0:0:0:0:
295,220,68614,1,10,0:0:0:0:
423,367,68822,6,2,B|438:318|414:264|414:264|429:215|429:215|403:164|419:97,1,260.999992034912,2|8,3:1|0:0,0:0:0:0:
226,186,69239,5,2,3:1:0:0:
74,129,69448,5,10,0:0:0:0:
127,81,69552,1,2,0:0:0:0:
187,37,69656,1,2,3:1:0:0:
251,75,69761,1,2,0:0:0:0:
323,110,69865,1,10,0:0:0:0:
394,332,70075,6,2,B|439:379|516:373|557:293|540:210|431:184|372:246|372:246|365:236|365:236|264:315|257:196|140:237,1,608.999981414795,2|8,3:1|0:0,0:0:0:0:
1,331,70911,5,2,3:1:0:0:
70,336,71014,1,0,0:0:0:0:
139,341,71118,1,10,0:0:0:0:
208,346,71222,2,0,L|303:350,1,72.5,2|0,0:0|3:1,0:0:0:0:
488,363,71429,1,0,0:0:0:0:
488,363,71533,1,10,0:0:0:0:
488,363,71637,1,2,0:0:0:0:
412,384,71740,5,2,3:1:0:0:
431,307,71844,1,0,0:0:0:0:
450,230,71948,1,10,0:0:0:0:
469,153,72052,2,0,L|451:61,1,72.5,2|0,0:0|3:0,0:0:0:0:
394,171,72259,1,0,0:0:0:0:
394,171,72363,1,10,0:0:0:0:
394,171,72467,1,2,0:0:0:0:
450,230,72570,5,2,3:1:0:0:
62,154,72777,1,10,0:1:0:0:
297,27,72985,6,0,L|287:116,1,72.5,2|0,3:1|0:0,0:0:0:0:
211,126,73193,2,0,L|221:215,1,72.5,10|0,0:0|0:0,0:0:0:0:
303,260,73401,1,2,3:1:0:0:
231,298,73505,1,2,0:0:0:0:
300,342,73609,1,10,0:0:0:0:
303,260,73713,2,0,P|304:215|326:175,1,72.5,2|0,0:0|3:0,0:0:0:0:
413,98,73921,2,0,L|488:104,2,72.5,0|10|0,0:0|0:0|0:0,0:0:0:0:
294,5,74233,5,2,3:1:0:0:
221,0,74337,2,0,L|321:6,1,72.5,2|8,0:0|0:0,0:0:0:0:
217,94,74547,5,2,0:0:0:0:
303,88,74651,2,0,L|203:94,1,86.9999973449708,2|0,3:1|0:0,0:0:0:0:
307,184,74861,5,10,0:0:0:0:
206,178,74965,2,0,L|319:184,1,101.499996902466,2|0,0:0|3:1,0:0:0:0:
203,278,75175,5,2,0:0:0:0:
319,272,75279,2,0,L|192:279,1,116,10|0,0:0|0:0,0:0:0:0:
336,367,75489,5,2,3:1:0:0:
187,357,75593,1,2,0:0:0:0:
337,374,75698,5,10,0:0:0:0:
188,364,75802,1,2,0:0:0:0:
343,243,75907,5,2,3:1:0:0:
172,255,76011,1,2,0:0:0:0:
248,101,76116,1,10,0:0:0:0:
255,383,76325,5,2,3:1:0:0:
323,331,76429,1,2,0:0:0:0:
255,289,76534,1,10,0:0:0:0:
185,247,76638,1,2,0:0:0:0:
255,196,76743,1,2,3:1:0:0:
323,144,76847,1,2,0:0:0:0:
255,102,76952,1,10,0:0:0:0:
185,60,77056,1,2,0:0:0:0:
255,3,77161,6,0,L|255:-2,8,3.625,2|2|2|0|10|0|2|0|0,3:1|0:0|0:0|0:0|0:0|0:0|0:0|0:0|3:0,0:0:0:0:
456,83,77787,6,2,B|420:59|420:59|386:82|386:82|354:62|354:62|324:81|324:81|265:27|180:60|164:152|249:237|349:141,1,405.999987609864,10|8,0:0|0:0,0:0:0:0:
429,270,78309,1,0,0:0:0:0:
429,270,78414,2,0,L|311:276,1,101.499996902466,2|0,3:1|0:0,0:0:0:0:
226,280,78622,2,0,L|327:274,1,101.499996902466,8|0,0:0|0:0,0:0:0:0:
420,358,78831,2,0,L|246:366,1,173.999994689942,2|10,3:1|0:0,0:0:0:0:
40,268,79249,6,0,B|23:301|23:301|28:358,1,86.9999973449708,2|0,3:1|0:0,0:0:0:0:
121,276,79456,2,0,B|130:312|130:312|113:366,1,86.9999973449708,10|0,0:0|0:0,0:0:0:0:
86,204,79663,1,2,3:1:0:0:
88,191,79732,1,2,0:0:0:0:
90,178,79801,1,2,0:0:0:0:
92,165,79870,1,10,0:0:0:0:
360,318,80077,6,0,P|386:283|393:237,1,86.9999973449708,2|0,3:1|0:0,0:0:0:0:
199,268,80284,2,0,P|216:307|251:336,1,86.9999973449708,10|0,0:0|0:0,0:0:0:0:
360,162,80491,2,0,P|305:135|207:191,1,173.999994689942,2|8,3:1|0:0,0:0:0:0:
4,46,80905,6,0,L|92:36,1,86.9999973449708,2|0,3:1|0:0,0:0:0:0:
163,27,81111,2,0,L|251:17,1,86.9999973449708,8|0,0:0|0:0,0:0:0:0:
433,125,81317,2,0,L|345:115,1,86.9999973449708,2|0,3:1|0:0,0:0:0:0:
274,106,81523,2,0,L|186:96,1,86.9999973449708,8|0,0:0|0:0,0:0:0:0:
42,212,81730,2,2,L|341:177,1,260.999992034912,2|0,3:1|0:0,0:0:0:0:
512,208,82142,1,2,3:1:0:0:
443,237,82246,1,2,0:0:0:0:
387,191,82349,2,0,L|293:180,1,86.9999973449708,10|0,0:0|0:0,0:0:0:0:
345,8,82555,6,0,P|326:59|366:123,1,86.9999973449708,2|0,3:1|0:0,0:0:0:0:
422,57,82762,2,0,L|509:68,1,86.9999973449708,10|0,0:0|0:0,0:0:0:0:
387,191,82969,2,0,P|380:233|398:272,1,86.9999973449708,2|0,3:1|0:0,0:0:0:0:
463,225,83177,2,2,L|261:248,1,173.999994689942,10|2,0:0|3:1,0:0:0:0:
203,255,83488,1,0,0:0:0:0:
203,255,83592,2,0,L|379:235,1,173.999994689942,10|0,0:0|3:1,0:0:0:0:
463,225,83903,1,0,0:0:0:0:
463,225,84007,1,8,0:0:0:0:
203,255,84214,1,0,3:0:0:0:
197,35,84422,6,2,B|132:22|113:100|244:162|209:48|218:-19|307:-68|475:102|339:227|184:155,1,507.49998451233,10|0,0:0|0:0,0:0:0:0:
52,99,85046,5,2,3:1:0:0:
58,191,85150,1,2,0:0:0:0:
64,283,85254,2,0,L|67:384,1,101.499996902466,10|0,0:0|0:0,0:0:0:0:
52,99,85462,2,0,L|47:-9,1,101.499996902466,2|0,3:1|0:0,0:0:0:0:
144,232,85670,5,10,0:0:0:0:
230,273,85774,1,2,0:0:0:0:
316,314,85878,1,2,3:1:0:0:
357,228,85982,1,2,0:0:0:0:
398,142,86086,2,0,L|293:93,1,101.499996902466,10|0,0:0|0:0,0:0:0:0:
226,60,86295,1,2,3:1:0:0:
185,146,86399,1,2,0:0:0:0:
144,232,86503,2,0,L|250:283,1,101.499996902466,10|0,0:0|0:0,0:0:0:0:
398,142,86712,6,2,B|226:61|226:61|140:240,1,379.900006956177,2|0,3:1|3:0,0:0:0:0:
329,240,87338,5,10,0:0:0:0:
260,162,87442,1,2,0:0:0:0:
329,240,87546,2,2,L|311:362,1,101.499996902466,2|0,3:1|0:0,0:0:0:0:
425,191,87754,5,10,0:0:0:0:
494,113,87858,1,2,0:0:0:0:
425,191,87962,2,2,L|443:313,1,101.499996902466,2|0,3:1|0:0,0:0:0:0:
328,127,88171,5,10,0:0:0:0:
258,48,88275,1,2,0:0:0:0:
328,127,88379,2,2,L|310:249,1,101.499996902466,2|0,3:1|0:0,0:0:0:0:
427,83,88588,6,0,B|423:82|522:4,1,101.499996902466,10|0,0:0|0:0,0:0:0:0:
427,83,88796,2,2,L|459:298,1,202.999993804932,2|8,3:1|0:0,0:0:0:0:
347,380,89213,6,0,P|390:364|432:321,1,101.499996902466,2|0,3:1|0:0,0:0:0:0:
326,282,89421,2,0,P|351:243|360:184,1,101.499996902466,10|0,0:0|0:0,0:0:0:0:
186,282,89629,2,0,P|158:239|151:189,1,101.499996902466,2|0,3:1|0:0,0:0:0:0:
165,380,89837,2,0,P|122:364|80:321,1,101.499996902466,10|0,0:0|0:0,0:0:0:0:
245,356,90045,5,0,3:1:0:0:
245,356,90149,1,0,0:0:0:0:
245,356,90253,2,0,L|264:139,2,202.999993804932,10|2|10,0:0|3:1|0:0,0:0:0:0:
170,364,90878,6,2,B|174:299|174:299|93:293|96:259|96:259|112:46|112:46|116:9|210:18|210:18|213:-17|213:-17|321:-10|321:-10|318:26|318:26|411:30|411:68|411:68|396:280|396:280|394:314|315:309|315:309|309:380,1,1160,2|0,3:1|3:1,0:0:0:0:
366,25,94219,6,0,P|401:18|436:26,1,72.5,2|0,3:1|0:0,0:0:0:0:
399,166,94432,2,0,L|400:87,1,72.5,10|0,0:0|0:0,0:0:0:0:
462,213,94646,2,0,P|394:244|326:193,1,145,2|8,3:1|0:0,0:0:0:0:
249,73,94966,1,0,0:0:0:0:
187,117,95073,2,0,P|254:148|323:97,1,145,2|8,3:1|0:0,0:0:0:0:
180,42,95393,1,0,0:0:0:0:
115,89,95500,2,2,L|125:269,1,130.499996017456,2|0,3:1|0:0,0:0:0:0:
126,291,95713,2,0,L|121:218,1,72.5,10|0,0:0|0:0,0:0:0:0:
312,117,95927,6,0,L|319:249,1,86.9999973449708,2|0,3:1|0:0,0:0:0:0:
383,80,96134,2,0,P|315:39|237:86,1,173.999994689942,10|0,0:0|3:1,0:0:0:0:
386,164,96446,1,0,0:0:0:0:
451,121,96550,2,0,B|498:207|418:206|452:287,1,173.999994689942,10|0,0:0|3:0,0:0:0:0:
320,286,96862,1,0,0:0:0:0:
385,329,96966,2,0,B|432:243|352:244|386:163,1,173.999994689942,10|0,0:0|3:0,0:0:0:0:
456,364,97382,1,8,0:0:0:0:
325,111,97590,6,0,L|241:105,1,72.5,2|0,3:1|0:0,0:0:0:0:
206,39,97798,2,0,P|229:105|197:168,1,145,10|0,0:0|3:0,0:0:0:0:
82,245,98110,1,0,0:0:0:0:
153,249,98214,2,0,L|237:255,1,72.5,10|0,0:1|0:0,0:0:0:0:
272,321,98422,2,0,P|248:254|280:191,1,145,2|8,3:1|0:0,0:0:0:0:
398,115,98735,1,0,0:0:0:0:
439,178,98839,2,0,L|511:183,1,72.5,2|0,3:1|0:0,0:0:0:0:
354,56,99047,2,0,L|281:50,1,72.5,10|0,0:0|0:0,0:0:0:0:
135,7,99255,6,0,P|86:12|46:27,1,86.9999973449708,2|0,3:1|0:0,0:0:0:0:
33,125,99463,2,0,P|120:84|237:109,1,173.999994689942,10|0,0:0|3:0,0:0:0:0:
259,221,99775,1,0,0:0:0:0:
194,260,99880,2,0,P|153:274|111:278,1,86.9999973449708,10|0,0:1|0:0,0:0:0:0:
49,195,100088,2,0,P|135:199|212:160,1,173.999994689942,2|8,3:1|0:0,0:0:0:0:
288,25,100504,5,0,3:0:0:0:
288,25,100608,1,0,0:0:0:0:
288,25,100712,1,10,0:0:0:0:
419,232,100920,6,0,P|431:280|418:329,1,101.499996902466,2|0,3:1|0:0,0:0:0:0:
212,258,101128,2,0,B|193:273|165:276|165:276|193:282|212:294,1,101.499996902466,10|0,0:0|0:0,0:0:0:0:
295,261,101337,2,0,B|313:272|341:278|341:278|313:281|295:296,1,101.499996902466,2|0,3:1|0:0,0:0:0:0:
88,225,101546,2,0,P|75:274|88:323,1,101.499996902466,10|0,0:0|0:0,0:0:0:0:
252,384,101755,2,0,L|255:172,1,202.999993804932,2|8,3:1|0:0,0:0:0:0:
256,4,102068,1,0,0:0:0:0:
255,79,102172,2,0,L|254:208,1,101.499996902466,2|0,3:1|0:0,0:0:0:0:
254,283,102381,2,0,L|254:181,1,101.499996902466,10|0,0:0|0:0,0:0:0:0:
169,13,102590,6,0,P|151:60|163:111,1,101.499996902466,2|0,3:1|0:0,0:0:0:0:
336,176,102799,2,0,P|353:129|342:78,1,101.499996902466,10|0,0:0|0:0,0:0:0:0:
163,201,103008,2,0,P|145:247|156:298,1,101.499996902466,2|0,3:1|0:0,0:0:0:0:
329,363,103217,2,0,P|346:316|335:265,1,101.499996902466,10|0,0:0|0:0,0:0:0:0:
255,79,103426,1,0,3:0:0:0:
255,79,103531,1,0,0:0:0:0:
255,79,103636,1,8,0:0:0:0:
254,283,103845,1,0,3:0:0:0:
254,283,103950,1,0,0:0:0:0:
254,283,104055,1,8,0:0:0:0:
2,12,104263,5,2,3:1:0:0:
44,12,104367,1,0,0:0:0:0:
86,12,104471,1,10,0:0:0:0:
128,12,104575,1,0,0:0:0:0:
171,12,104680,1,2,3:1:0:0:
213,12,104784,1,0,0:0:0:0:
255,12,104888,1,10,0:0:0:0:
298,12,104993,1,0,0:0:0:0:
340,12,105097,1,2,3:1:0:0:
382,12,105201,1,0,0:0:0:0:
424,12,105306,1,8,0:0:0:0:
467,12,105410,1,0,0:0:0:0:
509,12,105514,1,0,3:1:0:0:
256,192,105723,5,10,0:0:0:0:
468,372,105931,5,2,3:1:0:0:
425,372,106035,1,0,0:0:0:0:
383,372,106139,1,10,0:0:0:0:
341,372,106243,1,0,0:0:0:0:
298,372,106347,1,2,3:1:0:0:
256,372,106451,1,0,0:0:0:0:
214,372,106555,1,10,0:0:0:0:
171,372,106659,1,0,0:0:0:0:
129,372,106763,1,2,3:1:0:0:
87,372,106867,1,0,0:0:0:0:
45,372,106971,1,8,0:0:0:0:
333,292,107179,5,10,3:1:0:0:
184,271,107283,1,10,0:0:0:0:
351,294,107387,5,10,0:0:0:0:
165,268,107491,1,10,0:0:0:0:
259,282,107595,5,10,3:1:0:0:
106,138,107805,6,0,L|220:123,1,108.750004148483,10|0,0:0|0:0,0:0:0:0:
377,89,108015,1,0,3:0:0:0:
377,89,108120,2,0,L|333:195,1,108.750004148483,2|8,0:0|0:0,0:0:0:0:
284,348,108331,1,0,0:0:0:0:
284,348,108436,2,0,L|214:257,1,108.750004148483,2|0,3:1|0:0,0:0:0:0:
256,192,108646,5,8,0:0:0:0:
213,123,108857,5,0,3:1:0:0:
336,189,108962,1,0,0:0:0:0:
218,262,109067,1,8,0:0:0:0:
256,192,109278,5,0,3:0:0:0:
223,13,109487,6,0,L|303:117,1,130.499996017456,10|0,0:0|0:0,0:0:0:0:
426,253,109697,1,0,3:0:0:0:
426,253,109802,2,0,L|297:270,1,130.499996017456,2|8,0:0|0:0,0:0:0:0:
117,309,110013,1,0,0:0:0:0:
117,309,110118,2,0,L|167:188,1,130.499996017456,2|0,3:1|0:0,0:0:0:0:
256,192,110327,5,8,0:0:0:0:
303,116,110537,5,0,3:1:0:0:
297,270,110642,1,0,0:0:0:0:
167,188,110747,1,8,0:0:0:0:
365,66,110957,6,0,L|256:73,1,108.750004148483,2|0,3:1|0:0,0:0:0:0:
158,25,111166,2,0,L|255:72,1,108.750004148483,10|0,0:0|0:0,0:0:0:0:
462,113,111375,2,0,L|364:65,1,108.750004148483,2|0,3:1|0:0,0:0:0:0:
49,32,111585,2,0,L|157:24,1,108.750004148483,8|0,0:0|0:0,0:0:0:0:
462,113,111794,2,2,L|13:147,1,435.000016593934,2|0,3:1|3:1,3:1:0:0:
365,318,112423,1,10,0:0:0:0:
365,318,112528,1,0,0:0:0:0:
365,318,112632,6,0,L|256:310,1,108.750004148483,2|0,3:1|0:0,0:0:0:0:
158,359,112841,2,0,L|255:311,1,108.750004148483,10|0,0:0|0:0,0:0:0:0:
462,271,113051,2,0,L|364:318,1,108.750004148483,2|0,3:1|0:0,0:0:0:0:
49,352,113261,2,0,L|157:359,1,108.750004148483,8|0,0:0|0:0,0:0:0:0:
462,271,113471,2,2,L|13:237,1,435.000016593934,2|0,3:1|3:1,3:1:0:0:
251,65,114100,5,8,0:0:0:0:
374,283,114310,6,0,P|327:292|272:271,1,108.750004148483,2|0,3:1|0:0,0:0:0:0:
339,95,114519,2,0,L|330:218,1,108.750004148483,10|0,0:0|0:0,0:0:0:0:
417,355,114728,2,0,P|312:375|216:326,1,217.500008296967,2|8,3:1|0:0,0:0:0:0:
206,117,115042,1,0,0:0:0:0:
146,187,115146,2,0,L|254:194,1,108.750004148483,2|0,3:1|0:0,0:0:0:0:
512,215,115356,2,0,L|403:207,1,108.750004148483,10|0,0:1|0:0,0:0:0:0:
460,137,115565,1,0,3:0:0:0:
460,137,115669,1,0,0:0:0:0:
460,137,115774,1,10,0:0:0:0:
376,3,115983,6,0,P|325:-15|273:1,1,108.750004148483,2|0,3:1|0:0,0:0:0:0:
117,52,116191,2,0,P|168:37|219:54,1,108.750004148483,10|0,0:0|0:0,0:0:0:0:
378,108,116400,2,0,P|327:90|274:105,1,108.750004148483,2|0,3:1|0:0,0:0:0:0:
117,158,116609,2,0,P|168:143|219:160,1,108.750004148483,10|0,0:0|0:0,0:0:0:0:
378,217,116818,2,0,P|327:199|274:214,1,108.750004148483,2|0,3:1|0:0,0:0:0:0:
117,267,117027,1,8,0:0:0:0:
117,267,117132,1,0,0:0:0:0:
117,267,117236,2,0,P|168:252|219:269,1,108.750004148483,0|0,3:1|0:0,0:0:0:0:
375,325,117445,2,0,P|324:307|271:322,1,108.750004148483,10|0,0:1|0:0,0:0:0:0:
175,352,117654,5,2,3:1:0:0:
229,367,117759,1,0,0:0:0:0:
283,367,117865,1,10,0:0:0:0:
337,352,117971,1,0,0:0:0:0:
337,279,118077,5,2,3:1:0:0:
283,294,118183,1,0,0:0:0:0:
229,294,118289,1,10,0:0:0:0:
175,279,118395,1,0,0:0:0:0:
175,206,118500,5,2,3:1:0:0:
229,221,118606,1,0,0:0:0:0:
283,221,118712,1,8,0:0:0:0:
337,206,118818,1,0,0:0:0:0:
399,124,118924,5,2,3:1:0:0:
324,78,119030,1,2,0:0:0:0:
256,128,119136,1,10,0:0:0:0:
188,78,119241,1,2,0:0:0:0:
113,124,119347,1,10,3:1:0:0:
256,192,120242,12,2,121154,3:1:0:0:
387,155,123860,5,10,0:0:0:0:
389,170,123963,1,0,0:0:0:0:
316,204,124066,5,2,3:1:0:0:
326,214,124169,1,0,0:0:0:0:
291,288,124273,5,10,0:0:0:0:
304,290,124376,1,0,0:0:0:0:
402,277,124479,6,2,B|478:267|478:403|375:404|334:295|243:323,1,304.499990707398,2|0,3:1|0:0,0:0:0:0:
96,353,124901,1,2,3:1:0:0:
96,353,125006,1,0,0:0:0:0:
172,384,125112,2,0,B|198:281|116:311|134:218,1,173.999994689942,10|0,0:0|3:0,0:0:0:0:
202,75,125429,1,0,0:0:0:0:
245,141,125534,2,0,P|202:156|159:144,1,86.9999973449708,8|0,0:0|0:0,0:0:0:0:
25,51,125745,2,0,L|29:156,1,86.9999973449708,2|0,3:1|0:0,0:0:0:0:
34,297,125956,2,0,L|30:210,1,86.9999973449708,10|0,0:1|0:0,0:0:0:0:
116,87,126167,5,2,3:1:0:0:
202,75,126272,1,0,0:0:0:0:
288,63,126377,2,0,L|387:51,1,86.9999973449708,10|0,0:0|0:0,0:0:0:0:
421,180,126588,5,2,3:1:0:0:
335,168,126693,1,0,0:0:0:0:
249,156,126798,2,0,L|150:144,1,86.9999973449708,10|0,0:0|0:0,0:0:0:0:
119,280,127009,5,2,3:1:0:0:
205,268,127114,1,0,0:0:0:0:
291,256,127219,2,0,L|390:244,1,86.9999973449708,10|0,0:0|0:0,0:0:0:0:
415,353,127431,5,0,3:1:0:0:
313,333,127536,1,0,0:0:0:0:
415,353,127641,2,0,L|511:368,1,86.9999973449708,10|0,0:0|0:0,0:0:0:0:
399,185,127852,6,0,B|394:249|394:249|418:290|418:290|414:362,1,173.999994689942,2|8,3:1|0:0,0:0:0:0:
249,228,128168,1,0,0:0:0:0:
324,207,128273,2,0,B|319:271|319:271|343:312|343:312|339:374,1,173.999994689942,2|8,3:1|0:0,0:0:0:0:
188,128,128589,1,0,0:0:0:0:
150,197,128695,2,0,L|323:206,1,173.999994689942,2|8,3:1|0:0,0:0:0:0:
449,217,129011,1,0,0:0:0:0:
496,157,129116,2,0,P|455:140|405:153,1,86.9999973449708,2|0,3:1|0:0,0:0:0:0:
402,278,129327,2,0,P|443:295|493:282,1,86.9999973449708,10|0,0:0|0:0,0:0:0:0:
461,67,129537,5,2,3:1:0:0:
461,67,129643,1,0,0:0:0:0:
461,67,129748,2,0,L|346:59,1,86.9999973449708,8|0,0:0|0:0,0:0:0:0:
281,17,129959,1,2,3:1:0:0:
281,17,130065,1,0,0:0:0:0:
281,17,130170,2,0,L|274:103,1,86.9999973449708,8|0,0:0|0:0,0:0:0:0:
313,198,130380,5,2,3:1:0:0:
313,198,130486,1,0,0:0:0:0:
313,198,130591,2,0,L|198:190,1,86.9999973449708,8|0,0:0|0:0,0:0:0:0:
133,148,130802,1,2,3:1:0:0:
138,51,130907,1,0,0:0:0:0:
133,148,131013,2,0,L|126:234,1,86.9999973449708,8|0,0:0|0:0,0:0:0:0:
23,150,131222,6,0,P|78:165|132:147,1,116,2|0,3:1|0:0,0:0:0:0:
283,87,131432,1,10,0:0:0:0:
217,41,131537,1,0,0:0:0:0:
213,120,131642,2,0,L|204:248,1,116,2|0,3:1|0:0,0:0:0:0:
353,314,131853,1,10,0:0:0:0:
399,248,131958,1,0,0:0:0:0:
320,243,132063,6,0,L|192:234,1,116,2|0,3:1|0:0,0:0:0:0:
88,226,132273,2,0,L|203:234,1,116,10|0,0:0|0:0,0:0:0:0:
399,248,132484,1,2,3:1:0:0:
353,314,132589,1,0,0:0:0:0:
320,243,132694,2,0,L|328:127,1,116,10|0,0:0|0:0,0:0:0:0:
414,26,132905,6,0,P|428:71|403:144,1,116,2|0,3:1|0:0,0:0:0:0:
252,129,133114,2,0,P|238:84|263:11,1,116,10|0,0:0|0:0,0:0:0:0:
405,208,133323,2,0,P|419:253|394:326,1,116,2|0,3:1|0:0,0:0:0:0:
243,311,133532,2,0,P|229:266|254:193,1,116,10|0,0:0|0:0,0:0:0:0:
335,51,133741,5,2,3:1:0:0:
332,89,133845,1,0,0:0:0:0:
329,128,133950,1,8,0:0:0:0:
327,166,134054,1,0,0:0:0:0:
320,243,134159,1,0,3:1:0:0:
317,281,134263,1,0,0:0:0:0:
314,320,134368,1,8,0:0:0:0:
312,358,134472,1,0,0:0:0:0:
221,352,134577,6,0,L|140:343,3,72.5,2|0|10|0,3:1|0:0|0:0|0:0,0:0:0:0:
194,272,134999,2,0,L|108:261,3,86.9999973449708,2|0|8|0,3:1|0:0|0:0|0:0,0:0:0:0:
156,190,135421,2,0,L|49:175,3,101.499996902466,2|0|10|0,3:1|0:0|0:0|0:0,0:0:0:0:
134,108,135843,2,0,L|12:91,3,116,0|0|10|0,3:1|0:0|0:0|0:0,0:0:0:0:
299,154,136265,5,2,3:1:0:0:
218,148,136370,1,0,0:0:0:0:
212,229,136475,1,10,0:0:0:0:
293,235,136580,1,0,0:0:0:0:
295,137,136686,5,2,3:1:0:0:
201,152,136791,1,0,0:0:0:0:
216,246,136896,1,10,0:0:0:0:
310,231,137001,1,0,0:0:0:0:
279,123,137107,5,2,3:1:0:0:
187,168,137212,1,0,0:0:0:0:
232,260,137317,1,8,0:0:0:0:
324,215,137422,1,0,0:0:0:0:
258,192,137528,6,0,P|256:194|256:195,8,3.625,2|2|2|0|8|0|0|0|0,3:1|0:0|0:0|0:0|0:0|0:0|0:0|0:0|3:0,0:0:0:0:
29,73,138157,6,0,L|145:67,1,101.499996902466,10|0,0:0|0:0,0:0:0:0:
254,113,138366,1,0,3:0:0:0:
249,12,138471,2,0,L|255:128,1,101.499996902466,2|8,0:0|0:0,0:0:0:0:
208,237,138679,1,0,0:0:0:0:
310,232,138784,2,0,L|194:237,1,101.499996902466,2|0,3:1|0:0,0:0:0:0:
90,293,138993,2,0,L|84:177,1,101.499996902466,8|0,0:0|0:0,0:0:0:0:
254,113,139202,5,0,3:0:0:0:
123,119,139306,1,0,0:0:0:0:
254,113,139411,1,8,0:0:0:0:
274,364,139620,5,0,3:0:0:0:
500,100,139830,6,0,L|335:107,1,130.499996017456,10|0,0:0|0:0,0:0:0:0:
256,178,140040,1,0,3:0:0:0:
251,48,140145,2,0,L|256:178,1,130.499996017456,2|8,0:0|0:0,0:0:0:0:
329,291,140356,1,0,0:0:0:0:
199,296,140461,2,0,L|329:290,1,130.499996017456,2|0,3:1|0:0,0:0:0:0:
447,348,140671,2,0,L|441:217,1,130.499996017456,8|0,0:0|0:0,0:0:0:0:
256,178,140882,5,0,3:0:0:0:
264,367,140987,1,0,0:0:0:0:
256,178,141092,1,10,0:0:0:0:
114,384,141303,6,0,L|47:245,1,101.499996902466,2|0,3:1|0:0,0:0:0:0:
23,196,141512,1,10,0:0:0:0:
23,196,141617,1,0,0:0:0:0:
179,351,141722,6,0,L|157:198,1,101.499996902466,2|0,3:1|0:0,0:0:0:0:
150,146,141931,1,8,0:0:0:0:
150,146,142036,1,0,0:0:0:0:
253,355,142142,6,0,L|279:203,1,101.499996902466,2|0,3:1|0:0,0:0:0:0:
288,148,142351,1,8,0:0:0:0:
288,148,142456,1,0,0:0:0:0:
326,379,142562,6,0,L|398:243,1,101.499996902466,0|0,3:0|0:0,0:0:0:0:
435,185,142771,1,8,0:0:0:0:
435,185,142876,1,0,0:0:0:0:
453,384,142982,6,0,L|441:244,1,130.499996017456,2|0,3:1|0:0,0:0:0:0:
323,167,143193,2,0,L|311:297,1,130.499996017456,10|0,0:0|0:0,0:0:0:0:
196,377,143405,2,0,L|184:237,1,130.499996017456,2|0,3:1|0:0,0:0:0:0:
50,166,143617,2,0,L|38:296,1,130.499996017456,8|0,0:0|0:0,0:0:0:0:
196,377,143828,5,10,3:1:0:0:
312,340,143934,1,8,0:0:0:0:
188,299,144040,5,8,0:0:0:0:
304,262,144146,1,8,0:0:0:0:
185,222,144252,5,10,3:1:0:0:
301,185,144358,1,8,0:0:0:0:
177,144,144464,5,8,0:0:0:0:
293,107,144570,1,8,0:0:0:0:
174,56,144675,6,0,B|130:87|130:87|175:103,1,101.499996902466,2|0,3:1|0:0,0:0:0:0:
351,62,144885,2,0,L|240:73,1,101.499996902466,10|0,0:0|0:0,0:0:0:0:
49,12,145096,1,2,3:1:0:0:
59,94,145202,1,0,0:0:0:0:
69,176,145307,2,0,L|84:306,1,101.499996902466,8|0,0:0|0:0,0:0:0:0:
132,212,145518,6,0,P|74:196|11:233,1,130.499996017456,2|0,3:1|0:0,0:0:0:0:
33,361,145729,2,0,P|91:377|154:340,1,130.499996017456,10|0,0:0|0:0,0:0:0:0:
245,177,145940,2,0,P|292:163|343:194,1,101.499996902466,0|0,3:1|0:0,0:0:0:0:
325,298,146151,2,0,P|277:311|226:280,1,101.499996902466,8|0,0:0|0:0,0:0:0:0:
95,100,146362,5,2,3:1:0:0:
247,79,146467,1,0,0:0:0:0:
108,92,146572,5,10,0:0:0:0:
260,71,146678,1,0,0:0:0:0:
344,18,146783,6,0,P|361:64|350:113,1,101.499996902466,2|0,3:1|0:0,0:0:0:0:
309,184,146994,1,8,0:0:0:0:
309,184,147099,1,0,0:0:0:0:
350,113,147204,2,0,P|382:74|429:59,1,101.499996902466,2|0,3:1|0:0,0:0:0:0:
511,69,147415,1,8,0:0:0:0:
511,69,147520,1,0,0:0:0:0:
429,59,147626,2,0,P|379:50|342:16,1,101.499996902466,0|0,3:1|0:0,0:0:0:0:
414,259,147836,5,8,0:0:0:0:
429,151,147942,1,8,0:0:0:0:
280,377,148047,6,0,L|300:247,1,101.499996902466,2|0,3:1|0:0,0:0:0:0:
311,177,148259,2,0,L|296:278,1,101.499996902466,10|0,0:0|0:0,0:0:0:0:
185,369,148471,2,0,P|231:388|280:377,1,101.499996902466,2|0,3:1|0:0,0:0:0:0:
405,184,148683,2,0,P|359:165|311:177,1,101.499996902466,10|0,0:0|0:0,0:0:0:0:
190,36,148895,2,0,P|236:55|284:43,1,101.499996902466,2|0,3:1|0:0,0:0:0:0:
348,0,149107,1,8,0:0:0:0:
153,264,149319,5,10,3:1:0:0:
153,149,149425,1,10,0:0:0:0:
85,242,149531,1,10,0:0:0:0:
195,206,149637,1,10,0:0:0:0:
85,171,149744,6,0,P|62:122|71:62,1,116,2|0,3:1|0:0,0:0:0:0:
222,216,149954,2,0,P|245:265|236:325,1,116,10|0,0:0|0:0,0:0:0:0:
71,163,150165,2,0,P|48:111|57:55,1,116,2|0,3:1|0:0,0:0:0:0:
233,227,150375,2,0,P|256:276|247:336,1,116,10|0,0:0|0:0,0:0:0:0:
51,154,150586,2,0,P|33:99|42:43,1,116,2|0,3:1|0:0,0:0:0:0:
358,70,150796,5,10,0:0:0:0:
363,151,150901,1,10,0:0:0:0:
218,78,151007,5,10,3:1:0:0:
286,33,151112,1,10,0:0:0:0:
295,196,151217,5,10,0:0:0:0:
222,159,151322,1,10,0:0:0:0:
358,70,151428,6,0,B|505:56,1,130.499996017456,2|0,3:1|0:0,0:0:0:0:
235,82,151638,2,0,B|88:96,1,130.499996017456,10|0,0:0|0:0,0:0:0:0:
500,187,151848,2,0,B|487:57,1,130.499996017456,2|0,3:1|0:0,0:0:0:0:
106,95,152058,2,0,B|119:225,1,130.499996017456,10|0,0:0|0:0,0:0:0:0:
301,314,152268,5,10,3:1:0:0:
256,173,152374,1,10,0:0:0:0:
212,313,152479,1,10,0:0:0:0:
328,227,152584,1,10,0:0:0:0:
191,155,152688,5,10,3:1:0:0:
255,364,152794,1,10,0:0:0:0:
322,157,152899,1,10,0:0:0:0:
149,284,153004,1,10,0:0:0:0:
367,284,153109,1,10,3:1:0:0:
256,192,154011,12,2,154944,3:1:0:0:
