osu file format v14

[General]
AudioFilename: audio.mp3
AudioLeadIn: 0
PreviewTime: 17257
Countdown: 0
SampleSet: Normal
StackLeniency: 0.4
Mode: 0
LetterboxInBreaks: 0
WidescreenStoryboard: 1

[Editor]
DistanceSpacing: 1.2
BeatDivisor: 4
GridSize: 8
TimelineZoom: 2.400005

[Metadata]
Title:Brick by Brick
TitleUnicode:Brick by Brick
Artist:Henry Salvia, Kathleen Enright
ArtistUnicode:Henry Salvia, Kathleen Enright
Creator:Apo11o
Version:Normal
Source:LEGO Island
Tags:ajt respirte frenz396 mrowswares english folk country vgm video game project alternator
BeatmapID:3294627
BeatmapSetID:1576337

[Difficulty]
HPDrainRate:3
CircleSize:2
OverallDifficulty:4.5
ApproachRate:6
SliderMultiplier:1.5
SliderTickRate:1

[Events]
//Background and Video events
0,0,"3282726d-40bc-46d3-bc8c-59a9f3227eb9.jpg",0,0
//Break Periods
2,30622,32889
2,60888,63186
2,71111,76737
2,121154,122810
//Storyboard Layer 0 (Background)
//Storyboard Layer 1 (Fail)
//Storyboard Layer 2 (Pass)
//Storyboard Layer 3 (Foreground)
//Storyboard Layer 4 (Overlay)
//Storyboard Sound Samples

[TimingPoints]
170,427.350427350427,4,1,1,60,1,0
1879,421.052631578947,4,1,1,60,1,0
3563,425.531914893617,4,1,1,60,1,0
5265,427.960057061341,4,1,1,60,1,0
6976,424.628450106157,4,1,1,60,1,0
10373,416.377515614157,4,1,1,60,1,0
12039,417.827298050139,4,1,1,60,1,0
13710,421.348314606742,4,1,1,60,1,0
15395,413.507925568573,4,1,1,60,1,0
17049,416.666666666667,4,1,1,60,1,0
17257,-100,4,1,1,70,0,1
18715,417.827298050139,4,1,1,70,1,1
20386,420.168067226891,4,1,1,70,1,1
23746,418.410041841004,4,1,1,70,1,1
27093,423.429781227946,4,1,1,70,1,1
28786,472.44094488189,4,1,1,60,1,0
29730,446.096654275093,4,1,1,60,1,0
30622,414.651002073255,4,1,1,60,1,0
35600,419.874037788663,4,1,1,60,1,0
37279,418.994413407821,4,1,1,60,1,0
38954,414.573645553352,4,1,1,60,1,0
40612,417.827298050139,4,1,1,60,1,0
42283,416.377515614157,4,1,1,60,1,0
43948,418.994413407821,4,1,1,60,1,0
45623,421.644413211525,4,1,1,60,1,0
47309,418.410041841004,4,1,1,60,1,0
47518,-100,4,1,1,70,0,1
50655,420.168067226891,4,1,1,70,1,1
52335,422.832980972516,4,1,1,70,1,1
54026,420.757363253857,4,1,1,70,1,1
55709,417.246175243394,4,1,1,70,1,1
57377,422.832980972516,4,1,1,70,1,1
59068,461.538461538462,4,1,1,60,1,0
59991,448.765893792072,4,1,1,60,1,0
60888,419.58041958042,4,1,1,60,1,0
62566,417.536534446764,4,1,1,60,1,0
64236,417.827298050139,4,1,1,60,1,0
65907,416.088765603329,4,1,1,60,1,0
67571,417.246175243394,4,1,1,60,1,0
69239,418.118466898955,4,1,1,60,1,0
70911,414.9377593361,4,1,1,60,1,0
72570,415.800415800416,4,1,1,60,1,0
74233,418.702023726448,4,1,1,60,1,0
75907,418.118466898955,4,1,1,60,1,0
77579,417.536534446764,4,1,1,60,1,0
79249,414.07867494824,4,1,1,60,1,0
80905,412.654745529574,4,1,1,60,1,0
82555,414.9377593361,4,1,1,60,1,0
84214,416.088765603329,4,1,1,60,1,0
85878,417.246175243394,4,1,1,60,1,0
87546,416.956219596942,4,1,1,60,1,0
89213,416.377515614157,4,1,1,60,1,0
90878,418.994413407821,4,1,1,60,1,0
92553,416.666666666667,4,1,1,60,1,0
94219,427.046263345196,4,1,1,60,1,0
95927,415.800415800416,4,1,1,60,1,0
97590,416.377515614157,4,1,1,60,1,0
100920,417.536534446764,4,1,1,60,1,0
102590,418.410041841004,4,1,1,60,1,0
104263,417.246175243394,4,1,1,60,1,0
105931,416.088765603329,4,1,1,60,1,0
107595,420.757363253857,4,1,1,60,1,1
107805,-100,4,1,1,70,0,1
109278,419.874037788663,4,1,1,70,1,1
110957,418.994413407821,4,1,1,70,1,1
112632,419.58041958042,4,1,1,70,1,1
114310,418.410041841004,4,1,1,70,1,1
115983,417.827298050139,4,1,1,70,1,1
117654,423.429781227946,4,1,1,70,1,1
119347,447.761194029851,4,1,1,60,1,0
120242,456.273764258555,4,1,1,60,1,0
121154,421.348314606742,4,1,1,60,1,0
121996,415.512465373961,4,1,1,60,1,0
122827,413.223140495868,4,1,1,60,1,0
124479,422.237860661506,4,1,1,60,1,0
126167,421.348314606742,4,1,1,60,1,0
131222,420.757363253857,4,1,1,60,1,0
132905,418.118466898955,4,1,1,60,1,0
134577,422.237860661506,4,1,1,60,1,0
136265,421.052631578947,4,1,1,60,1,0
137949,417.827298050139,4,1,1,60,1,1
138157,-100,4,1,1,70,0,1
139620,420.757363253857,4,1,1,70,1,1
141303,419.874037788663,4,1,1,70,1,1
142772,-100.502512562814,4,1,1,70,0,1
142982,423.429781227946,4,1,1,70,1,1
144675,421.940928270042,4,1,1,70,1,1
146362,421.348314606742,4,1,1,70,1,1
148047,424.328147100424,4,1,1,70,1,1
149744,421.052631578947,4,1,1,70,1,1
151428,420.462508759636,4,1,1,70,1,1
153109,451.127819548872,4,1,1,60,1,0
154011,466.926070038911,4,1,1,60,1,0
154944,416.666666666667,4,1,1,60,1,0
156610,416.088765603329,4,1,1,60,1,0
158274,400,4,1,1,60,1,0
158674,408.163265306122,4,1,1,60,1,0
159082,408.719346049046,4,1,1,60,1,0

[Colours]
Combo1 : 138,223,134
Combo2 : 140,151,242
Combo3 : 228,99,99
Combo4 : 218,221,100

[HitObjects]
404,310,3142,5,2,0:1:0:0:
404,310,3352,1,10,0:0:0:0:
404,310,3563,2,0,L|245:297,1,150,2|2,3:1|3:1,0:0:0:0:
164,293,4201,1,10,0:0:0:0:
8,379,4626,1,10,0:0:0:0:
8,379,4839,2,0,L|3:303,1,75,2|10,3:1|0:0,0:0:0:0:
44,224,5265,5,2,3:1:0:0:
221,199,5692,1,2,3:1:0:0:
399,175,6120,1,2,3:1:0:0:
399,175,6976,6,0,L|490:191,2,75,2|10|2,3:1|0:0|3:1,0:0:0:0:
314,166,7612,1,10,0:0:0:0:
314,166,7825,1,2,3:1:0:0:
159,257,8249,1,2,3:1:0:0:
78,95,8674,2,0,L|2:100,2,75,2|10|2,3:1|0:0|3:1,0:0:0:0:
172,91,9311,1,10,0:0:0:0:
172,91,9523,1,2,3:1:0:0:
172,91,10373,6,0,B|178:167|178:167|157:254,1,150,2|2,3:1|3:1,0:0:0:0:
129,325,10997,1,10,0:0:0:0:
129,325,11205,2,0,P|182:259|259:265,1,150,2|2,3:1|3:1,0:0:0:0:
408,340,12038,5,2,3:1:0:0:
408,340,12247,1,8,0:1:0:0:
473,172,12665,1,8,0:1:0:0:
473,172,12874,1,2,3:1:0:0:
297,213,13292,1,0,3:0:0:0:
327,37,13710,6,0,P|360:31|421:37,1,75,2|10,3:1|0:1,0:0:0:0:
489,53,14131,1,2,3:1:0:0:
386,202,14552,1,2,3:1:0:0:
386,202,14763,1,8,0:0:0:0:
164,39,15395,6,0,L|7:27,2,150,2|2|2,3:1|3:1|3:1,0:0:0:0:
507,315,17257,6,0,P|487:347|390:356,2,112.5,10|2|2,0:0|0:0|3:1,0:0:0:0:
73,200,18923,2,0,P|41:118|37:58,2,112.5,10|2|2,0:0|0:0|3:1,0:0:0:0:
291,40,20177,5,10,0:0:0:0:
291,40,20386,2,0,P|365:23|443:80,1,150,2|2,3:1|3:1,0:0:0:0:
408,235,21226,2,0,P|334:252|256:195,1,150,2|0,3:1|3:1,0:0:0:0:
222,150,21856,1,10,0:0:0:0:
222,150,22065,2,0,P|148:133|70:190,1,150,2|2,3:1|3:1,0:0:0:0:
105,345,22907,2,0,P|179:362|257:305,1,150,2|0,3:1|3:1,0:0:0:0:
340,176,23746,5,2,3:1:0:0:
327,355,24164,1,2,3:1:0:0:
491,277,24582,1,2,3:1:0:0:
491,277,24792,1,10,0:0:0:0:
491,97,25210,1,10,0:0:0:0:
491,97,25419,6,0,L|338:80,1,150,2|2,3:1|3:1,0:0:0:0:
162,62,26256,1,2,3:1:0:0:
52,368,27093,5,2,3:1:0:0:
52,368,27304,1,10,0:0:0:0:
52,368,27516,1,2,3:1:0:0:
231,375,27939,2,0,B|257:303|257:303|234:232,1,150,2|2,3:1|3:1,0:0:0:0:
73,222,28786,1,10,3:1:0:0:
200,330,33939,6,0,B|256:378|256:378|314:331,1,150,2|2,3:1|3:1,0:0:0:0:
346,153,34768,1,2,3:1:0:0:
166,153,35183,1,2,3:1:0:0:
32,34,35600,6,0,P|66:17|108:11,1,75,2|10,3:1|0:0,0:0:0:0:
189,31,36019,1,2,3:1:0:0:
365,64,36439,2,0,P|426:57|496:0,1,150,2|0,3:1|3:1,0:0:0:0:
402,159,37279,6,0,P|358:153|318:156,1,75,2|10,3:1|0:0,0:0:0:0:
240,174,37697,1,2,3:1:0:0:
74,104,38116,1,2,3:1:0:0:
101,281,38535,1,2,3:1:0:0:
170,112,38954,6,2,P|204:78|240:63,1,75,2|8,3:1|0:0,0:0:0:0:
303,115,39368,2,0,P|360:130|457:98,1,150,2|2,3:1|3:1,0:0:0:0:
445,106,40612,6,0,P|464:150|461:197,1,75,2|10,3:1|0:0,0:0:0:0:
448,265,41029,1,2,3:1:0:0:
280,216,41447,1,2,3:1:0:0:
280,216,41656,1,10,0:0:0:0:
9,196,42283,6,0,L|1:111,2,75,2|10|2,3:1|0:0|3:1,0:0:0:0:
18,290,42907,1,10,0:0:0:0:
18,290,43115,1,2,3:1:0:0:
278,362,43740,1,10,0:0:0:0:
278,362,43948,6,0,L|437:353,1,150,2|2,3:1|3:1,0:0:0:0:
509,193,44785,1,2,3:1:0:0:
248,249,45414,1,10,0:0:0:0:
248,249,45623,2,0,P|237:208|241:163,1,75,2|10,3:1|0:0,0:0:0:0:
250,86,46044,1,2,3:1:0:0:
390,199,46466,1,2,3:1:0:0:
276,338,46887,1,10,3:1:0:0:
490,170,47518,6,0,P|500:116|482:63,1,112.5,10|2,0:0|0:0,0:0:0:0:
363,126,48145,2,0,P|301:126|226:79,1,150,2|0,3:1|3:0,0:0:0:0:
183,2,48773,1,8,0:0:0:0:
44,116,49191,6,0,L|69:255,1,112.5,10|2,0:0|0:0,0:0:0:0:
25,356,49819,2,0,P|81:310|155:322,1,150,2|0,3:1|3:0,3:1:0:0:
236,370,50447,1,10,0:0:0:0:
236,370,50655,6,0,B|260:302|260:302|249:212,1,150,2|2,3:1|3:1,0:0:0:0:
224,51,51495,1,2,3:1:0:0:
224,51,51705,1,8,0:0:0:0:
62,125,52125,1,10,0:0:0:0:
62,125,52335,6,0,B|130:149|130:149|220:138,1,150,2|2,3:1|3:1,0:0:0:0:
381,113,53180,1,2,3:1:0:0:
381,113,53392,1,8,0:0:0:0:
478,370,54026,5,2,3:1:0:0:
331,265,54446,1,2,3:1:0:0:
498,192,54867,1,2,3:1:0:0:
498,192,55077,1,10,0:0:0:0:
392,338,55498,1,10,0:0:0:0:
392,338,55709,6,0,P|334:363|255:321,1,150,2|2,3:1|3:1,0:0:0:0:
341,167,56543,1,2,3:1:0:0:
26,30,57377,5,2,3:1:0:0:
26,30,57588,1,10,0:0:0:0:
26,30,57799,1,2,3:1:0:0:
192,97,58222,1,2,3:1:0:0:
354,18,58645,1,2,3:1:0:0:
505,83,59068,1,10,3:1:0:0:
359,131,64236,5,2,3:1:0:0:
359,131,64444,2,2,B|309:148|273:121|273:121|236:149|236:149|193:122|139:136,1,225,10|0,0:0|3:2,0:0:0:0:
151,133,65907,6,0,P|156:89|140:54,2,75,2|10|2,3:1|0:0|3:1,0:0:0:0:
76,183,66531,2,2,P|56:244|87:322,1,150,10|0,0:0|0:0,0:0:0:0:
155,378,67155,1,0,3:0:0:0:
239,219,67571,6,0,L|249:117,1,75,2|10,3:1|0:0,0:0:0:0:
298,74,67988,1,2,3:1:0:0:
298,74,68196,1,10,0:0:0:0:
298,74,68405,1,2,3:1:0:0:
411,214,68822,1,2,3:1:0:0:
315,365,69239,5,2,3:1:0:0:
315,365,69448,2,0,P|351:375|394:376,2,75,10|2|10,0:0|3:1|0:0,0:0:0:0:
245,307,70075,2,2,B|254:276|233:239|233:239|260:198|240:157|240:157|264:121|241:86|241:86|264:48|254:18,1,300,2|2,3:1|3:1,0:0:0:0:
126,204,77787,6,2,B|217:189|217:189|219:190|219:190|296:178,1,150,10|8,0:0|0:0,0:0:0:0:
363,166,78414,1,2,3:1:0:0:
447,7,78831,1,2,3:1:0:0:
275,37,79249,5,2,3:1:0:0:
275,37,79456,1,10,0:0:0:0:
275,37,79663,1,2,3:1:0:0:
442,101,80077,2,0,P|462:139|465:177,1,75,2|10,3:1|0:0,0:0:0:0:
454,259,80491,1,2,3:1:0:0:
288,185,80905,5,2,3:1:0:0:
154,64,81317,1,2,3:1:0:0:
121,241,81730,1,2,3:1:0:0:
239,106,82142,1,2,3:1:0:0:
62,73,82555,1,2,3:1:0:0:
14,246,82969,1,2,3:1:0:0:
14,246,83177,1,10,0:0:0:0:
189,203,83592,1,10,0:0:0:0:
189,203,84422,6,2,B|199:272|182:308|182:308|207:305|246:323,1,150,10|0,0:0|0:0,0:0:0:0:
307,349,85046,2,0,P|350:330|393:325,1,75,2|10,3:1|0:0,0:0:0:0:
467,332,85462,1,2,3:1:0:0:
488,156,85878,5,2,3:1:0:0:
309,178,86295,1,2,3:1:0:0:
130,200,86712,1,2,3:1:0:0:
146,2,87546,6,2,P|168:28|183:81,1,75,2|10,3:1|0:0,0:0:0:0:
268,89,87962,2,2,P|270:122|251:174,1,75,2|10,3:1|0:0,0:0:0:0:
313,234,88379,2,2,P|295:262|249:293,1,75,2|10,3:1|0:0,0:0:0:0:
223,368,88796,1,2,3:1:0:0:
100,235,89213,6,0,L|115:146,2,75,2|10|2,3:1|0:0|3:1,0:0:0:0:
85,323,89837,1,10,0:0:0:0:
10,159,90253,1,10,0:0:0:0:
10,159,90462,1,2,3:1:0:0:
174,88,90878,1,2,3:1:0:0:
256,192,91087,12,0,93386,0:0:0:0:
407,188,94219,5,2,3:1:0:0:
489,347,94646,1,2,3:1:0:0:
309,343,95073,1,2,3:1:0:0:
129,342,95500,2,2,P|111:311|73:282,1,75,2|10,3:1|0:0,0:0:0:0:
4,246,95927,5,2,3:1:0:0:
4,246,96134,1,10,0:0:0:0:
182,224,96550,1,10,0:0:0:0:
182,224,96758,1,0,3:0:0:0:
76,78,97174,1,0,3:0:0:0:
254,60,97590,5,2,3:1:0:0:
254,60,97798,2,0,P|281:114|280:213,1,150,10|10,0:0|0:1,0:0:0:0:
256,288,98422,1,2,3:1:0:0:
91,214,98839,1,2,3:1:0:0:
190,65,99255,5,2,3:1:0:0:
190,65,99463,2,0,P|217:119|216:218,1,150,10|10,0:0|0:1,0:0:0:0:
184,290,100088,1,2,3:1:0:0:
356,240,100504,1,0,3:0:0:0:
482,113,100920,6,0,L|405:105,1,75,2|10,3:1|0:0,0:0:0:0:
328,62,101337,2,0,L|251:54,1,75,2|10,3:1|0:0,0:0:0:0:
167,26,101755,1,2,3:1:0:0:
4,103,102172,1,2,3:1:0:0:
17,282,102590,6,0,L|94:274,1,75,2|10,3:1|0:0,0:0:0:0:
171,231,103007,2,0,L|248:223,1,75,2|10,3:1|0:0,0:0:0:0:
332,195,103425,1,0,3:0:0:0:
495,272,103845,1,0,3:0:0:0:
484,90,104263,6,0,P|445:74|396:68,1,75,2|10,3:1|0:0,0:0:0:0:
324,84,104680,1,2,3:1:0:0:
157,15,105097,2,0,P|188:80|164:149,1,150,2|0,3:1|3:1,0:0:0:0:
112,223,105723,1,10,0:0:0:0:
112,223,105931,6,0,P|89:270|84:317,1,75,2|10,3:1|0:0,0:0:0:0:
124,372,106347,1,2,3:1:0:0:
298,328,106763,2,0,P|324:244|297:189,1,150,2|10,3:1|3:1,0:0:0:0:
72,49,107805,5,10,0:0:0:0:
60,183,108120,1,2,0:0:0:0:
48,317,108436,1,2,3:1:0:0:
427,74,109487,5,10,0:0:0:0:
415,208,109802,1,2,0:0:0:0:
403,342,110118,1,2,3:1:0:0:
215,157,110747,5,8,0:0:0:0:
215,157,110957,2,0,P|263:150|293:131,1,75,2|10,3:1|0:0,0:0:0:0:
340,65,111375,1,2,3:1:0:0:
509,3,111794,2,2,B|482:32|482:32|493:148,1,150,2|0,3:1|3:1,3:1:0:0:
507,236,112423,1,10,0:0:0:0:
507,236,112632,6,0,P|477:258|439:268,1,75,2|10,3:1|0:0,0:0:0:0:
351,256,113051,1,2,3:1:0:0:
201,357,113471,2,2,P|130:337|97:263,1,150,2|0,3:1|3:1,3:1:0:0:
25,120,114310,5,2,3:1:0:0:
25,120,114519,1,10,0:0:0:0:
25,120,114728,1,2,3:1:0:0:
204,133,115146,1,2,3:1:0:0:
204,133,115356,1,10,0:1:0:0:
387,159,115774,1,10,0:0:0:0:
387,159,115983,6,0,P|408:118|410:86,1,75,2|10,3:1|0:0,0:0:0:0:
395,0,116400,1,2,3:1:0:0:
229,70,116818,2,0,L|245:235,1,150,2|0,3:1|3:1,0:0:0:0:
163,378,117654,5,2,3:1:0:0:
98,210,118077,1,2,3:1:0:0:
98,210,118289,1,10,0:0:0:0:
98,210,118500,1,2,3:1:0:0:
12,368,118924,1,2,3:1:0:0:
181,360,119347,1,10,3:1:0:0:
270,35,123860,6,0,P|304:27|359:19,2,75,10|2|10,0:0|3:1|0:0,0:0:0:0:
230,112,124479,2,2,P|155:104|92:64,1,150,2|2,3:1|3:1,0:0:0:0:
17,16,125112,2,0,B|45:41|45:41|35:162,1,150,10|8,0:0|0:0,0:0:0:0:
27,242,125745,1,2,3:1:0:0:
145,377,126167,5,2,3:1:0:0:
129,197,126588,1,2,3:1:0:0:
119,22,127009,1,2,3:1:0:0:
119,22,127220,1,10,0:0:0:0:
275,109,127641,1,10,0:0:0:0:
275,109,127852,6,0,P|316:105|351:88,1,75,2|8,3:1|0:0,0:0:0:0:
416,148,128273,2,0,P|398:185|396:224,1,75,2|8,3:1|0:0,0:0:0:0:
311,250,128695,2,0,P|287:216|254:194,1,75,2|8,3:1|0:0,0:0:0:0:
176,230,129116,1,2,3:1:0:0:
104,64,129537,5,2,3:1:0:0:
284,55,129959,1,2,3:1:0:0:
463,47,130380,1,2,3:1:0:0:
463,47,130591,1,8,0:0:0:0:
495,314,131222,6,0,P|461:326|422:318,1,75,2|10,3:1|0:0,0:0:0:0:
344,275,131642,2,0,P|307:267|272:278,1,75,2|10,3:1|0:0,0:0:0:0:
197,328,132063,1,2,3:1:0:0:
22,284,132484,1,2,3:1:0:0:
11,103,132905,6,0,P|45:114|83:106,1,75,2|10,3:1|0:0,0:0:0:0:
162,63,133323,2,0,P|198:55|233:66,1,75,2|10,3:1|0:0,0:0:0:0:
309,116,133741,1,2,3:1:0:0:
484,72,134159,1,0,3:1:0:0:
436,250,134577,5,2,3:1:0:0:
436,250,134788,1,10,0:0:0:0:
436,250,134999,1,2,3:1:0:0:
269,197,135421,1,2,3:1:0:0:
269,197,135632,1,10,0:0:0:0:
43,347,136265,1,2,3:1:0:0:
43,347,136475,1,10,0:0:0:0:
43,347,136686,1,2,3:1:0:0:
43,347,136896,1,10,0:0:0:0:
43,347,137107,1,2,3:1:0:0:
255,0,138157,5,10,0:0:0:0:
269,134,138471,1,2,0:0:0:0:
287,267,138784,1,2,3:1:0:0:
287,267,138993,1,8,0:0:0:0:
480,0,139830,5,10,0:0:0:0:
494,134,140145,1,2,0:0:0:0:
512,267,140461,1,2,3:1:0:0:
512,267,140671,1,8,0:0:0:0:
407,120,141092,6,0,L|416:43,2,75,10|2|10,0:0|3:1|0:0,0:0:0:0:
397,209,141722,1,2,3:1:0:0:
233,283,142142,2,0,L|87:228,1,150,2|0,3:1|3:0,0:0:0:0:
8,197,142772,6,0,L|-1:120,2,75,8|2|10,0:0|3:1|0:0,0:0:0:0:
18,286,143405,1,2,3:1:0:0:
182,360,143828,2,0,L|328:305,1,150,10|10,3:1|3:1,0:0:0:0:
496,250,144675,5,2,3:1:0:0:
496,250,144885,1,10,0:0:0:0:
496,250,145096,1,2,3:1:0:0:
475,71,145518,1,2,3:1:0:0:
475,71,145729,1,10,0:0:0:0:
297,99,146151,1,8,0:0:0:0:
297,99,146362,5,2,3:1:0:0:
328,276,146783,2,0,P|367:253|388:217,1,75,2|8,3:1|0:0,0:0:0:0:
399,140,147204,2,0,L|382:-13,1,150,2|0,3:1|3:1,0:0:0:0:
206,24,148047,6,0,L|214:110,1,75,2|10,3:1|0:0,0:0:0:0:
276,162,148471,2,0,L|284:248,1,75,2|10,3:1|0:0,0:0:0:0:
353,292,148895,2,0,P|286:265|231:311,1,150,2|10,3:1|3:1,0:0:0:0:
142,292,149532,1,10,0:0:0:0:
142,292,149744,6,0,P|138:249|111:213,1,75,2|10,3:1|0:0,0:0:0:0:
154,138,150165,2,0,P|111:128|69:143,1,75,2|10,3:1|0:0,0:0:0:0:
17,73,150586,2,0,P|48:124|19:213,1,150,2|10,3:1|3:1,0:0:0:0:
1,377,151428,6,0,L|110:361,1,75,2|10,3:1|0:0,0:0:0:0:
134,298,151848,2,0,L|243:282,1,75,2|10,3:1|0:0,0:0:0:0:
287,240,152268,1,10,3:1:0:0:
287,240,152479,1,10,0:0:0:0:
287,240,152689,1,10,3:1:0:0:
416,345,153109,1,10,3:1:0:0:
256,192,154944,5,2,3:1:0:0:
