osu file format v14

[General]
AudioFilename: audio.mp3
AudioLeadIn: 0
PreviewTime: 17257
Countdown: 0
SampleSet: Normal
StackLeniency: 0.4
Mode: 0
LetterboxInBreaks: 0
WidescreenStoryboard: 1

[Editor]
Bookmarks: 47309,63609,123860
DistanceSpacing: 1
BeatDivisor: 8
GridSize: 8
TimelineZoom: 4.700003

[Metadata]
Title:Brick by Brick
TitleUnicode:Brick by Brick
Artist:Henry Salvia, Kathleen Enright
ArtistUnicode:Henry Salvia, Kathleen Enright
Creator:Apo11o
Version:Hard feat. AJT
Source:LEGO Island
Tags:ajt respirte frenz396 mrowswares english folk country vgm video game project alternator
BeatmapID:3241945
BeatmapSetID:1576337

[Difficulty]
HPDrainRate:5
CircleSize:3
OverallDifficulty:6
ApproachRate:7
SliderMultiplier:1.8
SliderTickRate:1

[Events]
//Background and Video events
0,0,"3282726d-40bc-46d3-bc8c-59a9f3227eb9.jpg",0,0
//Break Periods
2,30822,33039
2,61088,62709
2,121354,122960
//Storyboard Layer 0 (Background)
//Storyboard Layer 1 (Fail)
//Storyboard Layer 2 (Pass)
//Storyboard Layer 3 (Foreground)
//Storyboard Layer 4 (Overlay)
//Storyboard Sound Samples

[TimingPoints]
170,427.350427350427,4,1,1,60,1,0
1879,421.052631578947,4,1,1,60,1,0
3563,425.531914893617,4,1,1,60,1,0
5265,427.960057061341,4,1,1,60,1,0
6976,424.628450106157,4,1,1,60,1,0
10373,416.377515614157,4,1,1,60,1,0
12039,417.827298050139,4,1,1,60,1,0
13710,421.348314606742,4,1,1,60,1,0
15395,413.507925568573,4,1,1,60,1,0
17049,416.666666666667,4,1,1,60,1,0
17257,-100,4,1,1,70,0,1
18715,417.827298050139,4,1,1,70,1,1
20386,420.168067226891,4,1,1,70,1,1
23746,418.410041841004,4,1,1,70,1,1
27093,423.429781227946,4,1,1,70,1,1
28786,472.44094488189,4,1,1,60,1,0
29730,446.096654275093,4,1,1,60,1,0
30622,414.651002073255,4,1,1,60,1,0
35600,419.874037788663,4,1,1,60,1,0
37279,418.994413407821,4,1,1,60,1,0
38954,414.573645553352,4,1,1,60,1,0
40612,417.827298050139,4,1,1,60,1,0
42283,416.377515614157,4,1,1,60,1,0
43948,418.994413407821,4,1,1,60,1,0
45623,421.644413211525,4,1,1,60,1,0
47309,418.410041841004,4,1,1,60,1,0
47518,-100,4,1,1,70,0,1
50655,420.168067226891,4,1,1,70,1,1
52335,422.832980972516,4,1,1,70,1,1
54026,420.757363253857,4,1,1,70,1,1
55709,417.246175243394,4,1,1,70,1,1
57377,422.832980972516,4,1,1,70,1,1
59068,461.538461538462,4,1,1,60,1,0
59991,448.765893792072,4,1,1,60,1,0
60888,419.58041958042,4,1,1,60,1,0
62566,417.536534446764,4,1,1,60,1,0
64236,417.827298050139,4,1,1,60,1,0
65907,416.088765603329,4,1,1,60,1,0
67571,417.246175243394,4,1,1,60,1,0
69239,418.118466898955,4,1,1,60,1,0
70911,414.9377593361,4,1,1,60,1,0
72570,415.800415800416,4,1,1,60,1,0
74233,418.702023726448,4,1,1,60,1,0
75907,418.118466898955,4,1,1,60,1,0
77579,417.536534446764,4,1,1,60,1,0
79249,414.07867494824,4,1,1,60,1,0
80905,412.654745529574,4,1,1,60,1,0
82555,414.9377593361,4,1,1,60,1,0
84214,416.088765603329,4,1,1,60,1,0
85878,417.246175243394,4,1,1,60,1,0
87546,416.956219596942,4,1,1,60,1,0
89213,416.377515614157,4,1,1,60,1,0
90878,418.994413407821,4,1,1,60,1,0
92553,416.666666666667,4,1,1,60,1,0
94219,427.046263345196,4,1,1,60,1,0
95927,415.800415800416,4,1,1,60,1,0
97590,416.377515614157,4,1,1,60,1,0
100920,417.536534446764,4,1,1,60,1,0
102590,418.410041841004,4,1,1,60,1,0
104263,417.246175243394,4,1,1,60,1,0
105931,416.088765603329,4,1,1,60,1,0
107595,420.757363253857,4,1,1,60,1,1
107805,-100,4,1,1,70,0,1
109278,419.874037788663,4,1,1,70,1,1
110957,418.994413407821,4,1,1,70,1,1
112632,419.58041958042,4,1,1,70,1,1
114310,418.410041841004,4,1,1,70,1,1
115983,417.827298050139,4,1,1,70,1,1
117654,423.429781227946,4,1,1,70,1,1
119347,447.761194029851,4,1,1,60,1,0
120242,456.273764258555,4,1,1,60,1,0
121154,421.348314606742,4,1,1,60,1,0
121996,415.512465373961,4,1,1,60,1,0
122827,413.223140495868,4,1,1,60,1,0
124479,422.237860661506,4,1,1,60,1,0
126167,421.348314606742,4,1,1,60,1,0
131222,420.757363253857,4,1,1,60,1,0
132905,418.118466898955,4,1,1,60,1,0
134577,422.237860661506,4,1,1,60,1,0
136265,421.052631578947,4,1,1,60,1,0
137949,417.827298050139,4,1,1,60,1,1
138157,-100,4,1,1,70,0,1
139620,420.757363253857,4,1,1,70,1,1
141303,419.874037788663,4,1,1,70,1,1
142982,423.429781227946,4,1,1,70,1,1
144675,421.940928270042,4,1,1,70,1,1
146362,421.348314606742,4,1,1,70,1,1
148047,424.328147100424,4,1,1,70,1,1
149744,421.052631578947,4,1,1,70,1,1
151428,420.462508759636,4,1,1,70,1,1
153109,451.127819548872,4,1,1,60,1,0
154011,466.926070038911,4,1,1,60,1,0
154944,416.666666666667,4,1,1,60,1,0
156610,416.088765603329,4,1,1,60,1,0
158274,400,4,1,1,60,1,0
158674,408.163265306122,4,1,1,60,1,0
159082,408.719346049046,4,1,1,60,1,0

[Colours]
Combo1 : 138,223,134
Combo2 : 140,151,242
Combo3 : 228,99,99
Combo4 : 218,221,100

[HitObjects]
385,141,3142,5,2,0:1:0:0:
473,125,3352,1,10,0:0:0:0:
417,55,3563,2,0,P|346:65|301:166,1,180,2|2,3:1|3:1,0:0:0:0:
353,226,4201,2,0,P|322:199|271:198,2,89.9999999999999,10|0|10,0:0|0:0|0:0,0:0:0:0:
371,313,4839,2,0,P|412:297|436:260,1,89.9999999999999,2|10,3:1|0:0,0:0:0:0:
353,226,5265,5,2,3:1:0:0:
353,226,5478,1,8,0:0:0:0:
272,260,5692,1,2,3:1:0:0:
272,260,5905,1,8,0:0:0:0:
190,292,6120,1,2,3:1:0:0:
190,292,6333,1,8,0:0:0:0:
106,327,6548,1,0,3:1:0:0:
209,178,6976,6,0,L|221:77,1,90,2|10,3:1|0:0,0:0:0:0:
270,14,7400,2,0,P|229:0|185:7,1,90,2|10,3:1|0:0,0:0:0:0:
127,78,7825,1,2,3:1:0:0:
305,96,8249,1,2,3:1:0:0:
210,249,8674,6,0,P|177:278|133:289,1,90,2|10,3:1|0:0,0:0:0:0:
295,264,9099,2,0,P|285:307|257:341,1,90,2|10,3:1|0:0,0:0:0:0:
375,244,9523,2,0,P|393:284|389:329,1,90,2|8,3:1|0:0,0:0:0:0:
443,190,9948,1,2,3:1:0:0:
302,72,10373,6,0,L|212:64,1,90,2|10,3:1|0:0,0:0:0:0:
138,12,10789,2,0,L|130:101,1,90,2|10,3:1|0:0,0:0:0:0:
65,163,11205,1,2,3:1:0:0:
57,252,11413,1,10,0:0:0:0:
94,334,11622,2,0,P|39:342|3:327,1,90,2|10,3:1|0:0,0:0:0:0:
57,252,12038,5,2,3:1:0:0:
138,212,12247,2,0,L|250:216,1,90,8|0,0:1|3:0,0:0:0:0:
227,124,12665,1,8,0:1:0:0:
150,78,12874,2,0,L|37:74,2,90,2|8|0,3:1|0:0|3:0,0:0:0:0:
317,14,13710,5,2,3:1:0:0:
397,52,13920,1,10,0:1:0:0:
322,102,14131,1,2,3:1:0:0:
402,140,14341,1,10,0:1:0:0:
328,191,14552,1,2,3:1:0:0:
408,229,14762,1,8,0:0:0:0:
225,22,15395,5,2,3:1:0:0:
225,22,15601,1,8,0:0:0:0:
140,52,15808,1,2,3:1:0:0:
140,52,16015,1,8,0:0:0:0:
211,115,16222,1,2,3:1:0:0:
211,115,16428,1,10,0:0:0:0:
126,145,16635,1,10,3:1:0:0:
126,145,16842,1,10,0:0:0:0:
301,182,17257,5,10,0:0:0:0:
366,120,17465,1,0,3:0:0:0:
366,120,17569,1,2,0:0:0:0:
366,120,17674,2,0,L|370:-2,2,90,8|2|8,0:0|3:1|0:0,0:0:0:0:
426,186,18299,1,0,3:0:0:0:
361,248,18507,1,8,0:0:0:0:
493,369,18923,5,10,0:0:0:0:
415,324,19132,1,0,3:0:0:0:
415,324,19237,1,2,0:0:0:0:
415,324,19341,1,8,0:0:0:0:
330,354,19550,2,0,P|288:331|242:316,1,90,2|8,3:1|0:0,0:0:0:0:
66,338,20177,1,10,0:0:0:0:
104,257,20386,5,2,3:1:0:0:
95,167,20596,1,10,0:0:0:0:
5,175,20806,1,2,3:1:0:0:
14,265,21016,1,8,0:0:0:0:
104,257,21226,2,0,P|148:235|288:231,1,180,2|0,3:1|3:1,0:0:0:0:
365,242,21856,1,10,0:0:0:0:
327,161,22065,5,2,3:1:0:0:
336,71,22275,1,10,0:0:0:0:
426,79,22485,1,2,3:1:0:0:
417,169,22695,1,8,0:0:0:0:
327,161,22907,2,0,P|283:139|143:135,1,180,2|0,3:1|3:1,0:0:0:0:
13,17,23746,5,2,3:1:0:0:
102,7,23955,1,10,0:0:0:0:
64,88,24164,1,2,3:1:0:0:
82,266,24582,1,2,3:1:0:0:
90,355,24792,1,10,0:0:0:0:
258,291,25210,1,10,0:0:0:0:
337,248,25419,6,0,P|351:289|336:345,1,90,2|10,3:1|0:0,0:0:0:0:
436,336,25838,2,0,P|440:289|429:239,1,90,2|8,3:1|0:0,0:0:0:0:
509,208,26256,2,0,P|529:292|511:383,1,180,2|0,3:1|3:1,0:0:0:0:
432,247,27093,5,2,3:1:0:0:
440,157,27304,1,10,0:0:0:0:
447,67,27516,1,2,3:1:0:0:
447,67,27622,1,0,0:0:0:0:
447,67,27728,1,10,0:0:0:0:
365,103,27939,2,0,P|303:112|169:72,1,180,2|2,3:1|3:1,0:0:0:0:
127,19,28575,1,10,0:0:0:0:
127,19,28680,1,2,0:0:0:0:
127,19,28786,1,10,3:1:0:0:
81,217,29730,6,0,B|159:205|159:205|157:197|157:197|211:191|211:191|213:197|213:197|278:187|278:187|277:181|277:181|330:174|330:174|331:180|331:180|425:167,1,360,0|2,0:0|3:1,0:0:0:0:
259,109,33939,5,2,3:1:0:0:
332,56,34146,1,10,0:0:0:0:
341,145,34353,1,2,3:1:0:0:
269,198,34561,1,10,0:0:0:0:
185,164,34768,2,0,P|179:218|296:293,1,180,2|2,3:1|3:1,0:0:0:0:
259,109,35600,5,2,3:1:0:0:
331,55,35809,1,10,0:0:0:0:
341,145,36019,1,2,3:1:0:0:
347,234,36229,1,10,0:0:0:0:
422,185,36439,2,0,P|451:147|447:10,1,180,2|0,3:1|3:1,0:0:0:0:
310,132,37279,6,0,L|204:121,1,90,2|10,3:1|0:0,0:0:0:0:
135,154,37697,2,0,P|129:110|146:69,1,90,2|10,3:1|0:0,0:0:0:0:
72,16,38116,2,0,P|39:77|50:197,1,180,2|2,3:1|3:1,0:0:0:0:
144,320,38954,6,2,P|132:266|100:224,1,90,2|8,3:1|0:0,0:0:0:0:
224,341,39368,2,0,P|246:290|244:237,1,90,2|8,3:1|0:0,0:0:0:0:
296,384,39783,2,0,P|343:355|373:312,2,90,2|8|0,3:1|0:0|3:1,0:0:0:0:
117,376,40612,5,2,3:1:0:0:
28,359,40820,1,10,0:0:0:0:
44,270,41029,1,2,3:1:0:0:
133,287,41238,1,10,0:1:0:0:
203,343,41447,1,2,3:1:0:0:
203,343,41656,2,2,P|267:332|393:333,1,180,10|8,0:0|0:0,0:0:0:0:
450,272,42283,5,2,3:1:0:0:
367,236,42491,1,10,0:0:0:0:
440,184,42699,1,2,3:1:0:0:
426,95,42907,1,10,0:0:0:0:
355,150,43115,2,0,P|311:132|261:127,1,90,2|8,3:1|0:0,0:0:0:0:
14,40,43948,6,0,L|117:28,1,90,2|10,3:1|0:0,0:0:0:0:
25,125,44366,2,0,L|128:113,1,90,2|10,3:1|0:0,0:0:0:0:
38,209,44785,2,0,L|141:197,1,90,2|8,3:1|0:0,0:0:0:0:
391,249,45623,6,0,L|288:261,1,90,2|10,3:1|0:0,0:0:0:0:
380,164,46044,2,0,L|277:176,1,90,2|10,3:1|0:0,0:0:0:0:
367,80,46466,2,0,L|264:92,1,90,2|8,3:1|0:0,0:0:0:0:
206,39,46887,1,10,3:1:0:0:
206,39,47098,1,10,0:0:0:0:
0,296,47519,5,10,0:0:0:0:
84,244,47727,2,0,L|130:250,1,45,0|2,3:1|0:0,0:0:0:0:
164,284,47936,2,0,P|172:331|160:406,2,90,8|2|10,0:0|3:1|0:0,0:0:0:0:
249,235,48564,1,0,3:0:0:0:
249,235,48668,1,0,0:0:0:0:
249,235,48773,1,8,0:0:0:0:
299,43,49191,5,10,0:0:0:0:
398,50,49401,2,0,P|404:81|403:117,1,45,0|2,3:1|0:0,0:0:0:0:
450,103,49610,2,0,L|446:211,1,90,8|2,0:0|3:1,0:0:0:0:
473,288,50028,2,0,P|429:298|350:287,1,90,10|0,0:0|3:0,0:0:0:0:
301,241,50447,1,10,0:0:0:0:
254,327,50655,5,2,3:1:0:0:
165,370,50865,1,10,0:0:0:0:
121,281,51075,1,2,3:1:0:0:
23,299,51285,1,8,0:0:0:0:
121,281,51495,2,0,P|99:237|48:110,1,180,2|0,3:1|3:1,0:0:0:0:
98,29,52125,1,10,0:0:0:0:
172,100,52335,5,2,3:1:0:0:
263,63,52546,1,10,0:0:0:0:
330,134,52757,1,2,3:1:0:0:
423,103,52969,1,8,0:0:0:0:
330,134,53180,2,0,P|308:178|304:318,1,180,2|0,3:1|3:1,0:0:0:0:
0,384,54026,5,2,3:1:0:0:
97,369,54236,1,10,0:0:0:0:
110,271,54446,1,2,3:1:0:0:
60,79,54867,1,2,3:1:0:0:
155,52,55077,1,10,0:0:0:0:
419,48,55498,1,10,0:0:0:0:
419,48,55709,6,0,P|378:27|329:25,1,90,2|10,3:1|0:1,0:0:0:0:
245,74,56126,2,0,P|224:115|222:164,1,90,2|8,3:1|0:0,3:0:0:0:
291,246,56543,2,0,P|332:267|381:269,1,90,2|8,3:1|0:0,0:0:0:0:
465,220,56960,2,0,P|486:179|488:130,1,90,0|8,3:0|0:0,0:0:0:0:
406,82,57377,5,2,3:1:0:0:
313,48,57588,1,10,0:0:0:0:
225,82,57799,1,2,3:1:0:0:
225,82,57905,1,0,0:0:0:0:
225,82,58011,1,10,0:0:0:0:
189,174,58222,2,0,P|180:112|220:-22,1,180,2|2,3:1|3:1,0:0:0:0:
306,4,58856,1,10,0:0:0:0:
396,13,59068,1,10,3:1:0:0:
81,217,59991,6,0,B|159:205|159:205|157:197|157:197|211:191|211:191|213:197|213:197|278:187|278:187|277:181|277:181|330:174|330:174|331:180|331:180|425:167,1,360,0|2,0:0|3:1,0:0:0:0:
355,314,63609,6,2,L|462:317,2,90,10|0|10,0:0|0:0|0:0,0:0:0:0:
267,362,64236,1,2,3:1:0:0:
267,362,64444,6,2,P|201:383|104:228,1,270,10|0,0:0|3:2,0:0:0:0:
97,244,65907,6,0,L|5:257,2,90,2|10|2,3:1|0:0|3:1,0:0:0:0:
184,290,66531,2,2,P|250:311|347:156,1,270,10|0,0:0|3:0,0:0:0:0:
195,73,67571,5,2,3:1:0:0:
195,73,67675,1,2,0:0:0:0:
195,73,67779,1,10,0:0:0:0:
110,20,67988,2,0,P|95:72|110:122,1,90,2|10,3:1|0:0,0:0:0:0:
184,161,68405,2,0,L|282:153,1,90,2|10,3:1|0:0,0:0:0:0:
372,149,68822,1,2,3:1:0:0:
195,73,69239,5,2,3:1:0:0:
108,109,69448,1,10,0:0:0:0:
108,109,69552,1,2,0:0:0:0:
108,109,69657,2,0,L|101:222,1,90,2|10,3:1|0:0,0:0:0:0:
33,269,70075,2,2,P|103:180|151:283,1,270,2|8,3:1|0:0,0:0:0:0:
244,319,70911,6,0,B|294:321|294:321|336:346|336:346|372:347,2,135,2|2|10,3:1|0:0|0:0,0:0:0:0:
194,233,71740,2,0,B|157:232|157:232|115:207|115:207|65:204,2,135,2|2|10,3:1|0:0|0:0,0:0:0:0:
247,149,72570,2,0,L|362:155,1,90,2|10,3:1|0:1,0:0:0:0:
185,70,72985,2,0,L|95:65,1,90,2|10,3:1|0:0,0:0:0:0:
250,0,73401,2,0,L|386:9,1,135,2|2,3:1|0:0,0:0:0:0:
480,123,74025,1,10,0:0:0:0:
480,123,74233,5,2,3:1:0:0:
334,94,74547,1,2,0:0:0:0:
189,60,74861,1,10,0:0:0:0:
43,29,75175,1,2,0:0:0:0:
88,170,75489,2,0,P|96:215|92:265,1,90,2|10,3:1|0:0,0:0:0:0:
68,354,75907,5,2,3:1:0:0:
68,354,76011,1,2,0:0:0:0:
68,354,76116,1,10,0:0:0:0:
126,274,76325,2,0,L|182:279,2,45,2|2|10,3:1|0:0|0:0,0:0:0:0:
60,215,76743,1,2,3:1:0:0:
60,215,76847,1,2,0:0:0:0:
60,215,76952,1,10,0:0:0:0:
127,142,77161,1,2,3:1:0:0:
393,13,77787,6,2,P|478:29|501:111,1,180,10|8,0:0|0:0,0:0:0:0:
402,107,78414,2,0,B|363:147|397:200|409:186|437:231|419:276,1,180,2|2,3:1|3:1,0:0:0:0:
404,371,79040,1,10,0:0:0:0:
498,337,79249,6,0,L|503:235,1,90,2|10,3:1|0:0,0:0:0:0:
511,148,79663,1,2,3:1:0:0:
511,148,79766,1,0,0:0:0:0:
511,148,79870,1,10,0:0:0:0:
446,72,80077,2,0,P|402:62|358:75,1,90,2|10,3:1|0:0,0:0:0:0:
277,130,80491,2,0,P|233:141|190:132,1,90,2|8,3:1|0:0,0:0:0:0:
108,76,80905,5,2,3:1:0:0:
197,33,81111,1,8,0:0:0:0:
190,132,81317,2,0,B|180:189|180:189|200:232|200:232|188:327,1,180,2|2,3:1|3:1,0:0:0:0:
124,380,81936,1,8,0:0:0:0:
98,295,82142,1,2,3:1:0:0:
98,295,82246,1,2,0:0:0:0:
98,295,82349,1,10,0:0:0:0:
190,306,82555,6,0,L|293:290,1,90,2|10,3:1|0:0,0:0:0:0:
327,207,82969,1,2,3:1:0:0:
327,207,83177,2,2,L|227:191,1,90,10|2,0:0|3:1,0:0:0:0:
194,116,83592,1,10,0:0:0:0:
194,116,83696,1,0,0:0:0:0:
194,116,83799,2,0,L|293:101,1,90,0|8,3:1|0:0,0:0:0:0:
465,25,84422,6,2,P|493:69|494:206,1,180,10|0,0:0|0:0,0:0:0:0:
472,289,85046,1,2,3:1:0:0:
472,289,85150,1,2,0:0:0:0:
472,289,85254,1,10,0:0:0:0:
509,380,85462,1,2,3:1:0:0:
411,363,85670,1,10,0:0:0:0:
411,363,85774,1,2,0:0:0:0:
411,363,85878,6,0,L|307:370,1,90,2|10,3:1|0:0,0:0:0:0:
236,317,86295,2,0,L|132:324,1,90,2|10,3:1|0:0,0:0:0:0:
64,266,86712,2,2,P|20:214|74:89,1,180,2|0,3:1|3:0,0:0:0:0:
262,48,87546,5,2,3:1:0:0:
360,317,87962,1,2,3:1:0:0:
89,236,88379,1,2,3:1:0:0:
300,19,88796,1,2,3:1:0:0:
333,335,89213,5,2,3:1:0:0:
251,278,89421,1,10,0:0:0:0:
338,231,89629,1,2,3:1:0:0:
419,282,89837,2,0,P|489:257|489:126,1,180,10|10,0:0|0:0,0:0:0:0:
440,96,90462,2,0,P|417:145|425:195,1,90,2|10,3:1|0:0,0:0:0:0:
512,162,90878,1,2,3:1:0:0:
256,192,91087,12,0,93386,0:0:0:0:
223,374,94219,6,0,P|174:379|136:360,1,90,2|10,3:1|0:0,0:0:0:0:
40,379,94646,2,0,P|35:330|54:292,1,90,2|8,3:1|0:0,0:0:0:0:
35,196,95073,2,0,P|84:191|122:210,1,90,2|8,3:1|0:0,0:0:0:0:
198,268,95500,1,2,3:1:0:0:
275,206,95713,1,10,0:0:0:0:
205,131,95927,5,2,3:1:0:0:
273,60,96134,2,0,P|237:34|121:89,1,180,10|10,0:0|0:0,0:0:0:0:
102,177,96758,2,0,B|113:241|113:241|92:277|92:277|106:367,1,180,0|0,3:0|3:0,0:0:0:0:
295,299,97590,5,2,3:1:0:0:
387,334,97798,2,0,P|395:291|383:248,1,90,10|0,0:0|3:0,0:0:0:0:
296,200,98214,1,10,0:1:0:0:
204,236,98422,2,0,P|195:192|207:149,1,90,2|8,3:1|0:0,0:0:0:0:
296,104,98839,1,2,3:1:0:0:
384,147,99047,1,10,0:0:0:0:
296,200,99255,5,2,3:1:0:0:
343,287,99463,2,0,P|297:301|251:289,1,90,10|0,0:0|3:0,0:0:0:0:
159,273,99880,1,10,0:1:0:0:
112,360,100088,2,0,P|158:374|204:362,2,90,2|8|0,3:1|0:0|3:0,0:0:0:0:
35,178,100920,5,2,3:1:0:0:
23,80,101128,1,10,0:0:0:0:
120,64,101337,1,2,3:1:0:0:
132,162,101545,1,10,0:0:0:0:
207,97,101755,1,2,3:1:0:0:
92,257,102172,1,2,3:1:0:0:
278,189,102590,5,2,3:1:0:0:
290,91,102799,1,10,0:0:0:0:
193,80,103008,1,2,3:1:0:0:
181,173,103217,1,10,0:0:0:0:
106,108,103426,1,0,3:0:0:0:
221,268,103845,1,0,3:0:0:0:
332,104,104263,6,0,P|374:86|418:80,4,90,2|10|2|10|2,3:1|0:0|3:1|0:0|3:1,0:0:0:0:
136,327,105723,1,10,0:0:0:0:
136,327,105931,2,0,P|94:309|50:303,4,90,2|10|2|10|2,3:1|0:0|3:1|0:0|3:1,0:0:0:0:
508,7,107805,6,0,P|482:60|480:128,1,90,10|0,0:0|3:0,0:0:0:0:
484,139,108120,1,2,0:0:0:0:
338,110,108436,2,0,P|364:163|366:231,1,90,2|8,3:1|0:0,0:0:0:0:
353,291,108857,1,0,3:1:0:0:
353,291,108962,1,0,0:0:0:0:
353,291,109067,1,8,0:0:0:0:
312,97,109487,6,0,P|286:150|284:218,1,90,10|0,0:0|3:0,0:0:0:0:
288,229,109802,1,2,0:0:0:0:
142,200,110117,2,0,P|168:253|170:321,1,90,2|8,3:1|0:0,0:0:0:0:
157,381,110537,1,0,3:1:0:0:
157,381,110642,1,0,0:0:0:0:
157,381,110747,1,8,0:0:0:0:
256,374,110957,5,2,3:1:0:0:
309,290,111166,1,10,0:0:0:0:
326,192,111375,1,2,3:1:0:0:
309,94,111585,1,8,0:0:0:0:
256,10,111794,1,2,3:1:0:0:
203,94,112004,1,8,0:0:0:0:
186,192,112214,1,0,3:1:0:0:
203,290,112423,1,10,0:0:0:0:
256,374,112632,5,2,3:1:0:0:
309,290,112841,1,10,0:0:0:0:
326,192,113050,1,2,3:1:0:0:
309,94,113260,1,8,0:0:0:0:
256,10,113471,1,2,3:1:0:0:
203,94,113680,1,8,0:0:0:0:
186,192,113889,1,0,3:1:0:0:
203,290,114100,1,8,0:0:0:0:
256,374,114310,6,0,L|371:361,1,90,2|10,3:1|0:0,0:0:0:0:
391,276,114728,2,0,L|301:286,1,90,2|8,3:1|0:0,0:0:0:0:
251,207,115146,1,2,3:1:0:0:
251,207,115356,2,0,L|366:194,1,90,10|0,0:1|3:0,0:0:0:0:
424,141,115774,5,10,0:0:0:0:
424,141,115879,1,0,0:0:0:0:
424,141,115983,2,0,P|456:104|476:59,1,90,2|10,3:1|0:0,0:0:0:0:
338,107,116400,2,0,P|342:58|331:10,1,90,2|10,3:1|0:0,0:0:0:0:
250,141,116818,2,0,P|224:99|188:66,1,90,2|8,3:1|0:0,0:0:0:0:
217,231,117236,1,0,3:1:0:0:
217,231,117340,1,0,0:0:0:0:
217,231,117445,1,10,0:1:0:0:
149,160,117654,5,2,3:1:0:0:
57,121,117865,1,10,0:0:0:0:
134,58,118077,1,2,3:1:0:0:
149,160,118289,1,10,0:0:0:0:
56,120,118500,2,0,P|36:82|37:34,1,90,2|8,3:1|0:0,0:0:0:0:
134,58,118924,2,0,P|178:59|219:84,1,90,2|10,3:1|0:0,0:0:0:0:
149,160,119347,1,10,3:1:0:0:
81,217,120242,6,0,B|159:205|159:205|157:197|157:197|211:191|211:191|213:197|213:197|278:187|278:187|277:181|277:181|330:174|330:174|331:180|331:180|425:167,1,360,0|2,0:0|3:1,0:0:0:0:
512,64,123860,5,10,0:0:0:0:
418,31,124066,1,2,3:1:0:0:
327,70,124273,1,10,0:0:0:0:
268,146,124479,2,2,B|193:138|232:12|136:21,1,180,2|2,3:1|3:1,0:0:0:0:
176,117,125112,2,0,B|168:192|42:153|51:249,1,180,10|8,0:0|0:0,0:0:0:0:
112,308,125745,2,0,L|99:378,2,45,2|0|10,3:1|0:0|0:1,0:0:0:0:
196,255,126167,5,2,3:1:0:0:
294,258,126377,1,10,0:0:0:0:
384,298,126588,2,0,L|478:280,1,90,2|10,3:1|0:0,0:0:0:0:
479,182,127009,2,0,L|461:88,1,90,2|10,3:1|0:0,0:0:0:0:
371,51,127431,1,0,3:1:0:0:
282,67,127641,1,10,0:0:0:0:
160,0,127852,6,0,L|142:94,1,90,2|8,3:1|0:0,0:0:0:0:
43,91,128273,2,0,L|61:185,1,90,2|8,3:1|0:0,0:0:0:0:
122,327,128695,2,0,L|139:239,1,90,2|8,3:1|0:0,0:0:0:0:
59,179,129116,2,0,L|43:91,1,90,2|10,3:1|0:0,0:0:0:0:
120,29,129537,6,0,B|189:0|214:130|295:77,2,180,2|2|2,3:1|3:1|3:1,0:0:0:0:
139,126,130591,1,8,0:0:0:0:
61,186,130801,2,0,L|-9:173,2,45,2|0|8,3:1|0:0|0:0,0:0:0:0:
112,296,131222,5,2,3:1:0:0:
203,258,131432,1,10,0:0:0:0:
293,297,131642,1,2,3:1:0:0:
397,274,131852,1,10,0:0:0:0:
293,297,132063,2,0,L|310:209,1,90,2|10,3:1|0:0,0:0:0:0:
382,141,132484,2,0,L|365:53,1,90,2|10,3:1|0:0,0:0:0:0:
269,22,132905,5,2,3:1:0:0:
171,22,133114,1,10,0:0:0:0:
90,78,133323,1,2,3:1:0:0:
74,178,133532,1,10,0:0:0:0:
172,164,133741,1,2,3:1:0:0:
172,262,133950,1,8,0:0:0:0:
228,343,134159,1,0,3:1:0:0:
328,359,134368,1,8,0:0:0:0:
408,272,134577,6,0,L|496:255,1,90,2|10,3:1|0:0,0:0:0:0:
328,200,134999,2,0,L|240:183,1,90,2|8,3:1|0:0,0:0:0:0:
416,128,135421,2,0,L|504:111,1,90,2|10,3:1|0:0,0:0:0:0:
336,56,135843,2,0,L|248:39,1,90,0|10,3:1|0:0,0:0:0:0:
192,154,136265,5,2,3:1:0:0:
192,252,136475,1,10,0:0:0:0:
136,333,136686,1,2,3:1:0:0:
36,349,136896,1,10,0:0:0:0:
128,312,137107,1,2,3:1:0:0:
131,211,137317,1,8,0:0:0:0:
53,152,137528,2,0,P|36:150|20:157,8,22.5,2|2|2|0|8|0|0|0|0,3:1|0:0|0:0|0:0|0:0|0:0|0:0|0:0|3:0,0:0:0:0:
0,40,138157,6,0,P|53:14|121:12,1,90,10|0,0:0|3:0,0:0:0:0:
116,47,138471,2,0,P|174:50|238:25,1,90,2|0,0:0|0:0,0:0:0:0:
248,19,138784,2,0,P|306:27|363:63,1,90,2|8,3:1|0:0,0:0:0:0:
433,35,139202,1,0,3:0:0:0:
433,35,139306,1,0,0:0:0:0:
433,35,139411,1,8,0:0:0:0:
512,344,139830,6,0,P|459:370|391:372,1,90,10|0,0:0|3:0,0:0:0:0:
396,337,140145,2,0,P|338:334|274:359,1,90,2|0,0:0|0:0,0:0:0:0:
264,365,140461,2,0,P|206:357|149:321,1,90,2|8,3:1|0:0,0:0:0:0:
66,361,140882,1,0,3:0:0:0:
66,361,140987,1,0,0:0:0:0:
66,361,141092,1,10,0:0:0:0:
33,256,141303,5,2,3:1:0:0:
128,230,141512,1,10,0:0:0:0:
223,205,141722,1,2,3:1:0:0:
319,181,141932,1,8,0:0:0:0:
412,148,142142,5,2,3:1:0:0:
427,50,142352,1,8,0:0:0:0:
334,83,142562,1,0,3:0:0:0:
412,148,142772,1,8,0:0:0:0:
334,83,142982,5,2,3:1:0:0:
239,57,143193,1,10,0:0:0:0:
144,32,143405,1,2,3:1:0:0:
48,8,143617,1,8,0:0:0:0:
69,104,143828,5,10,3:1:0:0:
144,32,144040,1,8,0:0:0:0:
48,8,144252,1,10,3:1:0:0:
48,8,144358,1,8,0:0:0:0:
48,8,144464,1,8,0:0:0:0:
69,104,144675,6,0,L|82:219,1,90,2|10,3:1|0:0,0:0:0:0:
136,285,145096,2,0,L|251:298,1,90,2|8,3:1|0:0,0:0:0:0:
322,242,145518,1,2,3:1:0:0:
322,242,145729,2,0,L|335:127,1,90,10|0,0:0|3:1,0:0:0:0:
418,85,146151,1,8,0:0:0:0:
418,85,146257,1,0,0:0:0:0:
418,85,146362,5,2,3:1:0:0:
336,15,146572,1,10,0:0:0:0:
251,82,146783,2,0,L|136:95,1,90,2|8,3:1|0:0,0:0:0:0:
71,151,147204,2,0,L|5:134,2,45,2|0|8,3:1|0:0|0:0,0:0:0:0:
120,259,147626,1,0,3:1:0:0:
120,259,147732,1,0,0:0:0:0:
120,259,147836,1,8,0:0:0:0:
204,325,148047,5,2,3:1:0:0:
311,320,148259,1,10,0:0:0:0:
391,247,148471,1,2,3:1:0:0:
434,148,148683,1,10,0:0:0:0:
391,247,148895,2,0,P|353:227|242:142,1,180,2|10,3:1|3:1,0:0:0:0:
244,144,149426,1,10,0:0:0:0:
244,144,149532,1,10,0:0:0:0:
152,80,149744,5,2,3:1:0:0:
81,151,149954,1,10,0:0:0:0:
9,79,150165,1,2,3:1:0:0:
81,8,150375,1,10,0:0:0:0:
152,80,150586,2,0,L|218:63,2,45,2|0|10,3:1|0:0|0:0,0:0:0:0:
9,79,151008,1,10,3:1:0:0:
9,79,151112,1,10,0:0:0:0:
9,79,151218,1,10,0:0:0:0:
82,217,151428,5,2,3:1:0:0:
171,276,151638,1,10,0:0:0:0:
279,264,151848,1,2,3:1:0:0:
372,209,152058,1,10,0:0:0:0:
420,310,152268,5,10,3:1:0:0:
479,221,152479,1,10,0:0:0:0:
467,113,152689,1,10,3:1:0:0:
412,20,152899,1,10,0:0:0:0:
412,20,153004,1,10,0:0:0:0:
412,20,153109,1,10,3:1:0:0:
81,217,154011,6,0,B|159:205|159:205|157:197|157:197|211:191|211:191|213:197|213:197|278:187|278:187|277:181|277:181|330:174|330:174|331:180|331:180|425:167,1,360,0|2,0:0|3:1,0:0:0:0:
