osu file format v14

[General]
AudioFilename: audio.mp3
AudioLeadIn: 0
PreviewTime: 67276
Countdown: 0
SampleSet: Normal
StackLeniency: 0.7
Mode: 1
LetterboxInBreaks: 0
WidescreenStoryboard: 0

[Editor]
Bookmarks: 16367,16481,16594,16708,16935,17049,17163,17276,55458,57276
DistanceSpacing: 1.7
BeatDivisor: 4
GridSize: 32
TimelineZoom: 1.8

[Metadata]
Title:Sugar Song and Bitter Step
TitleUnicode:シュガーソングとビターステップ
Artist:Hello, Happy World!
ArtistUnicode:ハロー、ハッピーワールド!
Creator:toara_fict
Version:Muzukashii
Source:バンドリ!ガールズバンドパーティ!
Tags:BanG Dream! Cover yuzu__rinrin Akemi_Homura Charlotte UNISON SQUARE GARDEN Girls Band Party! Hello, Happy World! Tsurumaki Kokoro 弦巻 こころ Okusawa Misaki 奥沢美咲 Michelle 奥沢 美咲 Seta Kaoru 瀬田 薫 Matsubara Kanon 松原 花音 Kitazawa Hagumi 北沢 はぐみ Miku Itou 美来 伊藤 Kurosawa Tomoyo 黒沢 ともよ Tadokoro Azusa 田所 あずさ Toyota Moe 豊田 萌絵 Yoshida Yuri 有里 吉田
BeatmapID:1280930
BeatmapSetID:606276

[Difficulty]
HPDrainRate:6.5
CircleSize:6
OverallDifficulty:5
ApproachRate:9
SliderMultiplier:1.4
SliderTickRate:1

[Events]
//Background and Video events
0,0,"adafsdgf.png",0,70
//Break Periods
//Storyboard Layer 0 (Background)
//Storyboard Layer 1 (Fail)
//Storyboard Layer 2 (Pass)
//Storyboard Layer 3 (Foreground)
//Storyboard Sound Samples

[TimingPoints]
4,454.545454545455,4,1,0,80,1,0
69094,-100,4,1,0,80,0,1
90913,-100,4,1,0,80,0,0

[HitObjects]
288,160,1822,5,0,0:0:0:0:
288,160,2276,1,0,0:0:0:0:
224,160,2882,1,8,0:0:0:0:
224,160,3072,1,8,0:0:0:0:
288,160,3185,1,0,0:0:0:0:
224,224,3640,1,12,0:0:0:0:
286,161,5458,1,0,0:0:0:0:
286,161,5685,1,0,0:0:0:0:
224,160,5913,1,8,0:0:0:0:
288,160,6140,1,0,0:0:0:0:
288,160,6254,1,0,0:0:0:0:
286,161,6367,1,0,0:0:0:0:
288,160,6594,1,0,0:0:0:0:
224,160,6822,1,8,0:0:0:0:
224,224,7276,1,12,0:0:0:0:
224,160,9094,1,0,0:0:0:0:
224,160,9322,1,0,0:0:0:0:
224,160,9549,1,8,0:0:0:0:
288,160,9776,1,0,0:0:0:0:
288,160,9890,1,0,0:0:0:0:
288,160,10004,1,0,0:0:0:0:
288,160,10231,1,0,0:0:0:0:
288,160,10458,1,8,0:0:0:0:
224,224,10913,1,12,0:0:0:0:
288,160,11367,1,0,0:0:0:0:
288,160,11594,1,0,0:0:0:0:
224,160,11822,1,8,0:0:0:0:
288,160,12049,1,0,0:0:0:0:
224,224,12276,1,8,0:0:0:0:
288,160,12731,1,4,0:0:0:0:
288,160,13185,1,0,0:0:0:0:
288,160,13413,1,0,0:0:0:0:
288,160,13640,1,8,0:0:0:0:
226,164,14094,1,8,0:0:0:0:
288,160,14549,1,4,0:0:0:0:
288,160,15004,1,4,0:0:0:0:
288,160,15458,1,4,0:0:0:0:
288,160,15913,1,12,0:0:0:0:
224,160,16367,1,8,0:0:0:0:
224,160,16594,1,8,0:0:0:0:
224,160,16708,1,8,0:0:0:0:
288,160,16935,1,8,0:0:0:0:
224,160,17276,1,8,0:0:0:0:
224,224,17731,1,12,0:0:0:0:
288,224,18185,1,4,0:0:0:0:
224,160,18413,1,8,0:0:0:0:
288,160,18640,1,0,0:0:0:0:
224,160,19094,1,8,0:0:0:0:
224,160,19322,1,8,0:0:0:0:
288,160,19549,1,0,0:0:0:0:
224,160,19776,1,8,0:0:0:0:
288,160,20004,1,0,0:0:0:0:
224,160,20231,1,0,0:0:0:0:
224,160,20458,1,8,0:0:0:0:
288,160,20572,1,8,0:0:0:0:
224,160,20913,1,0,0:0:0:0:
224,160,21140,1,8,0:0:0:0:
288,160,21367,1,0,0:0:0:0:
288,160,21594,1,8,0:0:0:0:
224,160,21822,1,0,0:0:0:0:
224,160,22049,1,0,0:0:0:0:
224,224,22276,1,8,0:0:0:0:
288,160,22731,1,0,0:0:0:0:
224,160,22958,1,8,0:0:0:0:
224,160,23185,1,8,0:0:0:0:
288,160,23413,1,0,0:0:0:0:
288,224,23640,1,12,0:0:0:0:
288,224,24094,1,12,0:0:0:0:
288,224,24549,1,12,0:0:0:0:
288,224,25004,1,0,0:0:0:0:
288,224,25458,1,4,0:0:0:0:
224,160,25685,1,8,0:0:0:0:
288,160,25913,1,0,0:0:0:0:
288,160,26367,1,0,0:0:0:0:
288,160,26594,1,0,0:0:0:0:
192,160,26822,1,8,0:0:0:0:
224,160,27049,1,8,0:0:0:0:
288,160,27276,1,0,0:0:0:0:
192,160,27731,1,8,0:0:0:0:
192,160,28185,1,8,0:0:0:0:
288,160,28413,1,0,0:0:0:0:
192,160,28640,1,8,0:0:0:0:
288,160,29094,1,0,0:0:0:0:
288,160,29322,1,0,0:0:0:0:
192,160,29549,1,8,0:0:0:0:
288,160,30004,1,0,0:0:0:0:
192,160,30458,1,8,0:0:0:0:
288,160,30913,1,0,0:0:0:0:
288,160,31140,1,0,0:0:0:0:
192,160,31367,1,8,0:0:0:0:
288,160,31594,1,0,0:0:0:0:
192,160,31822,1,8,0:0:0:0:
192,160,32276,1,8,0:0:0:0:
288,160,32731,1,0,0:0:0:0:
288,160,32958,1,0,0:0:0:0:
192,160,33185,1,8,0:0:0:0:
192,160,33640,1,8,0:0:0:0:
192,160,34094,1,8,0:0:0:0:
192,160,34322,1,8,0:0:0:0:
288,160,34549,1,0,0:0:0:0:
192,160,35004,1,8,0:0:0:0:
288,160,35231,1,0,0:0:0:0:
192,160,35458,1,8,0:0:0:0:
192,160,35685,1,8,0:0:0:0:
192,160,36140,1,8,0:0:0:0:
288,160,36367,1,0,0:0:0:0:
288,160,36594,1,0,0:0:0:0:
192,160,36822,1,8,0:0:0:0:
288,160,37276,1,0,0:0:0:0:
288,160,37504,1,0,0:0:0:0:
192,160,37731,1,8,0:0:0:0:
192,160,38185,1,8,0:0:0:0:
288,160,38413,1,8,0:0:0:0:
288,160,38640,1,0,0:0:0:0:
288,160,38867,1,0,0:0:0:0:
288,160,39094,1,8,0:0:0:0:
288,160,39208,1,8,0:0:0:0:
288,160,39322,1,8,0:0:0:0:
288,160,39549,1,0,0:0:0:0:
288,224,40004,1,4,0:0:0:0:
224,160,40231,1,8,0:0:0:0:
288,160,40459,1,0,0:0:0:0:
288,160,40913,1,0,0:0:0:0:
224,160,41140,1,8,0:0:0:0:
224,160,41367,1,0,0:0:0:0:
288,160,41595,1,0,0:0:0:0:
224,160,41822,1,8,0:0:0:0:
192,160,42277,1,8,0:0:0:0:
288,160,42504,1,0,0:0:0:0:
192,160,42731,1,8,0:0:0:0:
192,160,43186,1,8,0:0:0:0:
192,160,43413,1,8,0:0:0:0:
288,160,43640,1,0,0:0:0:0:
288,160,43867,1,0,0:0:0:0:
192,160,44095,1,8,0:0:0:0:
192,160,44550,1,8,0:0:0:0:
192,160,44777,1,8,0:0:0:0:
288,160,45004,1,0,0:0:0:0:
288,160,45459,1,0,0:0:0:0:
288,160,45686,1,0,0:0:0:0:
192,160,45913,1,8,0:0:0:0:
288,160,46140,1,0,0:0:0:0:
192,160,46368,1,8,0:0:0:0:
192,160,46822,1,8,0:0:0:0:
288,160,47277,1,0,0:0:0:0:
288,160,47504,1,0,0:0:0:0:
192,160,47731,1,8,0:0:0:0:
192,160,48186,1,8,0:0:0:0:
288,160,48413,1,0,0:0:0:0:
192,160,48640,1,8,0:0:0:0:
192,160,48868,1,8,0:0:0:0:
288,160,49094,1,0,0:0:0:0:
192,160,49550,1,8,0:0:0:0:
192,160,49776,1,0,0:0:0:0:
192,160,50004,1,8,0:0:0:0:
192,160,50231,1,8,0:0:0:0:
192,160,50686,1,8,0:0:0:0:
288,160,50913,1,0,0:0:0:0:
192,160,51367,1,8,0:0:0:0:
192,160,51594,1,8,0:0:0:0:
192,160,51822,1,0,0:0:0:0:
192,160,52276,1,8,0:0:0:0:
192,160,52731,1,8,0:0:0:0:
192,160,52958,1,0,0:0:0:0:
192,160,53186,1,8,0:0:0:0:
192,160,53299,1,8,0:0:0:0:
192,160,53413,1,8,0:0:0:0:
288,160,53640,1,8,0:0:0:0:
192,160,53867,1,0,0:0:0:0:
192,160,54094,1,8,0:0:0:0:
288,224,54549,1,4,0:0:0:0:
192,224,54776,1,4,0:0:0:0:
288,160,55117,1,0,0:0:0:0:
192,224,55458,1,8,0:0:0:0:
288,224,56367,1,4,0:0:0:0:
192,224,56594,1,4,0:0:0:0:
288,160,56935,1,0,0:0:0:0:
192,224,57276,1,8,0:0:0:0:
288,128,57731,1,8,0:0:0:0:
320,224,58185,1,4,0:0:0:0:
192,160,58413,1,8,0:0:0:0:
192,160,58640,1,8,0:0:0:0:
192,160,59094,1,8,0:0:0:0:
192,160,59322,1,8,0:0:0:0:
288,160,59436,1,0,0:0:0:0:
192,160,59776,1,8,0:0:0:0:
320,224,60004,1,4,0:0:0:0:
192,160,60232,1,8,0:0:0:0:
192,160,60459,1,8,0:0:0:0:
192,160,60913,1,8,0:0:0:0:
192,160,61141,1,8,0:0:0:0:
288,160,61255,1,0,0:0:0:0:
192,160,61595,1,8,0:0:0:0:
192,160,61822,1,4,0:0:0:0:
288,160,62276,1,0,0:0:0:0:
288,160,62731,1,0,0:0:0:0:
192,160,62958,1,8,0:0:0:0:
288,160,63185,1,0,0:0:0:0:
288,160,63640,1,0,0:0:0:0:
192,160,63867,1,8,0:0:0:0:
288,160,64094,1,0,0:0:0:0:
192,160,64322,1,8,0:0:0:0:
288,160,64549,1,0,0:0:0:0:
192,160,65004,1,8,0:0:0:0:
192,160,65231,1,8,0:0:0:0:
288,224,65458,1,4,0:0:0:0:
192,160,65913,1,8,0:0:0:0:
192,160,66140,1,8,0:0:0:0:
288,160,66367,1,0,0:0:0:0:
288,160,66481,1,0,0:0:0:0:
288,160,66594,1,0,0:0:0:0:
288,160,66822,1,8,0:0:0:0:
288,160,67049,1,8,0:0:0:0:
288,160,67276,1,0,0:0:0:0:
288,224,68185,1,4,0:0:0:0:
288,224,68640,1,12,0:0:0:0:
288,160,69094,1,4,0:0:0:0:
288,160,69549,1,8,0:0:0:0:
192,160,69776,1,8,0:0:0:0:
288,160,70004,1,0,0:0:0:0:
192,160,70118,1,0,0:0:0:0:
192,160,70231,1,0,0:0:0:0:
192,160,70458,1,8,0:0:0:0:
192,160,70685,1,8,0:0:0:0:
288,160,70913,1,0,0:0:0:0:
224,160,71367,1,0,0:0:0:0:
320,160,71594,1,8,0:0:0:0:
192,160,71822,1,8,0:0:0:0:
192,160,71935,1,8,0:0:0:0:
320,160,72049,1,8,0:0:0:0:
320,160,72276,1,0,0:0:0:0:
320,160,72504,1,0,0:0:0:0:
192,160,72731,1,8,0:0:0:0:
320,160,73185,1,0,0:0:0:0:
192,160,73413,1,8,0:0:0:0:
320,160,73640,1,0,0:0:0:0:
192,160,73867,1,8,0:0:0:0:
320,160,74094,1,0,0:0:0:0:
320,160,74208,1,0,0:0:0:0:
192,160,74322,1,0,0:0:0:0:
192,256,74549,1,12,0:0:0:0:
192,256,75004,1,12,0:0:0:0:
192,256,75458,1,8,0:0:0:0:
192,128,75572,1,8,0:0:0:0:
192,128,75685,1,8,0:0:0:0:
320,128,75913,1,0,0:0:0:0:
320,224,76367,1,4,0:0:0:0:
288,160,76822,1,8,0:0:0:0:
192,160,77049,1,8,0:0:0:0:
288,160,77277,1,0,0:0:0:0:
192,160,77390,1,0,0:0:0:0:
192,160,77504,1,0,0:0:0:0:
192,160,77731,1,8,0:0:0:0:
288,160,77958,1,8,0:0:0:0:
288,160,78186,1,0,0:0:0:0:
192,160,78640,1,0,0:0:0:0:
320,160,78867,1,8,0:0:0:0:
320,160,79095,1,8,0:0:0:0:
192,160,79208,1,8,0:0:0:0:
192,160,79322,1,8,0:0:0:0:
320,160,79549,1,0,0:0:0:0:
320,160,79777,1,0,0:0:0:0:
192,160,80004,1,8,0:0:0:0:
320,160,80231,1,0,0:0:0:0:
320,160,80458,1,0,0:0:0:0:
320,160,80572,1,0,0:0:0:0:
192,160,80799,1,8,0:0:0:0:
320,160,81140,1,0,0:0:0:0:
192,160,81367,1,8,0:0:0:0:
192,256,81822,1,8,0:0:0:0:
320,160,82049,1,0,0:0:0:0:
320,160,82276,1,0,0:0:0:0:
320,160,82390,1,0,0:0:0:0:
192,160,82617,1,8,0:0:0:0:
192,160,82958,1,8,0:0:0:0:
320,160,83185,1,0,0:0:0:0:
320,256,83640,1,4,0:0:0:0:
192,160,84094,1,12,0:0:0:0:
320,160,84549,1,0,0:0:0:0:
320,160,84890,1,8,0:0:0:0:
192,160,85117,1,8,0:0:0:0:
320,256,85344,1,4,0:0:0:0:
320,160,85913,1,0,0:0:0:0:
192,160,86140,1,8,0:0:0:0:
192,160,86594,1,8,0:0:0:0:
320,160,86822,1,0,0:0:0:0:
320,160,87049,1,0,0:0:0:0:
192,256,87276,1,12,0:0:0:0:
192,256,87731,1,12,0:0:0:0:
192,256,88185,1,8,0:0:0:0:
192,256,88526,1,8,0:0:0:0:
192,256,88754,1,8,0:0:0:0:
320,256,88981,1,4,0:0:0:0:
192,160,90458,1,12,0:0:0:0:
288,224,90913,1,4,0:0:0:0:
224,160,91141,1,8,0:0:0:0:
288,160,91368,1,0,0:0:0:0:
288,160,91594,1,8,0:0:0:0:
224,160,91708,1,8,0:0:0:0:
288,160,92050,1,0,0:0:0:0:
224,160,92277,1,8,0:0:0:0:
224,160,92504,1,8,0:0:0:0:
288,160,92732,1,0,0:0:0:0:
288,160,93186,1,0,0:0:0:0:
224,160,93413,1,8,0:0:0:0:
288,160,93526,1,8,0:0:0:0:
288,160,93640,1,8,0:0:0:0:
224,160,93868,1,8,0:0:0:0:
288,160,94095,1,0,0:0:0:0:
288,160,94322,1,8,0:0:0:0:
224,160,94549,1,8,0:0:0:0:
224,224,95004,1,0,0:0:0:0:
288,160,95231,1,8,0:0:0:0:
288,160,95344,1,8,0:0:0:0:
288,160,95686,1,8,0:0:0:0:
288,160,95913,1,0,0:0:0:0:
224,160,96140,1,8,0:0:0:0:
288,224,96368,1,4,0:0:0:0:
288,224,96822,1,4,0:0:0:0:
288,160,97276,1,4,0:0:0:0:
224,160,97504,1,8,0:0:0:0:
288,160,97731,1,0,0:0:0:0:
288,160,97844,1,0,0:0:0:0:
288,160,97958,1,0,0:0:0:0:
288,224,98185,1,4,0:0:0:0:
288,160,98640,1,0,0:0:0:0:
224,160,98867,1,8,0:0:0:0:
288,160,98981,1,8,0:0:0:0:
288,160,99322,1,0,0:0:0:0:
288,160,99549,1,0,0:0:0:0:
224,160,99776,1,8,0:0:0:0:
224,160,99890,1,8,0:0:0:0:
288,160,100004,1,8,0:0:0:0:
224,160,100231,1,0,0:0:0:0:
224,160,100458,1,8,0:0:0:0:
288,160,100686,1,8,0:0:0:0:
288,160,100913,1,0,0:0:0:0:
224,160,101140,1,0,0:0:0:0:
288,160,101367,1,8,0:0:0:0:
224,160,101821,1,8,0:0:0:0:
224,160,102049,1,8,0:0:0:0:
224,224,102276,1,0,0:0:0:0:
224,160,102504,1,8,0:0:0:0:
320,160,102617,1,8,0:0:0:0:
288,160,102731,1,8,0:0:0:0:
288,160,102958,1,0,0:0:0:0:
320,160,103185,1,8,0:0:0:0:
224,160,103413,1,8,0:0:0:0:
288,224,103640,1,4,0:0:0:0:
288,224,104094,1,4,0:0:0:0:
288,224,104549,1,12,0:0:0:0:
224,160,104890,1,8,0:0:0:0:
224,160,105117,1,8,0:0:0:0:
288,160,105344,1,0,0:0:0:0:
224,224,105913,1,12,0:0:0:0:
