osu file format v14

[General]
AudioFilename: audio.mp3
AudioLeadIn: 0
PreviewTime: 67276
Countdown: 0
SampleSet: Normal
StackLeniency: 0.7
Mode: 1
LetterboxInBreaks: 0
WidescreenStoryboard: 1

[Editor]
DistanceSpacing: 0.1
BeatDivisor: 2
GridSize: 32
TimelineZoom: 1.8

[Metadata]
Title:Sugar Song and Bitter Step
TitleUnicode:シュガーソングとビターステップ
Artist:Hello, Happy World!
ArtistUnicode:ハロー、ハッピーワールド!
Creator:toara_fict
Version:Akemi's Futsuu
Source:バンドリ!ガールズバンドパーティ!
Tags:BanG Dream! Cover yuzu__rinrin Akemi_Homura Charlotte UNISON SQUARE GARDEN Girls Band Party! Hello, Happy World! Tsurumaki Kokoro 弦巻 こころ Okusawa Misaki 奥沢美咲 Michelle 奥沢 美咲 Seta Kaoru 瀬田 薫 Matsubara Kanon 松原 花音 Kitazawa Hagumi 北沢 はぐみ Miku Itou 美来 伊藤 Kurosawa Tomoyo 黒沢 ともよ Tadokoro Azusa 田所 あずさ Toyota Moe 豊田 萌絵 Yoshida Yuri 有里 吉田
BeatmapID:1282554
BeatmapSetID:606276

[Difficulty]
HPDrainRate:7
CircleSize:2
OverallDifficulty:4
ApproachRate:5
SliderMultiplier:1.4
SliderTickRate:1

[Events]
//Background and Video events
0,0,"adafsdgf.png",0,70
//Break Periods
//Storyboard Layer 0 (Background)
//Storyboard Layer 1 (Fail)
//Storyboard Layer 2 (Pass)
//Storyboard Layer 3 (Foreground)
//Storyboard Sound Samples

[TimingPoints]
4,454.545454545455,4,1,0,80,1,0
69094,-100,4,1,0,80,0,1
90913,-100,4,1,0,80,0,0

[HitObjects]
256,192,1822,5,0,0:0:0:0:
256,192,2276,1,0,0:0:0:0:
256,192,3185,1,8,0:0:0:0:
256,192,3640,1,12,0:0:0:0:
256,192,5458,1,0,0:0:0:0:
256,192,5913,1,8,0:0:0:0:
256,192,6140,1,8,0:0:0:0:
256,192,6367,1,0,0:0:0:0:
256,192,6822,1,8,0:0:0:0:
256,192,7276,1,12,0:0:0:0:
256,192,9094,1,0,0:0:0:0:
256,192,9549,1,8,0:0:0:0:
256,192,9776,1,8,0:0:0:0:
256,192,10004,1,0,0:0:0:0:
256,192,10458,1,8,0:0:0:0:
256,192,10913,1,0,0:0:0:0:
256,192,11140,1,0,0:0:0:0:
256,192,11367,1,8,0:0:0:0:
256,192,11822,1,0,0:0:0:0:
256,192,12276,1,8,0:0:0:0:
256,192,12731,1,0,0:0:0:0:
256,192,12958,1,0,0:0:0:0:
256,192,13185,1,8,0:0:0:0:
256,192,13640,1,8,0:0:0:0:
256,192,14094,1,8,0:0:0:0:
256,192,14549,1,4,0:0:0:0:
256,192,15004,1,4,0:0:0:0:
256,192,15458,1,12,0:0:0:0:
256,192,15913,1,12,0:0:0:0:
256,192,16367,1,8,0:0:0:0:
256,192,17276,1,8,0:0:0:0:
256,192,17731,1,12,0:0:0:0:
256,192,18185,1,4,0:0:0:0:
256,192,18640,1,8,0:0:0:0:
256,192,19322,1,0,0:0:0:0:
256,192,19549,1,8,0:0:0:0:
256,192,20004,1,0,0:0:0:0:
256,192,20458,1,8,0:0:0:0:
256,192,20913,1,0,0:0:0:0:
256,192,21140,1,0,0:0:0:0:
256,192,21367,1,8,0:0:0:0:
256,192,21822,1,0,0:0:0:0:
256,192,22276,1,8,0:0:0:0:
256,192,22731,1,0,0:0:0:0:
256,192,23185,1,8,0:0:0:0:
256,192,23640,1,12,0:0:0:0:
256,192,24549,1,12,0:0:0:0:
256,192,25458,1,4,0:0:0:0:
256,192,25913,1,8,0:0:0:0:
256,192,26367,1,0,0:0:0:0:
256,192,26822,1,8,0:0:0:0:
256,192,27276,1,0,0:0:0:0:
256,192,28185,1,0,0:0:0:0:
256,192,28640,1,8,0:0:0:0:
256,192,29094,1,0,0:0:0:0:
256,192,29549,1,8,0:0:0:0:
256,192,29776,1,8,0:0:0:0:
256,192,30004,1,0,0:0:0:0:
256,192,30458,1,8,0:0:0:0:
256,192,30913,1,0,0:0:0:0:
256,192,31822,1,0,0:0:0:0:
256,192,32276,1,8,0:0:0:0:
256,192,32731,1,0,0:0:0:0:
256,192,33185,1,0,0:0:0:0:
256,192,33640,1,8,0:0:0:0:
256,192,34549,1,0,0:0:0:0:
256,192,35004,1,8,0:0:0:0:
256,192,35458,1,0,0:0:0:0:
256,192,35685,1,8,0:0:0:0:
256,192,36367,1,0,0:0:0:0:
256,192,36822,1,8,0:0:0:0:
256,192,37276,1,0,0:0:0:0:
256,192,37504,1,0,0:0:0:0:
256,192,37731,1,0,0:0:0:0:
256,192,38185,2,0,L|416:192,2,140
256,192,40004,1,4,0:0:0:0:
256,192,40458,1,8,0:0:0:0:
256,192,40913,1,0,0:0:0:0:
256,192,41367,1,8,0:0:0:0:
256,192,41822,1,0,0:0:0:0:
256,192,42731,1,0,0:0:0:0:
256,192,43185,1,8,0:0:0:0:
256,192,43640,1,0,0:0:0:0:
256,192,43867,1,0,0:0:0:0:
256,192,44094,1,0,0:0:0:0:
256,192,44549,1,0,0:0:0:0:
256,192,45004,1,8,0:0:0:0:
256,192,45458,1,0,0:0:0:0:
256,192,45685,1,0,0:0:0:0:
256,192,45913,1,8,0:0:0:0:
256,192,46367,1,0,0:0:0:0:
256,192,46822,1,8,0:0:0:0:
256,192,47049,1,0,0:0:0:0:
256,192,47277,1,8,0:0:0:0:
256,192,47731,1,0,0:0:0:0:
256,192,48186,1,8,0:0:0:0:
256,192,48640,1,0,0:0:0:0:
256,192,48867,1,8,0:0:0:0:
256,192,49095,1,0,0:0:0:0:
256,192,49550,1,8,0:0:0:0:
256,192,50004,1,0,0:0:0:0:
256,192,50231,1,8,0:0:0:0:
256,192,50913,1,0,0:0:0:0:
256,192,51367,1,8,0:0:0:0:
256,192,51822,1,0,0:0:0:0:
256,192,52049,1,8,0:0:0:0:
256,192,52277,1,0,0:0:0:0:
256,192,52731,1,0,0:0:0:0:
256,192,53185,1,0,0:0:0:0:
256,192,53640,1,8,0:0:0:0:
256,192,54549,1,4,0:0:0:0:
256,192,55004,1,0,0:0:0:0:
256,192,55458,1,8,0:0:0:0:
256,192,56367,1,4,0:0:0:0:
256,192,56822,1,0,0:0:0:0:
256,192,57276,1,8,0:0:0:0:
256,192,58185,1,4,0:0:0:0:
256,192,58640,1,8,0:0:0:0:
256,192,59094,1,0,0:0:0:0:
256,192,60004,1,4,0:0:0:0:
256,192,60458,1,8,0:0:0:0:
256,192,60913,1,0,0:0:0:0:
256,192,61822,1,0,0:0:0:0:
256,192,62276,1,0,0:0:0:0:
256,192,62731,1,8,0:0:0:0:
256,192,62958,1,0,0:0:0:0:
256,192,63185,1,8,0:0:0:0:
256,192,63640,1,0,0:0:0:0:
256,192,64094,1,8,0:0:0:0:
256,192,64549,1,0,0:0:0:0:
256,192,64776,1,0,0:0:0:0:
256,192,65004,1,8,0:0:0:0:
256,192,65458,1,4,0:0:0:0:
256,192,65913,1,8,0:0:0:0:
256,192,66367,2,0,L|416:192,2,140
256,192,68185,1,4,0:0:0:0:
256,192,68640,1,12,0:0:0:0:
256,192,69094,1,4,0:0:0:0:
256,192,69549,1,8,0:0:0:0:
256,192,69776,1,8,0:0:0:0:
256,192,70004,1,0,0:0:0:0:
256,192,70458,1,8,0:0:0:0:
256,192,70913,1,0,0:0:0:0:
256,192,71367,1,8,0:0:0:0:
256,192,71594,1,0,0:0:0:0:
256,192,71822,1,8,0:0:0:0:
256,192,72276,1,0,0:0:0:0:
256,192,72731,1,8,0:0:0:0:
256,192,73185,1,0,0:0:0:0:
256,192,73413,1,8,0:0:0:0:
256,192,73640,1,0,0:0:0:0:
256,192,74094,1,8,0:0:0:0:
256,192,74549,1,4,0:0:0:0:
256,192,75004,1,4,0:0:0:0:
256,192,75458,1,12,0:0:0:0:
256,192,76367,1,4,0:0:0:0:
256,192,76822,1,8,0:0:0:0:
256,192,77049,1,8,0:0:0:0:
256,192,77277,1,0,0:0:0:0:
256,192,77731,1,8,0:0:0:0:
256,192,78185,1,0,0:0:0:0:
256,192,78413,1,8,0:0:0:0:
256,192,78640,1,8,0:0:0:0:
256,192,79095,1,8,0:0:0:0:
256,192,79549,1,0,0:0:0:0:
256,192,80004,1,8,0:0:0:0:
256,192,80458,1,0,0:0:0:0:
256,192,80685,1,8,0:0:0:0:
256,192,80913,1,0,0:0:0:0:
256,192,81367,1,0,0:0:0:0:
256,192,81822,1,8,0:0:0:0:
256,192,82049,1,0,0:0:0:0:
256,192,82276,1,8,0:0:0:0:
256,192,82731,1,0,0:0:0:0:
256,192,83640,1,4,0:0:0:0:
256,192,84094,1,4,0:0:0:0:
256,192,84549,1,12,0:0:0:0:
256,192,85344,1,4,0:0:0:0:
256,192,85913,1,8,0:0:0:0:
256,192,86822,1,8,0:0:0:0:
256,192,87276,1,4,0:0:0:0:
256,192,87731,1,4,0:0:0:0:
256,192,88185,1,12,0:0:0:0:
256,192,88981,1,4,0:0:0:0:
256,192,90458,1,12,0:0:0:0:
256,192,90913,1,4,0:0:0:0:
256,192,91367,1,8,0:0:0:0:
256,192,91594,1,0,0:0:0:0:
256,192,92049,1,0,0:0:0:0:
256,192,92276,1,8,0:0:0:0:
256,192,92731,1,0,0:0:0:0:
256,192,93185,1,8,0:0:0:0:
256,192,93413,1,8,0:0:0:0:
256,192,93640,1,0,0:0:0:0:
256,192,94094,1,8,0:0:0:0:
256,192,94549,1,0,0:0:0:0:
256,192,95004,1,8,0:0:0:0:
256,192,95231,1,0,0:0:0:0:
256,192,95685,1,0,0:0:0:0:
256,192,95913,1,8,0:0:0:0:
256,192,96367,1,4,0:0:0:0:
256,192,96822,1,4,0:0:0:0:
256,192,97276,1,4,0:0:0:0:
256,192,98185,1,4,0:0:0:0:
256,192,98640,1,8,0:0:0:0:
256,192,99094,1,0,0:0:0:0:
256,192,99322,1,0,0:0:0:0:
256,192,99549,1,8,0:0:0:0:
256,192,100004,1,0,0:0:0:0:
256,192,100458,1,8,0:0:0:0:
256,192,100685,1,8,0:0:0:0:
256,192,101140,1,0,0:0:0:0:
256,192,101367,1,8,0:0:0:0:
256,192,101822,1,8,0:0:0:0:
256,192,102276,1,0,0:0:0:0:
256,192,102731,1,8,0:0:0:0:
256,192,102958,1,0,0:0:0:0:
256,192,103185,1,8,0:0:0:0:
256,192,103640,1,4,0:0:0:0:
256,192,104094,1,4,0:0:0:0:
256,192,104549,1,12,0:0:0:0:
256,192,105344,1,4,0:0:0:0:
256,192,105913,1,12,0:0:0:0:
