osu file format v14

[General]
AudioFilename: audio.mp3
AudioLeadIn: 0
PreviewTime: 55921
Countdown: 0
SampleSet: Soft
StackLeniency: 0.3
Mode: 0
LetterboxInBreaks: 0
WidescreenStoryboard: 1

[Editor]
Bookmarks: 14245,21867,28353,37597,47975,51867,56894,72624,77813,83002,90925
DistanceSpacing: 1.1
BeatDivisor: 4
GridSize: 32
TimelineZoom: 2.4

[Metadata]
Title:fantastic dreamer
TitleUnicode:fantastic dreamer
Artist:Hello, Happy World!
ArtistUnicode:ハロー、ハッピーワールド!
Creator:-Mikan
Version:Shizuku's Special
Source:バンドリ!ガールズバンドパーティ!
Tags:iljaaz Hinsvar PantyDev Nelliel Djulus Akitoshi Laura Corinn -Aqua Shizuku- Konosuba Machico この素晴らしい世界に祝福を! kono subarashii sekai ni syukufuku wo! shukufuku o! god's blessing on this wonderful world! anime cover video game japanese opening op tv size BanG Dream! Girls Band Party! Garupa Bandori! ガルパ! harohapi ハロハピ tsurumaki kokoro 弦巻こころ itou miku 伊藤美来 seta kaoru 瀬田薫 tadokoro azusa 田所あずさ kitagawa hagumi 北沢はぐみ yoshida yuri 吉田有里 matsubara kanon 松原花音 toyota moe 豊田萌絵 michelle ミッシェル okusawa misaki 奥沢美咲 kurosawa tomoyo 黒沢ともよ
BeatmapID:1998198
BeatmapSetID:955896

[Difficulty]
HPDrainRate:6
CircleSize:4
OverallDifficulty:8.6
ApproachRate:9.2
SliderMultiplier:1.8
SliderTickRate:1

[Events]
//Background and Video events
Video,2024,"Mikan is cute blobheart.avi"
0,0,"kanon-chan.jpg",0,0
//Break Periods
//Storyboard Layer 0 (Background)
//Storyboard Layer 1 (Fail)
//Storyboard Layer 2 (Pass)
//Storyboard Layer 3 (Foreground)
//Storyboard Layer 4 (Overlay)
//Storyboard Sound Samples

[TimingPoints]
2570,324.324324324324,4,2,1,70,1,0
2570,-200,4,2,1,70,0,0
3705,-166.666666666667,4,2,1,80,0,0
7597,-100,4,2,1,80,0,0
9056,-100,4,2,1,50,0,0
9380,-100,4,2,1,60,0,0
9705,-100,4,2,1,70,0,0
10029,-100,4,2,1,80,0,0
12948,-125,4,2,1,80,0,0
14245,-100,4,2,1,70,0,0
21867,-83.3333333333333,4,2,1,80,0,0
24461,-71.4285714285714,4,2,1,90,0,0
27056,-100,4,2,1,100,0,0
28029,-100,4,2,1,70,0,0
29651,-100,4,2,1,50,0,0
35002,-83.3333333333333,4,2,1,65,0,0
36137,-76.9230769230769,4,2,1,65,0,0
36786,-71.4285714285714,4,2,1,65,0,0
37597,-90.9090909090909,4,2,1,60,0,0
47975,324.324324324324,6,2,1,65,1,0
47975,-125,4,2,1,65,0,0
48948,-83.3333333333333,4,2,1,65,0,0
49272,-125,4,2,1,65,0,0
50569,-83.3333333333333,4,2,1,65,0,0
51867,324.324324324324,4,2,1,70,1,0
51867,-166.666666666667,4,2,1,70,0,0
53164,-100,4,2,1,75,0,0
55921,-100,4,2,1,65,0,0
56894,-83.3333333333333,4,2,1,85,0,1
77813,-83.3333333333333,4,2,1,75,0,1
78137,-83.3333333333333,4,2,1,80,0,1
78461,-83.3333333333333,4,2,1,85,0,1
78786,-83.3333333333333,4,2,1,90,0,1
79110,-83.3333333333333,4,2,1,95,0,1
79434,-83.3333333333333,4,2,1,100,0,1
80407,-200,4,2,1,80,0,1
81056,-83.3333333333333,4,2,1,80,0,1
81380,-125,4,2,1,80,0,1
83002,-100,4,2,1,85,0,0
89814,350.877192982456,4,2,1,80,1,0
90515,410.958904109589,4,2,1,80,1,0
90925,387.096774193548,4,2,1,80,1,0
90925,-166.666666666667,4,2,1,80,0,0
97118,-133.333333333333,4,2,1,5,0,0

[Colours]
Combo1 : 109,177,218
Combo2 : 82,150,218
Combo3 : 125,180,240
Combo4 : 96,189,206

[HitObjects]
475,63,2570,6,0,B|430:1|348:40|348:40|371:82,1,180,2|10,0:0|0:1,0:0:0:0:
433,237,3542,1,8,0:0:0:0:
366,72,3705,6,0,B|326:55|288:76|288:76|251:100|203:81,1,161.999995056153,4|2,0:0|0:0,0:0:0:0:
211,84,4840,5,8,0:0:0:0:
331,145,5002,2,0,B|355:184|331:224|331:224|319:193,1,107.999996704102,4|0,0:0|0:0,0:0:0:0:
312,68,5488,2,0,P|338:64|364:70,2,53.9999983520508,2|0|0,0:0|0:0|0:0,0:0:0:0:
312,69,6137,1,2,0:0:0:0:
409,147,6299,2,0,P|448:80|421:6,1,161.999995056153,4|2,0:0|0:0,0:0:0:0:
359,128,6948,2,0,P|382:142|408:146,1,53.9999983520508,0|0,0:0|0:0,0:0:0:0:
312,69,7272,1,8,0:0:0:0:
342,210,7434,1,8,0:1:0:0:
309,55,7597,6,0,B|277:47|246:68|246:68|218:85|174:71,1,135,4|0,0:0|0:0,0:0:0:0:
160,61,7921,1,8,0:1:0:0:
280,148,8083,1,8,0:0:0:0:
131,158,8245,6,0,B|120:29|120:29|159:60,1,180,4|8,0:0|0:1,0:0:0:0:
204,201,8651,1,8,0:1:0:0:
204,201,8732,2,0,P|167:236|81:226,1,135,8|0,0:0|0:0,0:0:0:0:
72,215,9056,6,0,L|81:307,1,90,4|0,0:0|0:0,0:0:0:0:
131,158,9380,1,10,0:0:0:0:
157,346,9542,1,2,0:0:0:0:
267,116,9705,5,8,0:0:0:0:
272,298,9867,1,2,0:0:0:0:
434,99,10029,5,10,0:0:0:0:
375,336,10191,1,2,0:0:0:0:
348,72,10353,6,0,B|369:25|415:14|415:14|463:20,1,135,4|8,0:0|0:1,0:0:0:0:
480,25,10678,1,8,0:0:0:0:
267,116,10840,1,6,0:0:0:0:
267,116,11164,5,10,0:1:0:0:
434,99,11326,1,8,0:0:0:0:
272,27,11488,6,0,B|220:30|193:72|193:72|176:110|124:115,1,180,6|0,0:0|0:0,0:0:0:0:
40,81,11975,2,0,P|34:130|52:170,1,90,10|0,0:0|0:0,0:0:0:0:
267,116,12299,1,10,0:1:0:0:
109,34,12461,1,0,0:0:0:0:
124,200,12624,2,0,L|117:246,1,45,10|0,0:0|0:0,0:0:0:0:
197,214,12786,2,0,L|190:260,1,45,0|0,0:0|0:0,0:0:0:0:
140,318,12948,6,0,B|206:355|253:309|253:309|264:270|264:270|320:219|395:262,1,288,4|8,0:0|0:1,0:0:0:0:
465,326,13759,1,8,0:0:0:0:
465,326,13840,1,8,0:0:0:0:
465,326,13921,1,8,0:0:0:0:
506,142,14083,2,8,L|466:147,1,36,0|0,0:0|0:0,0:0:0:0:
369,138,14245,6,0,B|403:120|403:120|444:156|418:207,1,135,14|0,0:1|0:0,0:0:0:0:
403,224,14569,2,0,P|351:232|311:210,1,90,10|0,0:0|0:0,0:0:0:0:
304,45,14894,6,0,B|349:21|349:21|403:68|369:136,1,180,2|10,0:0|0:0,0:0:0:0:
234,187,15380,1,2,0:0:0:0:
234,187,15461,1,0,0:0:0:0:
234,187,15542,6,0,P|199:154|197:90,1,90,10|0,0:1|0:0,0:0:0:0:
109,30,15867,2,0,P|98:73|65:102,1,90,10|0,0:0|0:0,0:0:0:0:
234,187,16191,6,0,B|278:168|306:188|306:188|330:212|364:202,1,135,10|0,0:1|0:0,0:0:0:0:
370,194,16515,1,10,0:0:0:0:
202,280,16678,1,2,0:0:0:0:
197,271,16759,1,2,0:0:0:0:
190,258,16840,6,0,B|81:264|142:315|20:324,2,180,10|10|8,0:1|0:0|0:1,0:0:0:0:
373,318,17651,1,2,0:0:0:0:
268,350,17813,1,8,0:0:0:0:
234,187,17975,1,2,0:1:0:0:
234,187,18056,1,2,0:1:0:0:
234,187,18137,6,0,B|263:151|249:103|249:103|255:119|280:138,1,135,10|0,0:1|0:0,0:0:0:0:
307,49,18461,2,0,B|324:37|354:46|354:46|332:53|324:72,1,90,10|0,0:0|0:0,0:0:0:0:
432,300,18786,6,0,B|425:348|401:360|401:360|373:359|340:336,1,135,10|0,0:1|0:0,0:0:0:0:
264,378,19110,2,0,P|248:338|207:325,1,90,10|0,0:0|0:0,0:0:0:0:
125,342,19353,1,0,0:0:0:0:
118,351,19434,6,0,P|75:336|60:298,1,90,6|0,0:0|0:0,0:0:0:0:
181,240,19759,6,0,B|249:250|249:250|283:286|283:286|344:295,1,180,12|2,0:0|0:0,0:0:0:0:
205,325,20245,1,2,0:0:0:0:
320,210,20407,1,10,0:0:0:0:
192,112,20569,2,0,P|231:104|234:144,1,90,2|8,0:0|0:1,0:0:0:0:
235,144,21056,6,0,P|240:223|319:210,1,180,12|0,0:0|0:0,0:0:0:0:
375,97,21542,1,8,0:0:0:0:
378,112,21624,1,8,0:0:0:0:
380,127,21705,1,8,0:0:0:0:
435,323,21867,6,0,B|496:308|496:308|343:294,1,215.999993408203,4|2,0:0|0:0,0:0:0:0:
105,335,22353,2,0,P|161:347|212:315,1,107.999996704102,14|0,0:0|0:0,0:0:0:0:
288,98,22678,2,0,P|249:140|251:200,1,107.999996704102,14|0,0:1|0:0,0:0:0:0:
402,374,23002,2,0,P|384:319|331:291,1,107.999996704102,14|0,0:0|0:0,0:0:0:0:
339,297,23245,1,0,0:0:0:0:
335,301,23326,6,0,L|443:285,1,107.999996704102,14|0,0:1|0:0,0:0:0:0:
324,169,23651,2,0,L|432:153,1,107.999996704102,12|8,0:0|0:1,0:0:0:0:
434,157,23894,1,8,0:1:0:0:
438,161,23975,1,8,0:0:0:0:
171,97,24137,2,0,L|147:259,1,161.999995056153,12|0,0:0|0:0,0:0:0:0:
152,262,24461,6,0,P|66:219|56:131,1,188.999994232178,4|0,0:0|0:0,0:0:0:0:
63,123,24786,1,2,0:0:0:0:
272,241,24948,2,0,L|396:225,1,125.999996154785,14|0,0:0|0:0,0:0:0:0:
299,59,25272,5,14,0:0:0:0:
272,101,25353,1,0,0:0:0:0:
285,150,25434,1,10,0:1:0:0:
258,192,25515,1,0,0:0:0:0:
272,241,25597,2,0,L|261:314,1,62.9999980773926,12|0,0:0|0:0,0:0:0:0:
396,224,25759,2,0,L|385:151,1,62.9999980773926,0|0,0:0|0:0,0:0:0:0:
299,59,25921,5,12,0:0:0:0:
250,47,26002,1,0,0:0:0:0:
208,76,26083,1,2,0:0:0:0:
159,65,26164,1,2,0:0:0:0:
118,95,26246,2,0,L|56:86,1,62.9999980773926,12|0,0:0|0:0,0:0:0:0:
30,251,26407,2,0,L|92:242,1,62.9999980773926,2|0,0:0|0:0,0:0:0:0:
443,267,26569,5,8,0:0:0:0:
394,255,26650,1,10,0:0:0:0:
352,284,26731,1,8,0:1:0:0:
303,273,26812,1,10,0:1:0:0:
262,303,26894,2,0,L|248:241,1,62.9999980773926,8|10,0:1|0:1,0:0:0:0:
208,76,27056,5,6,0:0:0:0:
208,76,28029,2,0,L|203:123,2,45,8|8|8,0:0|0:0|0:1,0:0:0:0:
273,22,28353,6,0,B|369:11|369:11|339:47,1,135,4|0,0:0|0:0,0:0:0:0:
208,76,28678,2,0,B|110:66|146:128|44:134,1,180,4|8,0:0|0:1,0:0:0:0:
35,129,29083,1,8,0:1:0:0:
24,124,29164,2,0,P|37:169|38:212,1,90,8|8,0:1|0:1,0:0:0:0:
15,288,29488,1,8,0:0:0:0:
186,233,29651,6,0,B|254:242|254:242|289:276|289:276|351:283,1,180,6|10,0:0|0:1,0:0:0:0:
449,205,30137,2,0,B|402:209|402:209|367:182,1,90,10|0,0:0|0:0,0:0:0:0:
364,186,30380,1,0,0:0:0:0:
360,190,30461,2,0,L|370:102,1,90,8|10,0:1|0:1,0:0:0:0:
379,23,30786,1,10,0:0:0:0:
445,297,30948,6,0,P|354:304|291:362,1,180,2|10,0:0|0:1,0:0:0:0:
37,261,31434,2,0,L|128:250,1,90,10|8,0:0|0:1,0:0:0:0:
195,287,31678,1,8,0:1:0:0:
192,301,31759,1,2,0:0:0:0:
155,144,31921,2,0,L|246:155,1,90,8|8,0:1|0:0,0:0:0:0:
445,297,32245,6,0,P|354:290|291:232,1,180,4|8,0:0|0:1,0:0:0:0:
231,47,32732,2,0,L|242:138,1,90,10|8,0:0|0:1,0:0:0:0:
243,146,32976,1,8,0:1:0:0:
244,154,33056,2,0,L|155:144,1,90,10|2,0:1|0:0,0:0:0:0:
17,227,33380,1,10,0:0:0:0:
82,99,33542,6,0,B|72:151|72:151|99:220|99:220|89:272,1,180,2|10,0:0|0:1,0:0:0:0:
154,143,34029,2,0,L|243:133,1,90,10|0,0:0|0:0,0:0:0:0:
247,136,34272,1,10,0:1:0:0:
251,140,34353,1,10,0:1:0:0:
156,60,34515,1,2,0:0:0:0:
98,264,34678,1,8,0:0:0:0:
98,264,35002,6,0,B|133:284|168:280|192:262|192:262|210:293|195:321,1,161.999995056153,4|0,0:0|0:0,0:0:0:0:
194,321,35326,1,8,0:0:0:0:
145,196,35488,2,0,L|153:143,2,53.9999983520508,4|0|0,0:0|0:0|0:0,0:0:0:0:
57,120,35813,1,8,0:1:0:0:
222,94,35975,1,8,0:0:0:0:
320,337,36137,6,0,B|297:381|243:389|210:364|210:364|194:321,1,175.499991966248,4|0,0:0|0:0,0:0:0:0:
189,304,36461,1,10,0:1:0:0:
404,326,36624,1,10,0:0:0:0:
426,111,36786,6,0,B|371:71|316:114|316:114|301:147|259:149,1,188.999994232178,6|0,0:0|0:0,0:0:0:0:
247,140,37110,1,8,0:0:0:0:
311,27,37272,1,8,0:0:0:0:
372,173,37434,1,8,0:0:0:0:
376,177,37515,1,8,0:0:0:0:
380,181,37597,6,0,B|424:209|421:264|421:264|405:280|405:311,1,148.50000453186,10|0,0:1|0:0,0:0:0:0:
380,384,37921,2,0,B|345:373|330:335|330:335|320:365,1,99.0000030212403,10|2,0:0|0:0,0:0:0:0:
129,324,38245,2,0,B|137:349|137:349|152:311|187:300,1,99.0000030212403,10|0,0:1|0:0,0:0:0:0:
214,376,38569,1,10,0:0:0:0:
130,239,38732,1,2,0:0:0:0:
130,239,38813,1,2,0:0:0:0:
130,239,38894,6,0,B|150:213|150:192|150:192|122:153|147:99,1,148.50000453186,10|0,0:1|0:0,0:0:0:0:
205,53,39218,2,0,B|253:62|253:62|224:107,1,99.0000030212403,10|2,0:0|0:0,0:0:0:0:
321,360,39542,2,0,B|266:275|266:275|362:257,1,198.000006042481,10|10,0:1|0:0,0:0:0:0:
443,314,40029,6,0,L|492:305,2,49.5000015106202,2|2|8,0:0|0:0|0:1,0:0:0:0:
405,384,40353,1,2,0:0:0:0:
362,257,40515,1,10,0:0:0:0:
405,130,40678,2,0,L|397:82,2,49.5000015106202,0|0|10,0:0|0:0|0:1,0:0:0:0:
477,58,41002,1,0,0:0:0:0:
333,37,41164,2,0,P|291:58|240:54,1,99.0000030212403,10|2,0:0|0:0,0:0:0:0:
131,43,41407,1,2,0:0:0:0:
138,39,41488,6,0,B|192:6|192:6|169:157,1,198.000006042481,10|10,0:1|0:0,0:0:0:0:
29,221,41975,2,0,B|54:203|59:183|59:183|71:197|103:202,1,99.0000030212403,2|8,0:0|0:1,0:0:0:0:
266,275,42299,1,8,0:0:0:0:
238,249,42380,1,8,0:0:0:0:
196,254,42461,1,8,0:0:0:0:
102,331,42624,2,0,L|83:274,1,49.5000015106202,8|8,0:0|0:0,0:0:0:0:
171,139,42786,1,8,0:1:0:0:
171,139,43110,6,0,B|273:123|239:197|358:180,1,198.000006042481,12|2,0:0|0:0,0:0:0:0:
357,180,43597,2,0,P|372:129|357:88,1,99.0000030212403,10|10,0:1|0:0,0:0:0:0:
197,221,43921,6,0,L|212:372,1,148.50000453186,6|0,0:0|0:0,0:0:0:0:
224,375,44245,1,8,0:1:0:0:
338,272,44407,5,10,0:0:0:0:
121,133,44569,2,0,L|101:334,1,198.000006042481,6|8,0:0|0:1,0:0:0:0:
35,197,45056,5,8,0:0:0:0:
194,173,45218,1,8,0:0:0:0:
204,175,45299,1,8,0:0:0:0:
216,176,45380,2,0,B|239:142|282:135|326:162|326:162|341:197|385:198,2,198.000006042481,10|10|2,0:1|0:0|0:0,0:0:0:0:
276,227,46191,1,8,0:1:0:0:
392,115,46353,1,8,0:0:0:0:
418,369,46515,6,0,P|347:377|293:328,1,148.50000453186,4|0,0:0|0:0,0:0:0:0:
298,316,46840,1,8,0:1:0:0:
385,198,47002,2,0,B|400:246|400:246|371:299,1,99.0000030212403,8|6,0:0|0:0,0:0:0:0:
229,383,47326,2,0,B|205:340|205:340|220:292,1,99.0000030212403,2|8,0:0|0:1,0:0:0:0:
202,86,47651,2,0,B|178:128|178:128|193:176,1,99.0000030212403,8|0,0:0|0:0,0:0:0:0:
219,292,47975,5,4,0:0:0:0:
376,288,48191,1,0,0:0:0:0:
381,293,48299,2,0,L|375:197,1,96,2|0,0:0|0:0,0:0:0:0:
350,118,48624,1,2,0:0:0:0:
350,118,48948,2,0,P|312:180|250:170,1,143.999995605469,4|0,0:0|0:0,0:0:0:0:
188,222,49272,6,0,P|171:177|183:132,1,96,2|0,0:0|0:0,0:0:0:0:
269,22,49597,1,2,0:0:0:0:
269,22,49921,6,0,L|366:39,1,96,4|0,0:0|0:0,0:0:0:0:
350,118,50245,2,0,L|253:135,1,96,2|0,0:0|0:0,0:0:0:0:
183,87,50569,2,0,P|232:136|228:205,1,143.999995605469,2|0,0:0|0:0,0:0:0:0:
197,277,50894,2,0,L|54:259,1,143.999995605469,2|0,0:0|0:0,0:0:0:0:
82,186,51218,2,0,P|130:235|114:302,1,143.999995605469,2|0,0:0|0:0,0:0:0:0:
60,373,51542,2,0,P|26:360|5:331,2,71.9999978027344,8|8|8,0:0|0:0|0:0,0:0:0:0:
55,260,51867,6,0,B|98:260|115:302|115:302|165:317|210:298|224:249,1,215.999993408203,4|4,0:0|0:0,0:0:0:0:
224,248,52732,1,8,0:1:0:0:
274,315,52840,2,0,L|269:350,2,35.9999989013672,8|8|8,0:0|0:0|0:0,0:0:0:0:
338,266,53164,6,0,B|370:232|424:244|424:244|451:286|499:275,1,180,4|0,0:0|0:0,0:0:0:0:
488,199,53651,2,0,L|476:108,1,90,8|0,0:1|0:0,0:0:0:0:
466,31,53975,1,8,0:1:0:0:
256,112,54137,1,8,0:1:0:0:
416,240,54299,1,8,0:0:0:0:
412,255,54380,1,8,0:0:0:0:
408,270,54461,5,12,0:0:0:0:
370,30,54624,1,2,0:0:0:0:
256,286,54786,5,8,0:0:0:0:
256,20,54948,1,2,0:0:0:0:
104,270,55110,5,10,0:0:0:0:
142,30,55273,1,2,0:0:0:0:
146,45,55353,1,2,0:0:0:0:
150,60,55434,1,10,0:0:0:0:
252,384,55597,1,4,0:0:0:0:
252,384,55921,5,10,0:0:0:0:
457,176,56083,1,10,0:1:0:0:
169,224,56245,1,10,0:0:0:0:
431,355,56407,1,10,0:0:0:0:
297,96,56569,1,10,0:1:0:0:
297,96,56651,1,10,0:1:0:0:
297,96,56732,2,0,L|303:142,1,45,10|0,0:0|0:0,0:0:0:0:
321,247,56894,6,0,B|239:237|202:309|202:309|170:294|130:308,1,215.999993408203,4|2,0:0|0:0,0:0:0:0:
169,224,57380,1,10,0:0:0:0:
316,350,57542,1,2,0:0:0:0:
321,345,57624,1,2,0:0:0:0:
326,340,57705,2,0,B|378:347|378:347|406:299,1,107.999996704102,8|0,0:1|0:0,0:0:0:0:
321,247,58029,1,10,0:0:0:0:
360,47,58191,5,2,0:0:0:0:
360,47,58272,1,2,0:0:0:0:
360,47,58353,2,0,B|409:90|409:90|392:187,1,161.999995056153,8|0,0:1|0:0,0:0:0:0:
391,194,58678,1,10,0:0:0:0:
216,75,58840,1,2,0:0:0:0:
216,75,58921,1,2,0:0:0:0:
216,75,59002,2,0,P|161:58|112:73,1,107.999996704102,10|0,0:1|0:0,0:0:0:0:
162,136,59326,1,10,0:0:0:0:
303,31,59488,6,0,L|321:247,1,215.999993408203,2|0,0:0|0:0,0:0:0:0:
326,328,59975,1,10,0:0:0:0:
159,222,60137,6,0,B|190:218|206:241|206:241|204:215|224:192,1,107.999996704102,2|0,0:0|0:0,0:0:0:0:
391,358,60461,2,0,B|360:354|344:377|344:377|346:351|326:328,1,107.999996704102,2|8,0:0|0:0,0:0:0:0:
159,222,60786,1,2,0:0:0:0:
155,226,60867,1,0,0:0:0:0:
150,231,60948,6,0,P|68:225|25:288,1,161.999995056153,10|0,0:1|0:0,0:0:0:0:
72,382,61272,2,0,B|113:354|113:354|103:297,1,107.999996704102,10|0,0:0|0:0,0:0:0:0:
224,191,61597,6,0,B|260:235|248:290|248:290|263:262|292:252,1,161.999995056153,10|0,0:1|0:0,0:0:0:0:
415,343,61921,2,0,P|369:360|322:318,1,107.999996704102,10|8,0:0|0:0,0:0:0:0:
329,323,62164,1,8,0:0:0:0:
333,319,62245,6,0,B|405:324|430:259|395:266|428:204|504:204,1,215.999993408203,6|8,0:0|0:0,0:0:0:0:
492,288,62732,1,10,0:0:0:0:
392,64,62894,6,0,B|365:83|357:108|357:108|358:130|368:158,1,107.999996704102,10|0,0:1|0:0,0:0:0:0:
329,323,63218,2,0,B|301:312|279:311|279:311|254:319|235:346,1,107.999996704102,8|0,0:0|0:0,0:0:0:0:
239,350,63461,1,0,0:0:0:0:
243,354,63542,6,0,B|292:322|286:257|233:228|233:228|219:257|186:266,1,215.999993408203,10|8,0:1|0:0,0:0:0:0:
24,229,64029,1,10,0:0:0:0:
24,229,64110,1,8,0:0:0:0:
24,229,64191,2,0,B|53:212|55:190|55:190|70:207|104:214,1,107.999996704102,10|0,0:1|0:0,0:0:0:0:
356,131,64515,2,0,B|322:138|307:155|307:155|305:133|276:116,1,107.999996704102,10|8,0:0|0:0,0:0:0:0:
271,119,64759,1,8,0:0:0:0:
267,123,64840,6,0,B|202:121|175:172|175:172|177:115|128:84,1,215.999993408203,14|10,0:1|0:0,0:0:0:0:
72,293,65326,2,0,P|75:320|66:346,2,53.9999983520508,10|8|2,0:1|0:0|0:0,0:0:0:0:
24,229,65651,1,10,0:1:0:0:
187,268,65813,1,8,0:0:0:0:
395,106,65975,6,0,B|375:68|323:65|294:87|294:87|290:108|266:123,1,161.999995056153,6|8,0:0|0:1,0:0:0:0:
246,117,66299,1,10,0:1:0:0:
441,182,66461,1,10,0:0:0:0:
187,268,66624,6,0,B|206:230|258:227|287:249|287:249|291:270|315:285,1,161.999995056153,6|8,0:0|0:1,0:0:0:0:
336,279,66948,1,10,0:0:0:0:
141,344,67110,1,10,0:0:0:0:
118,191,67272,6,0,B|102:137|102:137|127:82,1,107.999996704102,4|0,0:0|0:0,0:0:0:0:
393,97,67597,1,2,0:0:0:0:
393,97,67678,1,2,0:0:0:0:
393,97,67759,6,0,B|320:76|277:122|308:120|253:164|193:143,1,215.999993408203,12|8,0:0|0:1,0:0:0:0:
414,268,68245,1,2,0:0:0:0:
361,196,68407,1,8,0:0:0:0:
297,355,68569,1,2,0:0:0:0:
297,355,68651,1,0,0:0:0:0:
297,355,68732,6,0,B|287:324|268:312|268:312|239:315|221:338,1,107.999996704102,8|2,0:1|0:0,0:0:0:0:
35,200,69056,2,0,B|53:223|82:226|82:226|101:214|111:183,1,107.999996704102,8|2,0:0|0:0,0:0:0:0:
114,187,69299,1,2,0:0:0:0:
118,191,69380,2,0,B|154:145|212:139|212:139|250:163|270:225,1,215.999993408203,8|8,0:1|0:0,0:0:0:0:
512,161,69867,1,2,0:0:0:0:
512,161,69948,1,2,0:0:0:0:
512,161,70029,6,0,B|492:223|454:247|454:247|396:241|360:195,1,215.999993408203,8|10,0:1|0:0,0:0:0:0:
269,58,70515,2,0,B|300:100|300:100|284:160,1,107.999996704102,2|8,0:0|0:1,0:0:0:0:
118,191,70840,2,0,B|86:148|86:148|102:88,1,107.999996704102,2|8,0:0|0:0,0:0:0:0:
193,124,71164,1,2,0:0:0:0:
193,124,71245,1,2,0:0:0:0:
193,124,71326,6,0,B|226:178|204:224|204:224|215:280,1,161.999995056153,10|0,0:1|0:0,0:0:0:0:
175,346,71651,2,0,B|216:315|216:315|271:326,1,107.999996704102,10|2,0:0|0:0,0:0:0:0:
275,334,71894,1,2,0:0:0:0:
279,341,71975,6,0,B|325:344|350:309|350:309|341:353|375:383,1,161.999995056153,8|0,0:1|0:0,0:0:0:0:
511,361,72299,2,0,P|484:323|427:321,1,107.999996704102,10|8,0:0|0:0,0:0:0:0:
430,325,72542,1,8,0:0:0:0:
434,329,72624,6,0,B|440:302|463:291|463:291|481:260|470:217|425:200,1,161.999995056153,14|0,0:1|0:0,0:0:0:0:
440,125,72948,2,0,B|408:123|389:102|389:102|391:129|369:147,1,107.999996704102,10|8,0:0|0:0,0:0:0:0:
232,252,73272,2,0,B|200:253|181:274|181:274|183:247|161:229,1,107.999996704102,10|0,0:1|0:0,0:0:0:0:
240,330,73597,5,10,0:0:0:0:
170,142,73759,2,0,B|233:145|271:187|271:187|267:133|310:97,1,215.999993408203,2|10,0:0|0:1,0:0:0:0:
434,329,74245,2,0,B|385:347|385:347|343:307,1,107.999996704102,8|8,0:0|0:0,0:0:0:0:
347,305,74488,1,8,0:0:0:0:
351,301,74569,6,0,B|270:377|270:377|172:341,1,215.999993408203,2|8,0:0|0:0,0:0:0:0:
77,310,75056,1,8,0:0:0:0:
124,69,75218,6,0,B|80:84|46:58|46:58|6:85|13:126,1,161.999995056153,2|0,0:0|0:0,0:0:0:0:
22,133,75542,1,10,0:0:0:0:
211,90,75705,1,10,0:0:0:0:
253,279,75867,6,0,B|258:248|242:228|242:228|258:251|289:256,1,107.999996704102,10|0,0:1|0:0,0:0:0:0:
176,270,76191,1,10,0:0:0:0:
350,201,76353,2,0,B|403:199|450:239|458:293|458:293|454:261|472:236,1,215.999993408203,2|2,0:0|0:0,0:0:0:0:
464,42,76840,5,10,0:0:0:0:
350,201,77002,1,8,0:1:0:0:
350,201,77083,1,8,0:1:0:0:
350,201,77164,2,0,P|301:164|251:163,1,107.999996704102,2|8,0:0|0:1,0:0:0:0:
191,218,77407,1,8,0:1:0:0:
193,228,77488,2,0,L|204:282,1,53.9999983520508,8|0,0:0|0:0,0:0:0:0:
347,384,77651,2,0,L|358:330,1,53.9999983520508,8|0,0:1|0:0,0:0:0:0:
420,61,77813,5,12,0:0:0:0:
454,308,77975,1,10,0:1:0:0:
311,44,78137,5,8,0:0:0:0:
357,331,78299,1,10,0:1:0:0:
203,28,78461,5,8,0:0:0:0:
260,354,78624,1,10,0:1:0:0:
95,12,78786,5,8,0:0:0:0:
163,377,78948,1,10,0:1:0:0:
420,61,79110,6,0,P|367:52|315:63,1,107.999996704102,12|0,0:0|0:0,0:0:0:0:
97,233,79434,5,12,0:0:0:0:
415,151,79597,1,2,0:1:0:0:
65,142,79759,5,12,0:0:0:0:
446,241,79921,1,2,0:1:0:0:
54,254,80083,5,12,0:0:0:0:
458,130,80245,1,8,0:0:0:0:
458,130,80326,1,8,0:0:0:0:
458,130,80407,6,0,B|409:121|409:121|377:133|377:133|327:124,1,135,4|8,0:0|0:1,0:0:0:0:
76,127,81056,6,0,L|183:115,1,107.999996704102,10|8,0:0|0:1,0:0:0:0:
187,118,81299,1,8,0:1:0:0:
191,122,81380,6,0,B|241:160|284:129|284:129|341:111|389:156,1,216,4|8,0:0|0:0,0:0:0:0:
396,177,81948,1,8,0:0:0:0:
402,197,82029,2,0,L|421:86,1,108,8|0,0:1|0:0,0:0:0:0:
426,64,82353,1,8,0:0:0:0:
336,262,82515,1,8,0:0:0:0:
365,282,82597,1,8,0:0:0:0:
400,290,82678,1,8,0:1:0:0:
435,284,82759,1,8,0:1:0:0:
465,265,82840,1,8,0:1:0:0:
485,235,82921,1,8,0:1:0:0:
493,200,83002,5,12,0:0:0:0:
329,172,83164,2,0,L|336:262,1,90,8|2,0:0|0:0,0:0:0:0:
262,92,83488,5,8,0:0:0:0:
426,64,83650,2,0,L|419:154,1,90,8|2,0:0|0:0,0:0:0:0:
277,345,83975,5,8,0:0:0:0:
441,373,84137,2,0,L|434:283,1,90,8|2,0:0|0:0,0:0:0:0:
262,207,84461,5,0,0:0:0:0:
277,345,84624,1,2,0:0:0:0:
373,142,84786,1,8,0:1:0:0:
377,157,84867,1,8,0:1:0:0:
381,172,84948,2,0,P|401:137|400:110,1,45,2|0,0:0|0:0,0:0:0:0:
458,77,85110,2,0,P|437:42|413:29,1,45,14|0,0:0|0:0,0:0:0:0:
303,39,85272,1,10,0:1:0:0:
300,54,85353,1,8,0:1:0:0:
297,69,85434,1,8,0:1:0:0:
294,85,85515,1,8,0:1:0:0:
291,100,85597,5,12,0:0:0:0:
108,134,85759,2,0,L|97:225,1,90,8|2,0:0|0:0,0:0:0:0:
1,37,86083,5,8,0:0:0:0:
184,71,86245,2,0,L|195:162,1,90,8|2,0:0|0:0,0:0:0:0:
270,346,86569,5,8,0:0:0:0:
97,223,86732,2,0,L|86:312,1,90,8|2,0:0|0:0,0:0:0:0:
194,160,87056,5,0,0:0:0:0:
270,346,87218,1,2,0:0:0:0:
394,188,87380,5,2,0:0:0:0:
394,188,87461,1,2,0:0:0:0:
394,188,87542,2,0,B|346:145|346:145|276:162,2,135,8|8|8,0:0|0:0|0:1,0:0:0:0:
176,353,88191,6,0,L|170:305,1,45,10|0,0:0|0:0,0:0:0:0:
153,158,88353,1,8,0:0:0:0:
151,142,88434,1,8,0:0:0:0:
149,126,88515,1,10,0:0:0:0:
319,238,88678,1,8,0:1:0:0:
78,274,88840,2,0,L|66:178,1,90,10|0,0:0|0:0,0:0:0:0:
204,29,89164,5,10,0:0:0:0:
170,308,89326,1,10,0:0:0:0:
170,308,89814,6,0,B|300:295|243:381|385:362,1,225,4|0,0:0|0:0,0:0:0:0:
388,351,90340,1,8,0:1:0:0:
413,95,90515,1,8,0:1:0:0:
413,95,90925,6,0,B|431:145|338:187|310:130|283:81|296:-9|401:-74|524:-42|552:64|516:196|492:135|437:184|461:267|461:267|479:335|361:395|310:268|376:219|376:219|295:228|239:144|311:161|245:89|101:71|168:177|38:110|38:110|84:155|85:187|82:217|52:193|21:269|61:344|114:364|210:377|274:325|282:215|224:162|158:140|131:233|149:243,1,1727.99994726563,4|0,0:0|0:0,0:0:0:0:
