osu file format v14

[General]
AudioFilename: audio.mp3
AudioLeadIn: 0
PreviewTime: 55921
Countdown: 0
SampleSet: Soft
StackLeniency: 0.6
Mode: 0
LetterboxInBreaks: 0
WidescreenStoryboard: 1

[Editor]
Bookmarks: 14245,28029,37597,47975,90925
DistanceSpacing: 1.6
BeatDivisor: 4
GridSize: 32
TimelineZoom: 1.9

[Metadata]
Title:fantastic dreamer
TitleUnicode:fantastic dreamer
Artist:Hello, Happy World!
ArtistUnicode:ハロー、ハッピーワールド!
Creator:-Mikan
Version:Aqua's Hard
Source:バンドリ!ガールズバンドパーティ!
Tags:iljaaz Hinsvar PantyDev Nelliel Djulus Akitoshi Laura Corinn -Aqua Shizuku- Konosuba Machico この素晴らしい世界に祝福を! kono subarashii sekai ni syukufuku wo! shukufuku o! god's blessing on this wonderful world! anime cover video game japanese opening op tv size BanG Dream! Girls Band Party! Garupa Bandori! ガルパ! harohapi ハロハピ tsurumaki kokoro 弦巻こころ itou miku 伊藤美来 seta kaoru 瀬田薫 tadokoro azusa 田所あずさ kitagawa hagumi 北沢はぐみ yoshida yuri 吉田有里 matsubara kanon 松原花音 toyota moe 豊田萌絵 michelle ミッシェル okusawa misaki 奥沢美咲 kurosawa tomoyo 黒沢ともよ
BeatmapID:2124213
BeatmapSetID:955896

[Difficulty]
HPDrainRate:5
CircleSize:3.8
OverallDifficulty:6
ApproachRate:8
SliderMultiplier:1.2
SliderTickRate:1

[Events]
//Background and Video events
0,0,"KokorOWO TsUWUmaki.jpg",0,0
Video,2024,"Mikan is cute blobheart.avi"
//Break Periods
//Storyboard Layer 0 (Background)
//Storyboard Layer 1 (Fail)
//Storyboard Layer 2 (Pass)
//Storyboard Layer 3 (Foreground)
//Storyboard Layer 4 (Overlay)
//Storyboard Sound Samples

[TimingPoints]
2570,324.324324324324,4,2,1,70,1,0
2570,-100,4,2,1,70,0,0
3705,-100,4,2,1,80,0,0
9056,-100,4,2,1,50,0,0
9380,-100,4,2,1,60,0,0
9705,-100,4,2,1,70,0,0
10029,-100,4,2,1,80,0,0
14245,-100,4,2,1,70,0,0
21867,-100,4,2,1,80,0,0
24461,-100,4,2,1,90,0,0
26975,-100,4,2,1,5,0,0
27056,-100,4,2,1,100,0,0
27542,-100,4,2,1,5,0,0
28029,-100,4,2,1,70,0,0
29651,-100,4,2,1,50,0,0
35002,-100,4,2,1,65,0,0
37597,-100,4,2,1,60,0,0
47975,324.324324324324,6,2,1,65,1,0
51867,324.324324324324,4,2,1,70,1,0
53164,-100,4,2,1,75,0,0
55840,-100,4,2,1,5,0,0
55921,-100,4,2,1,65,0,0
56894,-90.9090909090909,4,2,1,85,0,1
67272,-90.9090909090909,4,2,1,85,0,0
67758,-90.9090909090909,4,2,1,85,0,1
72623,-100,4,2,1,85,0,0
77812,-90.9090909090909,4,2,1,75,0,1
78137,-90.9090909090909,4,2,1,80,0,1
78461,-90.9090909090909,4,2,1,85,0,1
78786,-90.9090909090909,4,2,1,90,0,1
79110,-90.9090909090909,4,2,1,95,0,1
79434,-90.9090909090909,4,2,1,100,0,1
80407,-90.9090909090909,4,2,1,80,0,1
83002,-100,4,2,1,85,0,0
89814,350.877192982456,4,2,1,80,1,0
90252,-100,4,2,1,5,0,0
90340,-100,4,2,1,80,0,0
90515,410.958904109589,4,2,1,80,1,0
90823,-100,4,2,1,5,0,0
90925,387.096774193548,4,2,1,80,1,0
97118,-100,4,2,1,5,0,0

[Colours]
Combo1 : 255,172,89
Combo2 : 255,255,83
Combo3 : 128,128,192
Combo4 : 66,160,255

[HitObjects]
96,352,2570,5,2,0:0:0:0:
96,352,2894,1,2,0:0:0:0:
96,352,3218,2,0,L|10:374,2,60,10|2|8,0:1|0:0|0:0,0:0:0:0:
133,276,3705,6,0,B|180:222|260:233|288:317|258:309|288:365|335:384|401:343,1,300,4|0,0:0|0:0,0:0:0:0:
492,260,4840,1,8,0:0:0:0:
492,260,5002,6,0,B|520:152|520:152|438:194,1,180,4|2,0:0|0:0,0:0:0:0:
362,273,5813,2,0,P|301:274|247:234,1,120,0|2,0:0|0:0,0:0:0:0:
237,166,6299,6,0,P|197:249|97:271,1,180,4|2,0:0|0:0,0:0:0:0:
47,227,6948,1,0,0:0:0:0:
77,148,7110,1,0,0:0:0:0:
9,98,7272,2,0,L|-1:32,1,60,8|8,0:0|0:1,0:0:0:0:
75,1,7597,6,0,B|121:11|121:11|138:37|138:37|201:49,1,120,4|8,0:0|0:1,0:0:0:0:
249,186,8245,2,0,L|377:150,1,120,4|8,0:0|0:1,0:0:0:0:
408,81,8732,1,8,0:0:0:0:
482,120,8894,2,0,L|499:166,1,30,8|8,0:1|0:1,0:0:0:0:
511,185,9056,6,0,P|492:237|478:300,1,120,4|10,0:0|0:0,0:0:0:0:
405,341,9542,1,2,0:0:0:0:
336,290,9705,2,0,P|332:261|324:232,1,60,8|2,0:0|0:0,0:0:0:0:
259,325,10029,2,0,P|251:353|247:383,1,60,10|2,0:0|0:0,0:0:0:0:
143,268,10353,6,0,P|100:265|57:257,1,60,4|0,0:0|0:0,0:0:0:0:
72,244,10597,1,8,0:1:0:0:
72,244,10678,1,8,0:0:0:0:
71,154,10840,2,0,P|124:114|197:132,1,120,6|10,0:0|0:1,0:0:0:0:
257,130,11326,1,8,0:0:0:0:
295,204,11488,6,0,P|344:224|441:142,1,180,6|10,0:0|0:0,0:0:0:0:
453,73,12137,1,0,0:0:0:0:
453,73,12299,2,0,P|349:92|306:96,1,120,10|10,0:1|0:0,0:0:0:0:
216,0,12948,6,0,B|105:-40|126:120|-19:42,1,240,4|8,0:0|0:1,0:0:0:0:
102,148,13759,2,0,L|149:134,2,30,8|8|8,0:0|0:0|0:0,0:0:0:0:
53,246,14083,2,0,L|6:225,1,30,8|8,0:0|0:0,0:0:0:0:
21,214,14245,6,0,B|93:196|71:260|148:252,1,120,14|10,0:1|0:0,0:0:0:0:
201,209,14732,1,0,0:0:0:0:
278,240,14894,2,0,P|304:283|305:368,1,120,2|10,0:0|0:0,0:0:0:0:
427,291,15380,6,0,P|429:231|458:179,1,120,2|0,0:0|0:0,0:0:0:0:
510,113,15867,1,10,0:0:0:0:
444,60,16029,1,0,0:0:0:0:
397,130,16191,2,0,L|318:142,1,60,10|0,0:1|0:0,0:0:0:0:
287,72,16515,2,0,L|208:60,1,60,10|2,0:0|0:0,0:0:0:0:
109,0,16840,6,0,B|68:10|68:10|48:31|48:31|-15:46,1,120,10|10,0:1|0:0,0:0:0:0:
17,138,17326,1,0,0:0:0:0:
84,188,17488,1,8,0:1:0:0:
53,266,17651,2,0,L|64:329,1,60,2|8,0:0|0:0,0:0:0:0:
174,384,17975,1,2,0:1:0:0:
240,332,18137,6,0,L|250:272,1,60,10|0,0:1|0:0,0:0:0:0:
328,303,18461,2,0,L|338:362,1,60,10|0,0:0|0:0,0:0:0:0:
421,378,18786,2,0,P|464:368|501:292,1,120,10|10,0:1|0:0,0:0:0:0:
474,226,19272,1,0,0:0:0:0:
474,226,19353,1,0,0:0:0:0:
474,226,19434,6,0,B|422:241|421:178|353:194,1,120,6|12,0:0|0:0,0:0:0:0:
301,249,19921,1,0,0:0:0:0:
221,221,20083,1,2,0:0:0:0:
152,269,20245,2,0,P|163:296|176:323,1,60,2|10,0:0|0:0,0:0:0:0:
73,238,20569,6,0,P|85:183|107:103,1,120,2|0,0:0|0:0,0:0:0:0:
158,59,21056,2,0,P|186:99|279:113,1,120,12|0,0:0|0:0,0:0:0:0:
323,76,21542,1,8,0:0:0:0:
323,76,21624,1,8,0:0:0:0:
323,76,21705,1,8,0:0:0:0:
439,152,21867,6,0,B|465:189|465:189|439:279,1,120,4|2,0:0|0:0,0:0:0:0:
378,313,22353,2,0,L|319:298,1,60,14|0,0:0|0:0,0:0:0:0:
260,238,22678,2,0,L|201:253,1,60,14|0,0:1|0:0,0:0:0:0:
143,312,23002,1,14,0:0:0:0:
143,312,23164,1,0,0:0:0:0:
25,248,23326,6,0,P|33:205|46:166,1,60,14|0,0:1|0:0,0:0:0:0:
112,151,23651,2,0,P|104:108|91:69,1,60,12|8,0:0|0:1,0:0:0:0:
20,62,23975,1,8,0:0:0:0:
138,0,24137,1,12,0:0:0:0:
138,0,24461,6,0,B|201:-19|197:42|264:26,1,120,4|2,0:0|0:0,0:0:0:0:
301,94,24948,2,0,P|356:82|379:73,1,60,14|0,0:0|0:0,0:0:0:0:
418,21,25272,1,14,0:0:0:0:
418,21,25353,1,0,0:0:0:0:
418,21,25434,1,10,0:1:0:0:
487,68,25597,2,0,P|497:111|497:141,1,60,12|0,0:0|0:0,0:0:0:0:
418,225,25921,6,0,P|393:213|378:207,2,30,12|2|2,0:0|0:0|0:0,0:0:0:0:
456,299,26245,2,0,P|481:287|496:281,2,30,12|2|2,0:0|0:0|0:0,0:0:0:0:
392,373,26569,2,0,P|357:348|320:340,1,60,8|8,0:0|0:1,0:0:0:0:
177,382,27056,1,6,0:0:0:0:
163,367,28029,5,8,0:0:0:0:
163,367,28110,1,8,0:0:0:0:
163,367,28191,1,8,0:1:0:0:
65,308,28353,6,0,P|51:248|51:246,1,60,4|0,0:0|0:0,0:0:0:0:
114,194,28678,2,0,P|146:141|147:140,1,60,4|0,0:0|0:0,0:0:0:0:
237,164,29002,1,8,0:1:0:0:
237,164,29083,1,8,0:1:0:0:
237,164,29164,1,8,0:1:0:0:
292,227,29326,2,0,P|326:219|363:201,1,60,8|8,0:1|0:0,0:0:0:0:
425,94,29651,6,0,P|400:60|314:52,1,120,6|10,0:0|0:1,0:0:0:0:
273,111,30137,2,0,P|248:145|162:153,1,120,10|8,0:0|0:1,0:0:0:0:
110,104,30624,2,0,P|100:61|97:34,1,60,10|10,0:1|0:0,0:0:0:0:
4,155,30948,6,0,P|6:202|26:286,1,120,2|10,0:0|0:1,0:0:0:0:
84,328,31434,2,0,B|135:305|135:305|221:332,1,120,10|2,0:0|0:0,0:0:0:0:
263,375,31921,1,8,0:1:0:0:
263,375,32083,1,8,0:0:0:0:
357,334,32245,6,0,B|379:296|379:296|344:212,1,120,4|8,0:0|0:1,0:0:0:0:
276,182,32732,2,0,P|242:200|154:234,1,120,10|10,0:0|0:1,0:0:0:0:
101,187,33218,1,2,0:0:0:0:
101,187,33380,1,10,0:0:0:0:
121,70,33542,6,0,P|166:32|225:30,1,120,2|10,0:0|0:1,0:0:0:0:
276,96,34029,2,0,P|314:115|343:113,1,60,10|0,0:0|0:0,0:0:0:0:
347,102,34272,1,10,0:1:0:0:
347,102,34353,1,10,0:1:0:0:
420,142,34515,2,0,P|429:180|435:215,1,60,2|8,0:0|0:0,0:0:0:0:
498,333,35002,6,0,P|432:343|377:370,1,120,4|8,0:0|0:0,0:0:0:0:
335,297,35488,2,0,P|280:272|221:264,1,120,4|8,0:0|0:1,0:0:0:0:
76,351,36137,6,0,B|45:327|45:327|65:233,1,120,4|10,0:0|0:1,0:0:0:0:
132,201,36624,1,10,0:0:0:0:
211,227,36786,2,0,P|234:183|211:107,1,120,6|8,0:0|0:0,0:0:0:0:
143,80,37272,1,8,0:0:0:0:
74,128,37434,1,8,0:0:0:0:
74,128,37515,1,8,0:0:0:0:
74,128,37597,6,0,P|88:168|111:261,1,120,10|10,0:1|0:0,0:0:0:0:
55,308,38083,1,2,0:0:0:0:
114,367,38245,2,0,P|148:346|191:342,1,60,10|0,0:1|0:0,0:0:0:0:
246,369,38569,1,10,0:0:0:0:
246,369,38732,1,2,0:0:0:0:
375,384,38894,6,0,P|405:320|420:257,1,120,10|10,0:1|0:0,0:0:0:0:
364,207,39380,1,2,0:0:0:0:
411,138,39542,2,0,P|452:134|484:124,2,60,10|0|10,0:1|0:0|0:0,0:0:0:0:
333,37,40029,6,0,B|296:48|296:48|261:35|261:35|207:50,1,120,2|2,0:0|0:0,0:0:0:0:
137,24,40515,1,10,0:0:0:0:
86,91,40678,2,0,P|110:135|120:211,1,120,0|0,0:0|0:0,0:0:0:0:
84,279,41164,1,10,0:0:0:0:
84,279,41326,1,2,0:0:0:0:
205,384,41488,6,0,P|247:360|324:337,1,120,10|10,0:1|0:0,0:0:0:0:
175,298,41975,2,0,P|133:274|56:251,1,120,2|8,0:0|0:0,0:0:0:0:
45,264,42380,1,8,0:0:0:0:
45,264,42461,1,8,0:0:0:0:
1,191,42624,2,0,P|13:165|30:149,1,30,8|8,0:0|0:0,0:0:0:0:
48,141,42786,6,0,P|117:169|170:168,1,120,8|12,0:1|0:0,0:0:0:0:
203,96,43272,2,0,P|232:90|260:79,1,60,0|2,0:0|0:0,0:0:0:0:
337,112,43597,1,10,0:1:0:0:
399,55,43759,1,10,0:0:0:0:
497,141,43921,6,0,B|510:182|510:182|479:262,1,120,6|8,0:0|0:1,0:0:0:0:
406,289,44407,1,10,0:0:0:0:
291,236,44569,1,6,0:0:0:0:
219,280,44732,2,0,P|187:279|159:270,2,60,0|8|8,0:0|0:1|0:0,0:0:0:0:
351,382,45380,6,0,P|426:365|477:348,1,120,10|10,0:1|0:0,0:0:0:0:
512,221,45867,2,0,P|485:186|402:187,1,120,0|8,0:0|0:1,0:0:0:0:
342,225,46353,1,8,0:0:0:0:
230,290,46515,6,0,P|177:265|112:239,1,120,6|8,0:0|0:1,0:0:0:0:
58,299,47002,2,0,P|74:344|89:369,1,60,8|6,0:0|0:0,0:0:0:0:
0,238,47326,2,0,P|16:193|31:168,1,60,2|8,0:0|0:1,0:0:0:0:
103,161,47651,1,8,0:0:0:0:
233,265,47975,6,0,B|268:285|268:285|338:274,1,80,4|0,0:0|0:0,0:0:0:0:
339,252,48299,1,2,0:0:0:0:
421,327,48515,1,0,0:0:0:0:
457,305,48624,2,0,P|478:249|482:214,1,80,2|0,0:0|0:0,0:0:0:0:
465,190,48948,1,4,0:0:0:0:
364,55,49272,6,0,B|313:36|311:105|237:86,1,120,2|2,0:0|0:0,0:0:0:0:
91,47,49921,2,0,P|117:94|134:140,1,80,4|0,0:0|0:0,0:0:0:0:
119,155,50245,1,2,0:0:0:0:
65,253,50461,1,0,0:0:0:0:
35,269,50569,6,0,P|14:303|0:340,1,80,2|0,0:0|0:0,0:0:0:0:
15,371,50894,1,2,0:0:0:0:
180,343,51218,2,0,P|217:357|251:378,1,80,2|0,0:0|0:0,0:0:0:0:
281,359,51542,1,8,0:0:0:0:
281,359,51651,2,0,P|314:342|341:341,1,40,8|8,0:0|0:0,0:0:0:0:
437,370,51867,6,0,B|474:381|474:381|444:238,1,180,4|0,0:0|0:0,0:0:0:0:
364,217,52515,2,0,P|344:248|277:263,1,80,4|8,0:0|0:1,0:0:0:0:
263,249,52840,2,0,P|243:195|240:185,2,40,8|8|8,0:0|0:0|0:0,0:0:0:0:
186,333,53164,6,0,P|164:298|27:272,1,180,4|8,0:0|0:1,0:0:0:0:
75,176,53813,2,0,P|109:153|135:120,1,60,0|8,0:0|0:1,0:0:0:0:
104,57,54137,1,8,0:1:0:0:
202,173,54299,1,8,0:0:0:0:
202,173,54380,1,8,0:0:0:0:
202,173,54461,6,0,P|214:217|218:256,1,60,12|2,0:0|0:0,0:0:0:0:
302,167,54786,2,0,P|314:123|318:84,1,60,8|2,0:0|0:0,0:0:0:0:
374,238,55110,1,10,0:0:0:0:
443,186,55272,1,2,0:0:0:0:
443,186,55353,1,2,0:0:0:0:
443,186,55434,1,10,0:0:0:0:
488,292,55597,1,4,0:0:0:0:
488,292,55921,6,0,P|499:334|502:363,2,60,10|10|10,0:0|0:1|0:0,0:0:0:0:
411,257,56407,2,0,P|415:227|424:198,1,60,10|10,0:0|0:1,0:0:0:0:
491,147,56732,1,10,0:0:0:0:
417,18,56894,6,0,B|340:1|363:72|288:46,1,132.00000402832,4|2,0:0|0:0,0:0:0:0:
210,14,57380,1,10,0:0:0:0:
140,74,57542,1,2,0:0:0:0:
140,74,57624,1,2,0:0:0:0:
140,74,57705,2,0,P|151:118|174:159,1,66.0000020141602,8|0,0:1|0:0,0:0:0:0:
42,73,58029,1,10,0:0:0:0:
0,212,58191,6,0,P|27:248|70:323,1,132.00000402832,2|0,0:0|0:0,0:0:0:0:
143,266,58678,1,10,0:0:0:0:
216,322,58840,2,0,P|210:337|204:352,2,33.0000010070801,2|2|10,0:0|0:0|0:1,0:0:0:0:
299,282,59164,1,0,0:0:0:0:
299,282,59326,1,10,0:0:0:0:
435,371,59488,6,0,L|460:221,1,132.00000402832,2|0,0:0|0:0,0:0:0:0:
398,168,59975,1,10,0:0:0:0:
313,205,60137,2,0,P|326:239|341:292,1,66.0000020141602,2|0,0:0|0:0,0:0:0:0:
267,330,60461,2,0,P|235:320|204:308,1,66.0000020141602,2|8,0:0|0:0,0:0:0:0:
66,379,60786,6,0,B|27:354|27:354|39:252,1,132.00000402832,2|0,0:0|0:0,0:0:0:0:
100,201,61272,1,10,0:0:0:0:
60,117,61434,1,2,0:0:0:0:
60,117,61515,1,2,0:0:0:0:
60,117,61597,2,0,P|17:137|-22:152,1,66.0000020141602,10|8,0:1|0:0,0:0:0:0:
113,33,61921,2,0,P|156:53|195:68,1,66.0000020141602,10|8,0:0|0:0,0:0:0:0:
276,173,62245,6,0,P|317:157|392:98,1,132.00000402832,6|8,0:0|0:0,0:0:0:0:
432,23,62732,1,10,0:0:0:0:
512,167,62894,2,0,P|458:181|430:194,1,66.0000020141602,10|0,0:1|0:0,0:0:0:0:
379,246,63218,2,0,P|433:260|461:273,1,66.0000020141602,8|0,0:0|0:0,0:0:0:0:
512,379,63542,6,0,B|448:401|453:338|386:373,1,132.00000402832,10|8,0:1|0:0,0:0:0:0:
316,317,64029,1,10,0:0:0:0:
175,384,64191,2,0,P|166:352|163:319,1,66.0000020141602,10|0,0:1|0:0,0:0:0:0:
251,210,64515,2,0,P|248:242|239:274,1,66.0000020141602,10|8,0:0|0:0,0:0:0:0:
81,301,64840,6,0,B|53:260|53:260|89:177,1,132.00000402832,14|10,0:1|0:0,0:0:0:0:
169,145,65326,1,10,0:1:0:0:
169,145,65407,1,8,0:0:0:0:
169,145,65488,2,0,P|205:172|235:183,1,66.0000020141602,2|10,0:0|0:1,0:0:0:0:
305,135,65813,1,8,0:0:0:0:
432,224,65975,6,0,P|447:179|466:94,1,132.00000402832,6|10,0:0|0:1,0:0:0:0:
435,9,66461,1,10,0:0:0:0:
322,102,66624,2,0,P|277:84|187:56,1,132.00000402832,6|10,0:0|0:0,0:0:0:0:
137,128,67110,1,10,0:0:0:0:
0,7,67272,6,0,P|45:49|35:131,1,132.00000402832,4|2,0:0|0:0,0:0:0:0:
33,139,67678,1,2,0:0:0:0:
33,139,67759,1,12,0:0:0:0:
92,209,67921,1,0,0:0:0:0:
60,297,68083,2,0,P|30:282|-9:271,2,66.0000020141602,8|2|8,0:1|0:0|0:0,0:0:0:0:
174,384,68569,6,0,B|218:362|218:362|248:378|248:378|325:356,1,132.00000402832,2|2,0:0|0:0,0:0:0:0:
343,285,69056,1,8,0:0:0:0:
428,319,69218,1,2,0:0:0:0:
428,319,69380,2,0,P|446:349|460:389,1,66.0000020141602,8|2,0:1|0:0,0:0:0:0:
512,264,69705,1,8,0:0:0:0:
438,139,69867,6,0,B|404:119|404:119|307:141,1,132.00000402832,2|0,0:0|0:0,0:0:0:0:
247,204,70353,1,10,0:0:0:0:
159,175,70515,1,2,0:0:0:0:
159,175,70597,1,2,0:0:0:0:
159,175,70678,2,0,P|158:127|176:94,2,66.0000020141602,8|2|8,0:1|0:0|0:0,0:0:0:0:
57,292,71164,6,0,P|40:236|-7:164,1,132.00000402832,2|0,0:0|0:0,0:0:0:0:
63,87,71651,1,10,0:0:0:0:
63,87,71813,1,2,0:0:0:0:
144,129,71975,2,0,P|187:106|214:102,1,66.0000020141602,8|8,0:1|0:0,0:0:0:0:
244,20,72299,1,10,0:0:0:0:
326,60,72461,1,8,0:0:0:0:
326,60,72542,1,8,0:0:0:0:
326,60,72624,6,0,P|351:103|360:132,1,60,14|0,0:1|0:0,0:0:0:0:
415,169,72948,2,0,P|390:212|381:241,1,60,10|8,0:0|0:0,0:0:0:0:
383,313,73272,2,0,P|326:280|250:269,1,120,10|10,0:1|0:0,0:0:0:0:
184,341,73759,6,0,P|127:374|51:385,1,120,2|10,0:0|0:1,0:0:0:0:
8,333,74245,2,0,P|2:288|5:260,1,60,8|8,0:0|0:0,0:0:0:0:
54,207,74569,1,2,0:0:0:0:
54,207,74732,1,8,0:1:0:0:
133,234,74894,1,8,0:0:0:0:
279,151,75218,6,0,B|342:139|323:216|412:183,1,120,2|10,0:0|0:0,0:0:0:0:
452,138,75705,1,10,0:0:0:0:
424,58,75867,2,0,P|377:26|295:48,1,120,10|10,0:1|0:0,0:0:0:0:
249,124,76353,6,0,P|200:156|141:149,1,120,2|2,0:0|0:0,0:0:0:0:
69,105,76840,1,10,0:0:0:0:
22,174,77002,1,8,0:1:0:0:
22,174,77083,1,8,0:1:0:0:
22,174,77164,1,2,0:0:0:0:
79,235,77326,2,0,P|99:226|124:221,2,30,8|8|8,0:1|0:1|0:0,0:0:0:0:
26,301,77651,1,8,0:1:0:0:
26,301,77732,1,8,0:1:0:0:
26,301,77813,6,0,P|33:341|40:370,1,66.0000020141602,12|10,0:0|0:1,0:0:0:0:
129,380,78137,1,8,0:0:0:0:
211,306,78299,2,0,P|204:266|197:237,1,66.0000020141602,10|8,0:1|0:0,0:0:0:0:
273,186,78624,1,10,0:1:0:0:
368,261,78786,2,0,P|361:301|354:330,1,66.0000020141602,8|10,0:0|0:1,0:0:0:0:
490,258,79110,6,0,P|483:218|476:189,2,66.0000020141602,12|0|12,0:0|0:0|0:0,0:0:0:0:
446,340,79597,1,2,0:1:0:0:
355,325,79759,1,12,0:0:0:0:
355,325,79921,1,2,0:1:0:0:
282,382,80083,1,12,0:0:0:0:
191,285,80245,1,8,0:0:0:0:
191,285,80326,1,8,0:0:0:0:
191,285,80407,6,0,P|196:221|250:178,1,132.00000402832,4|0,0:0|0:0,0:0:0:0:
333,209,80894,1,8,0:1:0:0:
406,152,81056,2,0,P|401:113|381:89,1,66.0000020141602,10|8,0:0|0:1,0:0:0:0:
264,0,81380,6,0,P|227:29|79:88,1,198.000006042481,4|8,0:0|0:0,0:0:0:0:
31,159,82029,1,8,0:1:0:0:
98,241,82191,1,8,0:0:0:0:
98,241,82272,1,8,0:0:0:0:
98,241,82353,1,8,0:0:0:0:
37,310,82515,2,0,P|0:304|-17:290,2,33.0000010070801,8|8|8,0:0|0:0|0:1,0:0:0:0:
103,374,82840,1,8,0:1:0:0:
103,374,82921,1,8,0:1:0:0:
103,374,83002,6,0,P|129:356|158:343,1,60,12|8,0:0|0:0,0:0:0:0:
237,360,83326,1,2,0:0:0:0:
291,295,83488,2,0,P|278:267|261:243,1,60,8|8,0:0|0:0,0:0:0:0:
191,195,83813,1,2,0:0:0:0:
153,119,83975,2,0,P|165:91|182:67,2,60,8|8|2,0:0|0:0|0:0,0:0:0:0:
68,233,84461,5,0,0:0:0:0:
15,166,84624,1,2,0:0:0:0:
61,96,84786,1,8,0:1:0:0:
61,96,84867,1,10,0:1:0:0:
61,96,84948,2,0,P|111:106|136:105,1,60,2|14,0:0|0:0,0:0:0:0:
181,48,85272,2,0,P|231:38|256:39,1,60,10|8,0:1|0:1,0:0:0:0:
361,115,85597,6,0,P|397:120|432:140,1,60,12|8,0:0|0:0,0:0:0:0:
474,191,85921,1,2,0:0:0:0:
451,271,86083,2,0,P|476:322|488:350,1,60,8|8,0:0|0:0,0:0:0:0:
415,382,86407,1,2,0:0:0:0:
342,339,86569,1,8,0:0:0:0:
342,339,86732,1,8,0:0:0:0:
179,379,87056,5,0,0:0:0:0:
104,339,87218,2,0,P|95:288|95:257,1,60,2|2,0:0|0:0,0:0:0:0:
153,220,87542,2,0,P|162:169|162:138,2,60,8|0|8,0:0|0:0|0:1,0:0:0:0:
94,279,88029,1,8,0:1:0:0:
179,379,88191,6,0,P|209:358|243:348,1,60,10|10,0:0|0:0,0:0:0:0:
311,372,88515,1,10,0:0:0:0:
375,317,88678,2,0,P|398:334|426:345,1,60,8|10,0:1|0:0,0:0:0:0:
329,180,89164,1,10,0:0:0:0:
329,180,89326,1,10,0:0:0:0:
105,326,89814,6,0,P|80:283|53:137,1,180,4|8,0:0|0:1,0:0:0:0:
85,82,90515,1,8,0:1:0:0:
256,192,90925,5,4,0:0:0:0:
256,192,91021,12,0,97118,0:0:0:0:
