osu file format v14

[General]
AudioFilename: audio.mp3
AudioLeadIn: 0
PreviewTime: 67285
Countdown: 0
SampleSet: None
StackLeniency: 0.7
Mode: 3
LetterboxInBreaks: 0
SpecialStyle: 0
WidescreenStoryboard: 1

[Editor]
Bookmarks: 16376,23657,52748,67293,89111
DistanceSpacing: 1.3
BeatDivisor: 4
GridSize: 8
TimelineZoom: 0.6

[Metadata]
Title:Sugar Song to Bitter Step
TitleUnicode:シュガーソングとビターステップ
Artist:Hello, Happy World!
ArtistUnicode:ハロー、ハッピーワールド!
Creator:wtfamidoing
Version:Easy
Source:BanG Dream! ガールズバンドパーティ!
Tags:Hello Happy World harohapi Sugar song to bitter step UNISON SQUARE GARDEN bandori BanG Dream! Kekkai Sensen
BeatmapID:1921925
BeatmapSetID:918618

[Difficulty]
HPDrainRate:6
CircleSize:4
OverallDifficulty:6
ApproachRate:5
SliderMultiplier:1.4
SliderTickRate:1

[Events]
//Background and Video events
0,0,"543Kokoro-Tsurumaki-Power-Invincible-Hero-tyhf4V.png",0,0
//Break Periods
//Storyboard Layer 0 (Background)
//Storyboard Layer 1 (Fail)
//Storyboard Layer 2 (Pass)
//Storyboard Layer 3 (Foreground)
//Storyboard Sound Samples

[TimingPoints]
13,454.545454545455,4,3,1,35,1,0
23649,-100,4,3,1,35,0,0
67285,-100,4,3,1,35,0,1
81831,-100,4,3,1,35,0,0

[HitObjects]
64,192,126,128,0,581:0:0:0:0:
448,192,581,128,0,1035:0:0:0:0:
192,192,1035,1,8,0:0:0:0:
448,192,1831,1,0,0:0:0:0:
64,192,1831,1,8,0:0:0:0:
192,192,3649,1,2,0:0:0:0:
448,192,4103,1,8,0:0:0:0:
64,192,4558,1,2,0:0:0:0:
320,192,5013,1,8,0:0:0:0:
64,192,5467,1,0,0:0:0:0:
448,192,5467,1,8,0:0:0:0:
64,192,7285,1,2,0:0:0:0:
320,192,7740,1,8,0:0:0:0:
64,192,8194,1,2,0:0:0:0:
448,192,8649,1,8,0:0:0:0:
448,192,9103,1,12,0:0:0:0:
448,192,10013,1,2,0:0:0:0:
64,192,10467,1,8,0:0:0:0:
64,192,10922,1,12,0:0:0:0:
320,192,11831,1,2,0:0:0:0:
192,192,12285,1,8,0:0:0:0:
448,192,12740,1,6,0:0:0:0:
448,192,13194,1,12,0:0:0:0:
64,192,13649,1,6,0:0:0:0:
64,192,14103,1,12,0:0:0:0:
192,192,14558,128,8,15126:0:0:0:0:
320,192,15126,128,8,15694:0:0:0:0:
192,192,15922,1,6,0:0:0:0:
64,192,16376,1,6,0:0:0:0:
448,192,16376,1,0,0:0:0:0:
192,192,16831,1,8,0:0:0:0:
320,192,17285,1,2,0:0:0:0:
64,192,17740,1,8,0:0:0:0:
448,192,18194,1,2,0:0:0:0:
64,192,18649,1,8,0:0:0:0:
192,192,19103,1,2,0:0:0:0:
448,192,19558,1,8,0:0:0:0:
192,192,20013,1,2,0:0:0:0:
64,192,20467,1,8,0:0:0:0:
320,192,20922,1,2,0:0:0:0:
448,192,21376,1,8,0:0:0:0:
192,192,21831,1,8,0:0:0:0:
320,192,22285,1,8,0:0:0:0:
192,192,22740,1,8,0:0:0:0:
64,192,23649,1,6,0:0:0:0:
192,192,24103,1,8,0:0:0:0:
448,192,24558,1,2,0:0:0:0:
320,192,25013,1,8,0:0:0:0:
64,192,25467,1,2,0:0:0:0:
192,192,25922,1,8,0:0:0:0:
448,192,26376,1,2,0:0:0:0:
320,192,26831,1,8,0:0:0:0:
64,192,27285,1,2,0:0:0:0:
320,192,27740,1,8,0:0:0:0:
448,192,28194,1,2,0:0:0:0:
192,192,28649,1,8,0:0:0:0:
64,192,29103,1,2,0:0:0:0:
320,192,29558,1,8,0:0:0:0:
448,192,30013,1,2,0:0:0:0:
64,192,30467,1,8,0:0:0:0:
320,192,30922,128,2,31376:0:0:0:0:
192,192,31376,1,8,0:0:0:0:
448,192,31831,128,2,32285:0:0:0:0:
64,192,32285,1,8,0:0:0:0:
192,192,32740,1,2,0:0:0:0:
320,192,33194,1,8,0:0:0:0:
192,192,33649,1,2,0:0:0:0:
64,192,34103,1,8,0:0:0:0:
448,192,34558,1,2,0:0:0:0:
320,192,35013,1,8,0:0:0:0:
192,192,35467,1,2,0:0:0:0:
320,192,35922,1,8,0:0:0:0:
448,192,36376,128,6,37285:0:0:0:0:
64,192,37285,128,2,38194:0:0:0:0:
320,192,38194,1,6,0:0:0:0:
448,192,38422,1,0,0:0:0:0:
64,192,39103,1,2,0:0:0:0:
192,192,39331,1,0,0:0:0:0:
320,192,40013,1,2,0:0:0:0:
448,192,40240,1,0,0:0:0:0:
64,192,40922,1,2,0:0:0:0:
192,192,41149,1,0,0:0:0:0:
192,192,41831,1,2,0:0:0:0:
448,192,42058,1,0,0:0:0:0:
64,192,42740,1,2,0:0:0:0:
320,192,42967,1,0,0:0:0:0:
448,192,43649,1,2,0:0:0:0:
192,192,43876,1,0,0:0:0:0:
64,192,44558,1,2,0:0:0:0:
320,192,44785,1,0,0:0:0:0:
320,192,45467,1,2,0:0:0:0:
448,192,45694,1,0,0:0:0:0:
64,192,46376,1,2,0:0:0:0:
192,192,46603,1,0,0:0:0:0:
320,192,47285,1,2,0:0:0:0:
448,192,47513,1,0,0:0:0:0:
192,192,48194,1,2,0:0:0:0:
448,192,48422,1,0,0:0:0:0:
64,192,49103,1,2,0:0:0:0:
320,192,49331,1,0,0:0:0:0:
192,192,50013,1,2,0:0:0:0:
448,192,50240,1,0,0:0:0:0:
192,192,50922,128,6,51831:0:0:0:0:
320,192,51831,128,2,52740:0:0:0:0:
64,192,52740,1,6,0:0:0:0:
192,192,52967,1,2,0:0:0:0:
320,192,53308,1,2,0:0:0:0:
320,192,53649,1,8,0:0:0:0:
448,192,54558,1,6,0:0:0:0:
192,192,54785,1,2,0:0:0:0:
320,192,55126,1,2,0:0:0:0:
320,192,55467,1,8,0:0:0:0:
64,192,56376,128,6,57285:0:0:0:0:
320,192,57285,1,2,0:0:0:0:
448,192,58194,128,6,59103:0:0:0:0:
192,192,59103,1,2,0:0:0:0:
320,192,59785,1,0,0:0:0:0:
192,192,60013,128,2,61831:0:0:0:0:
64,192,61831,128,2,63649:0:0:0:0:
448,192,63649,1,6,0:0:0:0:
320,192,64103,128,8,64558:0:0:0:0:
64,192,64558,1,2,0:0:0:0:
448,192,66376,1,4,0:0:0:0:
448,192,66831,1,4,0:0:0:0:
64,192,67285,1,6,0:0:0:0:
192,192,67285,1,0,0:0:0:0:
448,192,67740,1,8,0:0:0:0:
192,192,68194,1,2,0:0:0:0:
64,192,68649,1,8,0:0:0:0:
320,192,69103,1,2,0:0:0:0:
192,192,69558,1,8,0:0:0:0:
448,192,70013,1,2,0:0:0:0:
320,192,70467,1,8,0:0:0:0:
64,192,70922,1,2,0:0:0:0:
192,192,71376,1,8,0:0:0:0:
320,192,71831,1,2,0:0:0:0:
192,192,72285,1,8,0:0:0:0:
64,192,72740,1,6,0:0:0:0:
64,192,73194,1,12,0:0:0:0:
448,192,73649,1,6,0:0:0:0:
448,192,74103,1,12,0:0:0:0:
192,192,74558,1,6,0:0:0:0:
448,192,75013,1,8,0:0:0:0:
64,192,75467,1,2,0:0:0:0:
320,192,75922,1,8,0:0:0:0:
192,192,76376,1,2,0:0:0:0:
64,192,76831,1,8,0:0:0:0:
192,192,77285,1,2,0:0:0:0:
320,192,77740,1,8,0:0:0:0:
448,192,78194,1,2,0:0:0:0:
64,192,78649,1,8,0:0:0:0:
320,192,79103,1,2,0:0:0:0:
192,192,79558,1,8,0:0:0:0:
64,192,80013,1,2,0:0:0:0:
192,192,80467,1,8,0:0:0:0:
320,192,80922,1,2,0:0:0:0:
448,192,81376,1,8,0:0:0:0:
320,192,81831,1,12,0:0:0:0:
192,192,82285,1,8,0:0:0:0:
64,192,82740,1,8,0:0:0:0:
320,192,83081,1,2,0:0:0:0:
192,192,83308,1,2,0:0:0:0:
320,192,83535,1,6,0:0:0:0:
448,192,84103,128,2,85467:0:0:0:0:
64,192,85467,1,6,0:0:0:0:
320,192,85922,1,8,0:0:0:0:
448,192,86376,1,2,0:0:0:0:
192,192,86717,1,2,0:0:0:0:
320,192,86944,1,2,0:0:0:0:
192,192,87172,1,2,0:0:0:0:
64,192,88649,1,4,0:0:0:0:
64,192,89103,1,6,0:0:0:0:
320,192,89558,1,8,0:0:0:0:
448,192,90013,1,2,0:0:0:0:
192,192,90467,1,8,0:0:0:0:
64,192,90922,1,2,0:0:0:0:
192,192,91376,1,8,0:0:0:0:
448,192,91831,1,2,0:0:0:0:
320,192,92285,1,8,0:0:0:0:
64,192,92740,1,2,0:0:0:0:
192,192,93194,1,8,0:0:0:0:
320,192,93649,1,2,0:0:0:0:
448,192,94103,1,8,0:0:0:0:
64,192,94558,1,6,0:0:0:0:
64,192,95013,1,12,0:0:0:0:
448,192,95467,1,6,0:0:0:0:
448,192,95922,1,12,0:0:0:0:
320,192,96376,1,6,0:0:0:0:
64,192,96831,1,8,0:0:0:0:
192,192,97285,1,2,0:0:0:0:
448,192,97740,1,8,0:0:0:0:
320,192,98194,1,6,0:0:0:0:
64,192,98649,1,8,0:0:0:0:
320,192,99103,1,2,0:0:0:0:
192,192,99558,1,12,0:0:0:0:
448,192,100013,1,2,0:0:0:0:
320,192,100467,1,8,0:0:0:0:
192,192,100922,1,2,0:0:0:0:
64,192,101376,1,2,0:0:0:0:
448,192,101831,1,8,0:0:0:0:
192,192,102285,1,8,0:0:0:0:
64,192,102740,1,8,0:0:0:0:
320,192,103081,1,2,0:0:0:0:
192,192,103308,1,2,0:0:0:0:
320,192,103535,1,2,0:0:0:0:
448,192,104103,128,12,105240:0:0:0:0:
