osu file format v14

[General]
AudioFilename: audio.mp3
AudioLeadIn: 0
PreviewTime: 67276
Countdown: 0
SampleSet: Normal
StackLeniency: 0.7
Mode: 1
LetterboxInBreaks: 0
WidescreenStoryboard: 0

[Editor]
Bookmarks: 3072,5685,6481,10572,11140,12844,13413,16935,17049,17163,17276,17390,17731,18185,18413,18526,18754,18867,18981,19094,19208,19322,19549,19776,19890,20004,20231,20344,20458,20572,20799,20913,21140,21367,21708,21822,22049,22163,22276,22390,22617,22844,22958,23185,23413,23640,23867,24094,24123,24549,24606,25032,25486,25742,25856,25913,25969,26168,26367,26594,26736,26935,27049,27276,27504,27617,27646,27901,28157,28413,28555,28640,28924,29151,29208,29350,29577,29691,29918,30032,30117,30259,30486,30600,30799,30941,31140,31367,31594,31736,31879,32305,32504,32617,32731,32986,33185,33413,33526,33668,33896,34094,34322,34350,34464,34606,34805,35032,35259,35458,35685,36168,36396,36623,36822,36935,37049,37191,37447,37560,37702,37958,38185,38384,38498,38668,38782,38981,39123,39208,39464,39577,39719,39805,40004,40231,40373,40486,40714,40941,41140,41282,41396,41481,41509,41736,41850,42077,42276,42305,42504,42731,42958,43100,43469,43526,43668,43896,44094,44236,44464,44577,44805,45032,45146,45344,45486,45714,45799,45827,45969,46055,46282,46367,46594,46822,47049,47191,47305,47532,47759,47986,48100,48185,48441,48668,48867,49009,49094,49123,49350,49577,49776,50032,50259,50742,50913,50941,51168,51396,51623,51736,51935,51964,52191,52333,52447,52617,52674,52788,52844,52986,53214,53327,53555,53668,53981,54094,54236,54350,54549,54748,55004,55089,55458,56396,56623,56850,56964,57333,57788,58015,58214,58299,58469,58583,58697,58924,59094,59123,59350,59464,59861,60060,60259,60401,60458,60515,60714,60941,61140,61282,61651,61708,61850,62077,62305,62418,62646,62731,62788,62986,63214,63413,63441,63583,63697,64094,64379,64435,64577,64805,65032,65146,65288,65401,65543,65685,65742,65856,66083,66225,66367,66509,66680,66822,66964,67049,67163,67191,67276,67305,68214,68668,68981,69123,69322,69464,69577,69776,70004,70117,70344,70742,70856,70998,71168,71396,71509,71651,71765,71879,72077,72191,72589,72702,72816,73015,73214,73441,73555,73697,73896,74123,74350,74577,75004,75486,75572,75714,75827,75913,75969,76367,76623,76736,76850,77077,77305,77418,77646,78015,78129,78242,78441,78668,78782,78924,79066,79180,79350,79464,79833,79947,80060,80117,80259,80486,80771,80827,80941,81168,81396,81509,81850,81992,82134,82163,82305,82418,82617,82759,82958,83100,83214,83413,83640,84094,84549,84776,84918,85146,85344,85714,85856,85941,86140,86254,86481,86566,86793,86935,87021,87248,87731,88185,88413,88526,88640,88782,89009,90515,90941,91197,91254,91310,91424,91651,91765,91964,92077,92305,92532,92731,92958,93100,93214,93441,93555,93782,93896,94123,94322,94577,94805,94947,95060,95259,95373,95600,95714,95941,96168,96367,96594,96822,97049,97248,97390,97475,97617,97731,97958,98214,98441,98555,98697,98867,99009,99236,99350,99435,99577,99691,99918,100060,100259,100486,100572,100629,100742,100856,101055,101168,101396,101623,101736,101992,102106,102333,102532,102674,102901,103100,103242,103384,103469,103697,104151,104577,104805,104918,105146,105344,105884,107163,107390
DistanceSpacing: 0.1
BeatDivisor: 4
GridSize: 32
TimelineZoom: 2

[Metadata]
Title:Sugar Song and Bitter Step
TitleUnicode:シュガーソングとビターステップ
Artist:Hello, Happy World!
ArtistUnicode:ハロー、ハッピーワールド!
Creator:toara_fict
Version:yzrin's Oni
Source:バンドリ!ガールズバンドパーティ!
Tags:BanG Dream! Cover yuzu__rinrin Akemi_Homura Charlotte UNISON SQUARE GARDEN Girls Band Party! Hello, Happy World! Tsurumaki Kokoro 弦巻 こころ Okusawa Misaki 奥沢美咲 Michelle 奥沢 美咲 Seta Kaoru 瀬田 薫 Matsubara Kanon 松原 花音 Kitazawa Hagumi 北沢 はぐみ Miku Itou 美来 伊藤 Kurosawa Tomoyo 黒沢 ともよ Tadokoro Azusa 田所 あずさ Toyota Moe 豊田 萌絵 Yoshida Yuri 有里 吉田
BeatmapID:1280997
BeatmapSetID:606276

[Difficulty]
HPDrainRate:6.5
CircleSize:6
OverallDifficulty:5
ApproachRate:9
SliderMultiplier:1.4
SliderTickRate:1

[Events]
//Background and Video events
0,0,"adafsdgf.png",0,70
//Break Periods
//Storyboard Layer 0 (Background)
//Storyboard Layer 1 (Fail)
//Storyboard Layer 2 (Pass)
//Storyboard Layer 3 (Foreground)
//Storyboard Sound Samples

[TimingPoints]
4,454.545454545455,4,1,0,80,1,0
69094,-100,4,1,0,80,0,1
90913,-100,4,1,0,80,0,0

[HitObjects]
256,192,1822,5,0,0:0:0:0:
256,192,1935,1,8,0:0:0:0:
256,192,2163,1,8,0:0:0:0:
256,192,2276,1,0,0:0:0:0:
256,192,2390,1,8,0:0:0:0:
256,192,2617,1,8,0:0:0:0:
256,192,2844,1,8,0:0:0:0:
256,192,3072,1,8,0:0:0:0:
256,192,3185,1,8,0:0:0:0:
256,192,3337,1,0,0:0:0:0:
256,192,3488,1,0,0:0:0:0:
256,192,3640,1,8,0:0:0:0:
256,192,5458,1,0,0:0:0:0:
256,192,5685,1,0,0:0:0:0:
256,192,5913,1,8,0:0:0:0:
256,192,6140,1,8,0:0:0:0:
256,192,6254,1,8,0:0:0:0:
256,192,6367,1,0,0:0:0:0:
256,192,6481,1,0,0:0:0:0:
256,192,6594,1,8,0:0:0:0:
256,192,6822,1,8,0:0:0:0:
256,192,6973,1,0,0:0:0:0:
256,192,7125,1,0,0:0:0:0:
256,192,7276,1,8,0:0:0:0:
256,192,9094,1,0,0:0:0:0:
256,192,9322,1,0,0:0:0:0:
256,192,9549,1,8,0:0:0:0:
256,192,9776,1,8,0:0:0:0:
256,192,9890,1,8,0:0:0:0:
256,192,10004,1,0,0:0:0:0:
256,192,10117,1,8,0:0:0:0:
256,192,10231,1,8,0:0:0:0:
256,192,10458,1,8,0:0:0:0:
256,192,10610,1,0,0:0:0:0:
256,192,10761,1,0,0:0:0:0:
256,192,10913,1,0,0:0:0:0:
256,192,11140,1,0,0:0:0:0:
256,192,11367,1,8,0:0:0:0:
256,192,11594,1,0,0:0:0:0:
256,192,11822,1,8,0:0:0:0:
256,192,11935,1,0,0:0:0:0:
256,192,12163,1,0,0:0:0:0:
256,192,12390,1,8,0:0:0:0:
256,192,12731,1,4,0:0:0:0:
256,192,12958,1,0,0:0:0:0:
256,192,13072,1,0,0:0:0:0:
256,192,13185,1,8,0:0:0:0:
256,192,13413,1,0,0:0:0:0:
256,192,13640,1,8,0:0:0:0:
256,192,13754,1,8,0:0:0:0:
256,192,13981,1,8,0:0:0:0:
256,192,14208,1,8,0:0:0:0:
256,192,14322,1,0,0:0:0:0:
256,192,14549,1,4,0:0:0:0:
256,192,15004,1,4,0:0:0:0:
256,192,15458,1,12,0:0:0:0:
256,192,15913,1,12,0:0:0:0:
256,192,16367,1,8,0:0:0:0:
256,192,16481,1,8,0:0:0:0:
256,192,16594,1,8,0:0:0:0:
256,192,16708,1,8,0:0:0:0:
256,192,16935,1,8,0:0:0:0:
256,192,17049,1,8,0:0:0:0:
256,192,17163,1,8,0:0:0:0:
256,192,17276,1,8,0:0:0:0:
256,192,17731,1,12,0:0:0:0:
256,192,18185,1,4,0:0:0:0:
256,192,18413,1,8,0:0:0:0:
256,192,18526,1,0,0:0:0:0:
256,192,18640,1,0,0:0:0:0:
256,192,18754,1,8,0:0:0:0:
256,192,18981,1,8,0:0:0:0:
256,192,19208,1,8,0:0:0:0:
256,192,19322,1,0,0:0:0:0:
256,192,19549,1,8,0:0:0:0:
256,192,19776,1,0,0:0:0:0:
256,192,20004,1,8,0:0:0:0:
256,192,20231,1,8,0:0:0:0:
256,192,20344,1,8,0:0:0:0:
256,192,20458,1,0,0:0:0:0:
256,192,20572,1,8,0:0:0:0:
256,192,20799,1,8,0:0:0:0:
256,192,21026,1,8,0:0:0:0:
256,192,21140,1,0,0:0:0:0:
256,192,21367,1,8,0:0:0:0:
256,192,21594,1,0,0:0:0:0:
256,192,21822,1,8,0:0:0:0:
256,192,22049,1,8,0:0:0:0:
256,192,22163,1,8,0:0:0:0:
256,192,22276,1,8,0:0:0:0:
256,192,22390,1,0,0:0:0:0:
256,192,22617,1,8,0:0:0:0:
256,192,22844,1,8,0:0:0:0:
256,192,22958,1,0,0:0:0:0:
256,192,23185,1,8,0:0:0:0:
256,192,23413,1,0,0:0:0:0:
256,192,23640,1,12,0:0:0:0:
256,192,24094,1,12,0:0:0:0:
256,192,24549,1,12,0:0:0:0:
256,192,25004,1,0,0:0:0:0:
256,192,25458,1,4,0:0:0:0:
256,192,25685,1,0,0:0:0:0:
256,192,25799,1,0,0:0:0:0:
256,192,25913,1,8,0:0:0:0:
256,192,26140,1,8,0:0:0:0:
256,192,26367,1,0,0:0:0:0:
256,192,26594,1,0,0:0:0:0:
256,192,26708,1,8,0:0:0:0:
256,192,26935,1,8,0:0:0:0:
256,192,27163,1,8,0:0:0:0:
256,192,27276,1,0,0:0:0:0:
256,192,27504,1,0,0:0:0:0:
256,192,27731,1,8,0:0:0:0:
256,192,27958,1,0,0:0:0:0:
256,192,28185,1,8,0:0:0:0:
256,192,28413,1,8,0:0:0:0:
256,192,28526,1,8,0:0:0:0:
256,192,28867,1,0,0:0:0:0:
256,192,29094,1,8,0:0:0:0:
256,192,29322,1,0,0:0:0:0:
256,192,29549,1,8,0:0:0:0:
256,192,29663,1,0,0:0:0:0:
256,192,29890,1,0,0:0:0:0:
256,192,30004,1,0,0:0:0:0:
256,192,30231,1,8,0:0:0:0:
256,192,30458,1,0,0:0:0:0:
256,192,30572,1,8,0:0:0:0:
256,192,30799,1,8,0:0:0:0:
256,192,30913,1,0,0:0:0:0:
256,192,31140,1,0,0:0:0:0:
256,192,31367,1,8,0:0:0:0:
256,192,31594,1,0,0:0:0:0:
256,192,31708,1,8,0:0:0:0:
256,192,31822,1,8,0:0:0:0:
256,192,32276,1,8,0:0:0:0:
256,192,32504,1,0,0:0:0:0:
256,192,32617,1,0,0:0:0:0:
256,192,32731,1,8,0:0:0:0:
256,192,32958,1,0,0:0:0:0:
256,192,33185,1,8,0:0:0:0:
256,192,33413,1,0,0:0:0:0:
256,192,33526,1,8,0:0:0:0:
256,192,33640,1,8,0:0:0:0:
256,192,33867,1,0,0:0:0:0:
256,192,34094,1,8,0:0:0:0:
256,192,34322,1,8,0:0:0:0:
256,192,34435,1,8,0:0:0:0:
256,192,34549,1,0,0:0:0:0:
256,192,34776,1,0,0:0:0:0:
256,192,35004,1,8,0:0:0:0:
256,192,35231,1,8,0:0:0:0:
256,192,35458,1,0,0:0:0:0:
256,192,35685,1,8,0:0:0:0:
256,192,36140,1,8,0:0:0:0:
256,192,36367,1,0,0:0:0:0:
256,192,36594,1,8,0:0:0:0:
256,192,36822,1,8,0:0:0:0:
256,192,37049,1,8,0:0:0:0:
256,192,37163,1,0,0:0:0:0:
256,192,37390,1,8,0:0:0:0:
256,192,37504,1,0,0:0:0:0:
256,192,37617,1,0,0:0:0:0:
256,192,37731,1,8,0:0:0:0:
256,192,37958,1,8,0:0:0:0:
256,192,38185,1,0,0:0:0:0:
256,192,38299,1,0,0:0:0:0:
256,192,38413,1,8,0:0:0:0:
256,192,38640,1,0,0:0:0:0:
256,192,38754,1,8,0:0:0:0:
256,192,38981,1,0,0:0:0:0:
256,192,39094,1,8,0:0:0:0:
256,192,39435,1,8,0:0:0:0:
256,192,39549,1,0,0:0:0:0:
256,192,39663,1,0,0:0:0:0:
256,192,39776,1,0,0:0:0:0:
256,192,40004,1,4,0:0:0:0:
256,192,40231,1,0,0:0:0:0:
256,192,40344,1,0,0:0:0:0:
256,192,40458,1,8,0:0:0:0:
256,192,40685,1,8,0:0:0:0:
256,192,40913,1,0,0:0:0:0:
256,192,41140,1,8,0:0:0:0:
256,192,41254,1,0,0:0:0:0:
256,192,41367,1,0,0:0:0:0:
256,192,41481,1,8,0:0:0:0:
256,192,41708,1,8,0:0:0:0:
256,192,41822,1,0,0:0:0:0:
256,192,42049,1,0,0:0:0:0:
256,192,42276,1,8,0:0:0:0:
256,192,42504,1,0,0:0:0:0:
256,192,42731,1,8,0:0:0:0:
256,192,42958,1,0,0:0:0:0:
256,192,43072,1,8,0:0:0:0:
256,192,43413,1,0,0:0:0:0:
256,192,43640,1,8,0:0:0:0:
256,192,43867,1,0,0:0:0:0:
256,192,44094,1,8,0:0:0:0:
256,192,44208,1,0,0:0:0:0:
256,192,44435,1,0,0:0:0:0:
256,192,44549,1,0,0:0:0:0:
256,192,44776,1,8,0:0:0:0:
256,192,45004,1,0,0:0:0:0:
256,192,45117,1,8,0:0:0:0:
256,192,45344,1,8,0:0:0:0:
256,192,45458,1,0,0:0:0:0:
256,192,45685,1,0,0:0:0:0:
256,192,45799,1,0,0:0:0:0:
256,192,45913,1,8,0:0:0:0:
256,192,46026,1,0,0:0:0:0:
256,192,46254,1,0,0:0:0:0:
256,192,46367,1,8,0:0:0:0:
256,192,46822,1,8,0:0:0:0:
256,192,47050,1,0,0:0:0:0:
256,192,47163,1,0,0:0:0:0:
256,192,47277,1,8,0:0:0:0:
256,192,47504,1,0,0:0:0:0:
256,192,47731,1,8,0:0:0:0:
256,192,47959,1,0,0:0:0:0:
256,192,48072,1,8,0:0:0:0:
256,192,48186,1,8,0:0:0:0:
256,192,48413,1,0,0:0:0:0:
256,192,48640,1,8,0:0:0:0:
256,192,48868,1,8,0:0:0:0:
256,192,48981,1,8,0:0:0:0:
256,192,49095,1,0,0:0:0:0:
256,192,49322,1,0,0:0:0:0:
256,192,49550,1,8,0:0:0:0:
256,192,49777,1,8,0:0:0:0:
256,192,50004,1,0,0:0:0:0:
256,192,50231,1,8,0:0:0:0:
256,192,50686,1,8,0:0:0:0:
256,192,50913,1,0,0:0:0:0:
256,192,51140,1,8,0:0:0:0:
256,192,51368,1,8,0:0:0:0:
256,192,51595,1,8,0:0:0:0:
256,192,51709,1,0,0:0:0:0:
256,192,51936,1,8,0:0:0:0:
256,192,52163,1,0,0:0:0:0:
256,192,52276,1,0,0:0:0:0:
256,192,52390,1,8,0:0:0:0:
256,192,52617,1,8,0:0:0:0:
256,192,52731,1,0,0:0:0:0:
256,192,52958,1,8,0:0:0:0:
256,192,53185,1,0,0:0:0:0:
256,192,53299,1,8,0:0:0:0:
256,192,53526,1,0,0:0:0:0:
256,192,53640,1,8,0:0:0:0:
256,192,53981,1,8,0:0:0:0:
256,192,54094,1,8,0:0:0:0:
256,192,54208,1,8,0:0:0:0:
256,192,54322,1,0,0:0:0:0:
256,192,54549,1,4,0:0:0:0:
256,192,54776,1,4,0:0:0:0:
256,192,55004,1,8,0:0:0:0:
256,192,55117,1,0,0:0:0:0:
256,192,55458,1,4,0:0:0:0:
256,192,56367,1,4,0:0:0:0:
256,192,56594,1,4,0:0:0:0:
256,192,56822,1,8,0:0:0:0:
256,192,56935,1,0,0:0:0:0:
256,192,57276,1,12,0:0:0:0:
256,192,57731,1,0,0:0:0:0:
256,192,57958,1,8,0:0:0:0:
256,192,58185,1,4,0:0:0:0:
256,192,58413,1,0,0:0:0:0:
256,192,58526,1,0,0:0:0:0:
256,192,58640,1,8,0:0:0:0:
256,192,58867,1,8,0:0:0:0:
256,192,59094,1,0,0:0:0:0:
256,192,59322,1,0,0:0:0:0:
256,192,59435,1,8,0:0:0:0:
256,192,59776,1,0,0:0:0:0:
256,192,60004,1,12,0:0:0:0:
256,192,60231,1,8,0:0:0:0:
256,192,60345,1,8,0:0:0:0:
256,192,60458,1,0,0:0:0:0:
256,192,60685,1,0,0:0:0:0:
256,192,60913,1,8,0:0:0:0:
256,192,61140,1,8,0:0:0:0:
256,192,61254,1,0,0:0:0:0:
256,192,61594,1,8,0:0:0:0:
256,192,61822,1,0,0:0:0:0:
256,192,62049,1,0,0:0:0:0:
256,192,62276,1,8,0:0:0:0:
256,192,62390,1,0,0:0:0:0:
256,192,62617,1,0,0:0:0:0:
256,192,62731,1,8,0:0:0:0:
256,192,62958,1,0,0:0:0:0:
256,192,63185,1,8,0:0:0:0:
256,192,63413,1,0,0:0:0:0:
256,192,63526,1,0,0:0:0:0:
256,192,63640,1,8,0:0:0:0:
256,192,64094,1,8,0:0:0:0:
256,192,64322,1,0,0:0:0:0:
256,192,64549,1,8,0:0:0:0:
256,192,64776,1,8,0:0:0:0:
256,192,65004,1,0,0:0:0:0:
256,192,65117,1,0,0:0:0:0:
256,192,65231,1,8,0:0:0:0:
256,192,65344,1,8,0:0:0:0:
256,192,65458,1,0,0:0:0:0:
256,192,65685,1,8,0:0:0:0:
256,192,65799,1,0,0:0:0:0:
256,192,66026,1,0,0:0:0:0:
256,192,66140,1,8,0:0:0:0:
256,192,66254,1,8,0:0:0:0:
256,192,66367,1,0,0:0:0:0:
256,192,66594,1,0,0:0:0:0:
256,192,66708,1,8,0:0:0:0:
256,192,66822,1,8,0:0:0:0:
256,192,66935,1,0,0:0:0:0:
256,192,67049,1,0,0:0:0:0:
256,192,67163,1,0,0:0:0:0:
256,192,68185,1,4,0:0:0:0:
256,192,68640,1,12,0:0:0:0:
256,192,69094,1,4,0:0:0:0:
256,192,69322,1,0,0:0:0:0:
256,192,69435,1,0,0:0:0:0:
256,192,69549,1,8,0:0:0:0:
256,192,69776,1,8,0:0:0:0:
256,192,70004,1,0,0:0:0:0:
256,192,70117,1,8,0:0:0:0:
256,192,70344,1,0,0:0:0:0:
256,192,70685,1,8,0:0:0:0:
256,192,70799,1,0,0:0:0:0:
256,192,70913,1,0,0:0:0:0:
256,192,71140,1,0,0:0:0:0:
256,192,71367,1,8,0:0:0:0:
256,192,71481,1,0,0:0:0:0:
256,192,71594,1,8,0:0:0:0:
256,192,71708,1,8,0:0:0:0:
256,192,71822,1,0,0:0:0:0:
256,192,72049,1,0,0:0:0:0:
256,192,72163,1,8,0:0:0:0:
256,192,72504,1,8,0:0:0:0:
256,192,72617,1,8,0:0:0:0:
256,192,72731,1,0,0:0:0:0:
256,192,72958,1,0,0:0:0:0:
256,192,73185,1,8,0:0:0:0:
256,192,73413,1,0,0:0:0:0:
256,192,73526,1,0,0:0:0:0:
256,192,73640,1,8,0:0:0:0:
256,192,73867,1,0,0:0:0:0:
256,192,74094,1,8,0:0:0:0:
256,192,74322,1,8,0:0:0:0:
256,192,74549,1,4,0:0:0:0:
256,192,75004,1,4,0:0:0:0:
256,192,75458,1,4,0:0:0:0:
256,192,75685,1,0,0:0:0:0:
256,192,75799,1,8,0:0:0:0:
256,192,75913,1,8,0:0:0:0:
256,192,76367,1,4,0:0:0:0:
256,192,76595,1,8,0:0:0:0:
256,192,76708,1,0,0:0:0:0:
256,192,76822,1,8,0:0:0:0:
256,192,77049,1,8,0:0:0:0:
256,192,77277,1,0,0:0:0:0:
256,192,77390,1,8,0:0:0:0:
256,192,77617,1,0,0:0:0:0:
256,192,77958,1,8,0:0:0:0:
256,192,78072,1,0,0:0:0:0:
256,192,78186,1,0,0:0:0:0:
256,192,78413,1,0,0:0:0:0:
256,192,78640,1,8,0:0:0:0:
256,192,78754,1,0,0:0:0:0:
256,192,78867,1,8,0:0:0:0:
256,192,78981,1,8,0:0:0:0:
256,192,79095,1,0,0:0:0:0:
256,192,79322,1,0,0:0:0:0:
256,192,79436,1,8,0:0:0:0:
256,192,79777,1,8,0:0:0:0:
256,192,79890,1,8,0:0:0:0:
256,192,80004,1,0,0:0:0:0:
256,192,80231,1,0,0:0:0:0:
256,192,80458,1,8,0:0:0:0:
256,192,80686,1,0,0:0:0:0:
256,192,80799,1,8,0:0:0:0:
256,192,80913,1,0,0:0:0:0:
256,192,81140,1,0,0:0:0:0:
256,192,81367,1,8,0:0:0:0:
256,192,81481,1,8,0:0:0:0:
256,192,81708,1,8,0:0:0:0:
256,192,81822,1,0,0:0:0:0:
256,192,81935,1,0,0:0:0:0:
256,192,82049,1,8,0:0:0:0:
256,192,82276,1,8,0:0:0:0:
256,192,82390,1,0,0:0:0:0:
256,192,82617,1,0,0:0:0:0:
256,192,82731,1,8,0:0:0:0:
256,192,82958,1,8,0:0:0:0:
256,192,83071,1,8,0:0:0:0:
256,192,83185,1,0,0:0:0:0:
256,192,83413,1,8,0:0:0:0:
256,192,83640,1,4,0:0:0:0:
256,192,84094,1,4,0:0:0:0:
256,192,84549,1,12,0:0:0:0:
256,192,84776,1,0,0:0:0:0:
256,192,84890,1,8,0:0:0:0:
256,192,85117,1,8,0:0:0:0:
256,192,85344,1,12,0:0:0:0:
256,192,85685,1,0,0:0:0:0:
256,192,85799,1,0,0:0:0:0:
256,192,85913,1,8,0:0:0:0:
256,192,86140,1,0,0:0:0:0:
256,192,86254,1,8,0:0:0:0:
256,192,86481,1,8,0:0:0:0:
256,192,86594,1,0,0:0:0:0:
256,192,86822,1,8,0:0:0:0:
256,192,87049,1,8,0:0:0:0:
256,192,87276,1,4,0:0:0:0:
256,192,87731,1,4,0:0:0:0:
256,192,88185,1,12,0:0:0:0:
256,192,88413,1,0,0:0:0:0:
256,192,88526,1,8,0:0:0:0:
256,192,88754,1,8,0:0:0:0:
256,192,88981,1,8,0:0:0:0:
256,192,90458,1,12,0:0:0:0:
256,192,90913,1,4,0:0:0:0:
256,192,91140,1,0,0:0:0:0:
256,192,91254,1,0,0:0:0:0:
256,192,91367,1,8,0:0:0:0:
256,192,91594,1,0,0:0:0:0:
256,192,91708,1,8,0:0:0:0:
256,192,91935,1,8,0:0:0:0:
256,192,92049,1,0,0:0:0:0:
256,192,92276,1,8,0:0:0:0:
256,192,92504,1,0,0:0:0:0:
256,192,92731,1,8,0:0:0:0:
256,192,92958,1,0,0:0:0:0:
256,192,93072,1,8,0:0:0:0:
256,192,93185,1,8,0:0:0:0:
256,192,93413,1,0,0:0:0:0:
256,192,93526,1,8,0:0:0:0:
256,192,93754,1,8,0:0:0:0:
256,192,93867,1,0,0:0:0:0:
256,192,94094,1,8,0:0:0:0:
256,192,94322,1,8,0:0:0:0:
256,192,94549,1,0,0:0:0:0:
256,192,94776,1,0,0:0:0:0:
256,192,94890,1,0,0:0:0:0:
256,192,95004,1,8,0:0:0:0:
256,192,95231,1,0,0:0:0:0:
256,192,95344,1,8,0:0:0:0:
256,192,95572,1,8,0:0:0:0:
256,192,95685,1,0,0:0:0:0:
256,192,95913,1,8,0:0:0:0:
256,192,96140,1,8,0:0:0:0:
256,192,96367,1,4,0:0:0:0:
256,192,96822,1,4,0:0:0:0:
256,192,97276,1,4,0:0:0:0:
256,192,97504,1,8,0:0:0:0:
256,192,97617,1,8,0:0:0:0:
256,192,97731,1,8,0:0:0:0:
256,192,97958,1,8,0:0:0:0:
256,192,98185,1,4,0:0:0:0:
256,192,98413,1,0,0:0:0:0:
256,192,98526,1,0,0:0:0:0:
256,192,98640,1,8,0:0:0:0:
256,192,98867,1,0,0:0:0:0:
256,192,98981,1,8,0:0:0:0:
256,192,99208,1,8,0:0:0:0:
256,192,99322,1,0,0:0:0:0:
256,192,99549,1,8,0:0:0:0:
256,192,99663,1,8,0:0:0:0:
256,192,99890,1,8,0:0:0:0:
256,192,100004,1,0,0:0:0:0:
256,192,100231,1,0,0:0:0:0:
256,192,100458,1,8,0:0:0:0:
256,192,100572,1,8,0:0:0:0:
256,192,100685,1,0,0:0:0:0:
256,192,100799,1,8,0:0:0:0:
256,192,101026,1,0,0:0:0:0:
256,192,101140,1,8,0:0:0:0:
256,192,101367,1,0,0:0:0:0:
256,192,101594,1,8,0:0:0:0:
256,192,101708,1,8,0:0:0:0:
256,192,101935,1,0,0:0:0:0:
256,192,102049,1,8,0:0:0:0:
256,192,102276,1,0,0:0:0:0:
256,192,102504,1,8,0:0:0:0:
256,192,102617,1,0,0:0:0:0:
256,192,102844,1,0,0:0:0:0:
256,192,103072,1,8,0:0:0:0:
256,192,103185,1,0,0:0:0:0:
256,192,103299,1,0,0:0:0:0:
256,192,103413,1,8,0:0:0:0:
256,192,103640,1,4,0:0:0:0:
256,192,104094,1,4,0:0:0:0:
256,192,104549,1,12,0:0:0:0:
256,192,104776,1,8,0:0:0:0:
256,192,104890,1,0,0:0:0:0:
256,192,105117,1,0,0:0:0:0:
256,192,105344,1,4,0:0:0:0:
256,192,105913,1,12,0:0:0:0:
