osu file format v14

[General]
AudioFilename: audio.mp3
AudioLeadIn: 0
PreviewTime: 67276
Countdown: 0
SampleSet: Normal
StackLeniency: 0.7
Mode: 1
LetterboxInBreaks: 0
WidescreenStoryboard: 0

[Editor]
DistanceSpacing: 1.7
BeatDivisor: 4
GridSize: 32
TimelineZoom: 1.3

[Metadata]
Title:Sugar Song and Bitter Step
TitleUnicode:シュガーソングとビターステップ
Artist:Hello, Happy World!
ArtistUnicode:ハロー、ハッピーワールド!
Creator:toara_fict
Version:Kantan
Source:バンドリ!ガールズバンドパーティ!
Tags:BanG Dream! Cover yuzu__rinrin Akemi_Homura Charlotte UNISON SQUARE GARDEN Girls Band Party! Hello, Happy World! Tsurumaki Kokoro 弦巻 こころ Okusawa Misaki 奥沢美咲 Michelle 奥沢 美咲 Seta Kaoru 瀬田 薫 Matsubara Kanon 松原 花音 Kitazawa Hagumi 北沢 はぐみ Miku Itou 美来 伊藤 Kurosawa Tomoyo 黒沢 ともよ Tadokoro Azusa 田所 あずさ Toyota Moe 豊田 萌絵 Yoshida Yuri 有里 吉田
BeatmapID:1282935
BeatmapSetID:606276

[Difficulty]
HPDrainRate:7
CircleSize:6
OverallDifficulty:4
ApproachRate:9
SliderMultiplier:1.4
SliderTickRate:1

[Events]
//Background and Video events
0,0,"adafsdgf.png",0,70
//Break Periods
//Storyboard Layer 0 (Background)
//Storyboard Layer 1 (Fail)
//Storyboard Layer 2 (Pass)
//Storyboard Layer 3 (Foreground)
//Storyboard Sound Samples

[TimingPoints]
4,454.545454545455,4,1,0,80,1,0
69094,-100,4,1,0,80,0,1
90913,-100,4,1,0,80,0,0

[HitObjects]
288,160,1822,5,0,0:0:0:0:
224,224,3640,1,12,0:0:0:0:
286,161,5458,1,0,0:0:0:0:
224,160,5913,1,8,0:0:0:0:
286,161,6367,1,0,0:0:0:0:
224,224,7276,1,12,0:0:0:0:
224,160,9094,1,0,0:0:0:0:
224,160,9549,1,8,0:0:0:0:
288,160,10004,1,0,0:0:0:0:
224,224,10913,1,12,0:0:0:0:
224,160,11822,1,0,0:0:0:0:
224,224,12276,1,8,0:0:0:0:
288,160,12731,1,4,0:0:0:0:
288,160,13640,1,8,0:0:0:0:
288,160,14094,1,8,0:0:0:0:
288,160,14549,1,4,0:0:0:0:
288,160,15458,1,4,0:0:0:0:
64,160,16367,2,0,L|0:160,8,35
224,224,17731,1,12,0:0:0:0:
288,224,18185,1,4,0:0:0:0:
224,160,19094,1,8,0:0:0:0:
288,160,20004,1,0,0:0:0:0:
288,160,20458,1,0,0:0:0:0:
224,160,20913,1,8,0:0:0:0:
288,160,21822,1,0,0:0:0:0:
288,160,22731,1,8,0:0:0:0:
224,160,23185,1,0,0:0:0:0:
288,224,23640,1,12,0:0:0:0:
288,224,25458,1,4,0:0:0:0:
288,160,26367,1,0,0:0:0:0:
192,160,27276,1,8,0:0:0:0:
192,160,27731,1,0,0:0:0:0:
192,160,28185,1,8,0:0:0:0:
288,160,29094,1,0,0:0:0:0:
192,160,30004,1,8,0:0:0:0:
288,160,30913,1,0,0:0:0:0:
288,160,31367,1,0,0:0:0:0:
192,160,31822,1,8,0:0:0:0:
288,160,32731,1,0,0:0:0:0:
192,160,33640,1,8,0:0:0:0:
288,160,34549,1,0,0:0:0:0:
192,160,35004,1,8,0:0:0:0:
192,160,35458,1,8,0:0:0:0:
288,160,36367,1,0,0:0:0:0:
288,160,37276,1,0,0:0:0:0:
160,192,38185,2,0,L|96:192,8,35
288,224,40004,1,4,0:0:0:0:
288,160,40913,1,0,0:0:0:0:
224,160,41822,1,8,0:0:0:0:
224,160,42276,1,0,0:0:0:0:
192,160,42731,1,8,0:0:0:0:
288,160,43640,1,0,0:0:0:0:
192,160,44550,1,8,0:0:0:0:
288,160,45459,1,0,0:0:0:0:
288,160,45913,1,0,0:0:0:0:
192,160,46368,1,8,0:0:0:0:
288,160,47277,1,0,0:0:0:0:
192,160,48186,1,8,0:0:0:0:
288,160,49094,1,0,0:0:0:0:
192,160,49550,1,8,0:0:0:0:
192,160,50004,1,8,0:0:0:0:
288,160,50913,1,0,0:0:0:0:
192,160,51367,1,8,0:0:0:0:
288,160,51822,1,0,0:0:0:0:
192,160,52731,1,8,0:0:0:0:
288,224,54549,1,4,0:0:0:0:
224,224,56367,1,12,0:0:0:0:
320,224,58185,1,0,0:0:0:0:
192,160,58640,1,0,0:0:0:0:
192,160,59094,1,0,0:0:0:0:
320,224,60004,1,8,0:0:0:0:
192,160,60459,1,8,0:0:0:0:
192,160,60913,1,8,0:0:0:0:
192,160,61822,1,4,0:0:0:0:
192,160,62731,1,8,0:0:0:0:
288,160,63640,1,0,0:0:0:0:
288,160,64549,1,0,0:0:0:0:
192,160,65004,1,8,0:0:0:0:
288,224,65458,1,4,0:0:0:0:
192,160,66367,1,0,0:0:0:0:
288,160,67276,1,8,0:0:0:0:
288,160,68185,1,4,0:0:0:0:
288,160,69094,1,4,0:0:0:0:
224,160,70004,1,8,0:0:0:0:
288,160,70913,1,0,0:0:0:0:
224,160,71367,1,8,0:0:0:0:
320,160,71822,1,0,0:0:0:0:
192,160,72731,1,8,0:0:0:0:
320,160,73640,1,0,0:0:0:0:
192,256,74549,1,12,0:0:0:0:
192,256,75004,1,12,0:0:0:0:
192,224,75458,1,4,0:0:0:0:
320,224,76367,1,4,0:0:0:0:
288,160,77277,1,0,0:0:0:0:
288,160,77731,1,0,0:0:0:0:
192,160,78185,1,8,0:0:0:0:
320,160,79095,1,8,0:0:0:0:
192,160,80004,1,8,0:0:0:0:
320,160,80458,1,0,0:0:0:0:
192,160,80913,1,8,0:0:0:0:
192,256,81822,1,8,0:0:0:0:
320,160,82731,1,8,0:0:0:0:
320,160,83185,1,8,0:0:0:0:
192,224,83640,1,4,0:0:0:0:
320,160,84549,1,0,0:0:0:0:
320,256,85344,1,4,0:0:0:0:
192,160,86367,1,8,0:0:0:0:
192,256,87276,1,12,0:0:0:0:
192,256,88185,1,8,0:0:0:0:
320,256,88981,1,4,0:0:0:0:
288,224,90913,1,4,0:0:0:0:
288,160,91822,1,0,0:0:0:0:
224,160,92277,1,8,0:0:0:0:
288,160,92732,1,0,0:0:0:0:
288,160,93640,1,8,0:0:0:0:
288,160,94549,1,8,0:0:0:0:
224,224,95004,1,8,0:0:0:0:
288,160,95458,1,0,0:0:0:0:
288,224,96368,1,4,0:0:0:0:
288,160,97276,1,4,0:0:0:0:
288,224,98185,1,4,0:0:0:0:
288,160,99094,1,0,0:0:0:0:
288,160,99549,1,0,0:0:0:0:
288,160,100004,1,8,0:0:0:0:
288,160,100913,1,8,0:0:0:0:
224,160,101821,1,8,0:0:0:0:
224,224,102276,1,0,0:0:0:0:
288,160,102731,1,8,0:0:0:0:
288,224,103640,1,4,0:0:0:0:
288,224,104549,1,12,0:0:0:0:
224,224,105913,1,12,0:0:0:0:
