osu file format v14

[General]
AudioFilename: audio.mp3
AudioLeadIn: 0
PreviewTime: 67276
Countdown: 0
SampleSet: Normal
StackLeniency: 0.7
Mode: 1
LetterboxInBreaks: 0
WidescreenStoryboard: 0

[Editor]
Bookmarks: 1822,1935,1992,2049,2163,2276,2390,2447,2504,2617,2882,3072,3185,3337,3488,3640,10458,17276,17352,17428,17504,17579,17655,17731,39094,39322,39397,39473,39549,50004,50117,50231,55458,57276,57504,57579,57655,57731,66594,66670,66746,66822,66935,67049,67163,75913,83072,83129,83185
DistanceSpacing: 1.7
BeatDivisor: 4
GridSize: 32
TimelineZoom: 3.799998

[Metadata]
Title:Sugar Song and Bitter Step
TitleUnicode:シュガーソングとビターステップ
Artist:Hello, Happy World!
ArtistUnicode:ハロー、ハッピーワールド!
Creator:toara_fict
Version:Inner Oni
Source:バンドリ!ガールズバンドパーティ!
Tags:BanG Dream! Cover yuzu__rinrin Akemi_Homura Charlotte UNISON SQUARE GARDEN Girls Band Party! Hello, Happy World! Tsurumaki Kokoro 弦巻 こころ Okusawa Misaki 奥沢美咲 Michelle 奥沢 美咲 Seta Kaoru 瀬田 薫 Matsubara Kanon 松原 花音 Kitazawa Hagumi 北沢 はぐみ Miku Itou 美来 伊藤 Kurosawa Tomoyo 黒沢 ともよ Tadokoro Azusa 田所 あずさ Toyota Moe 豊田 萌絵 Yoshida Yuri 有里 吉田
BeatmapID:1280850
BeatmapSetID:606276

[Difficulty]
HPDrainRate:6
CircleSize:6
OverallDifficulty:6
ApproachRate:9
SliderMultiplier:1.4
SliderTickRate:1

[Events]
//Background and Video events
0,0,"adafsdgf.png",0,70
//Break Periods
//Storyboard Layer 0 (Background)
//Storyboard Layer 1 (Fail)
//Storyboard Layer 2 (Pass)
//Storyboard Layer 3 (Foreground)
//Storyboard Sound Samples

[TimingPoints]
4,454.545454545455,4,1,0,80,1,0
69094,-100,4,1,0,80,0,1
90913,-100,4,1,0,80,0,0

[HitObjects]
288,160,1822,5,0,0:0:0:0:
288,160,1935,1,8,0:0:0:0:
224,160,1992,1,8,0:0:0:0:
224,160,2049,1,8,0:0:0:0:
288,160,2163,1,8,0:0:0:0:
288,160,2276,1,0,0:0:0:0:
224,160,2390,1,8,0:0:0:0:
224,160,2447,1,8,0:0:0:0:
224,160,2504,1,8,0:0:0:0:
288,160,2617,1,8,0:0:0:0:
224,160,2882,1,8,0:0:0:0:
224,160,3072,1,8,0:0:0:0:
224,160,3185,1,8,0:0:0:0:
288,160,3337,1,0,0:0:0:0:
288,160,3488,1,0,0:0:0:0:
224,224,3640,1,12,0:0:0:0:
286,161,5458,1,0,0:0:0:0:
224,160,5685,1,0,0:0:0:0:
224,160,5913,1,8,0:0:0:0:
224,160,6140,1,8,0:0:0:0:
224,160,6254,1,8,0:0:0:0:
286,161,6367,1,0,0:0:0:0:
286,161,6481,1,0,0:0:0:0:
288,160,6594,1,8,0:0:0:0:
224,160,6822,1,8,0:0:0:0:
288,160,6973,1,0,0:0:0:0:
288,160,7125,1,0,0:0:0:0:
224,224,7276,1,12,0:0:0:0:
288,160,9094,1,0,0:0:0:0:
224,160,9322,1,0,0:0:0:0:
224,160,9549,1,8,0:0:0:0:
224,160,9776,1,8,0:0:0:0:
224,160,9890,1,8,0:0:0:0:
288,160,10004,1,0,0:0:0:0:
288,160,10117,1,0,0:0:0:0:
224,160,10231,1,8,0:0:0:0:
288,160,10458,1,0,0:0:0:0:
288,160,10610,1,0,0:0:0:0:
288,160,10761,1,0,0:0:0:0:
224,224,10913,1,12,0:0:0:0:
288,160,11140,1,0,0:0:0:0:
288,160,11367,1,0,0:0:0:0:
288,160,11594,1,0,0:0:0:0:
224,160,11708,1,8,0:0:0:0:
224,160,11822,1,8,0:0:0:0:
288,160,11935,1,0,0:0:0:0:
288,160,12163,1,0,0:0:0:0:
224,224,12276,1,8,0:0:0:0:
224,160,12504,1,8,0:0:0:0:
288,160,12731,1,4,0:0:0:0:
288,160,12958,1,0,0:0:0:0:
224,160,13185,1,8,0:0:0:0:
288,160,13413,1,0,0:0:0:0:
288,160,13640,1,8,0:0:0:0:
288,160,13754,1,0,0:0:0:0:
224,160,13981,1,8,0:0:0:0:
288,160,14094,1,0,0:0:0:0:
288,160,14208,1,0,0:0:0:0:
224,160,14322,1,8,0:0:0:0:
288,160,14549,1,4,0:0:0:0:
288,160,15004,1,4,0:0:0:0:
288,160,15458,1,4,0:0:0:0:
288,160,15913,1,12,0:0:0:0:
224,160,16367,1,8,0:0:0:0:
224,160,16481,1,8,0:0:0:0:
224,160,16594,1,8,0:0:0:0:
224,160,16708,1,0,0:0:0:0:
224,160,16935,1,8,0:0:0:0:
224,160,17049,1,8,0:0:0:0:
288,160,17162,1,8,0:0:0:0:
224,160,17276,1,0,0:0:0:0:
288,160,17352,1,0,0:0:0:0:
288,160,17428,1,0,0:0:0:0:
288,160,17504,1,8,0:0:0:0:
224,224,17731,1,12,0:0:0:0:
288,224,18185,1,4,0:0:0:0:
224,160,18413,1,8,0:0:0:0:
288,160,18640,1,0,0:0:0:0:
224,160,18754,1,0,0:0:0:0:
224,160,18867,1,8,0:0:0:0:
288,160,18981,1,0,0:0:0:0:
288,160,19208,1,0,0:0:0:0:
224,160,19322,1,8,0:0:0:0:
288,160,19549,1,0,0:0:0:0:
224,160,19776,1,8,0:0:0:0:
288,160,20004,1,0,0:0:0:0:
288,160,20117,1,0,0:0:0:0:
224,160,20231,1,8,0:0:0:0:
288,160,20458,1,0,0:0:0:0:
288,160,20572,1,0,0:0:0:0:
224,160,20685,1,8,0:0:0:0:
288,160,20799,1,0,0:0:0:0:
288,160,21026,1,0,0:0:0:0:
224,160,21140,1,8,0:0:0:0:
288,160,21367,1,0,0:0:0:0:
288,160,21481,1,0,0:0:0:0:
288,160,21594,1,8,0:0:0:0:
288,160,21708,1,8,0:0:0:0:
288,160,21822,1,0,0:0:0:0:
224,160,22049,1,8,0:0:0:0:
288,160,22163,1,0,0:0:0:0:
288,160,22276,1,0,0:0:0:0:
224,224,22390,1,8,0:0:0:0:
288,160,22617,1,8,0:0:0:0:
288,160,22844,1,0,0:0:0:0:
224,160,22958,1,8,0:0:0:0:
224,160,23185,1,8,0:0:0:0:
288,160,23413,1,0,0:0:0:0:
288,224,23640,1,12,0:0:0:0:
288,224,24094,1,12,0:0:0:0:
288,224,24549,1,12,0:0:0:0:
288,224,25004,1,0,0:0:0:0:
288,224,25458,1,4,0:0:0:0:
224,160,25685,1,8,0:0:0:0:
288,160,25913,1,0,0:0:0:0:
288,160,26026,1,0,0:0:0:0:
224,160,26140,1,8,0:0:0:0:
288,160,26367,1,0,0:0:0:0:
224,160,26594,1,8,0:0:0:0:
288,160,26708,1,8,0:0:0:0:
288,160,26822,1,0,0:0:0:0:
224,160,27049,1,8,0:0:0:0:
288,160,27276,1,0,0:0:0:0:
288,160,27504,1,0,0:0:0:0:
288,160,27617,1,0,0:0:0:0:
192,160,27731,1,8,0:0:0:0:
288,160,27958,1,0,0:0:0:0:
192,160,28185,1,8,0:0:0:0:
192,160,28413,1,8,0:0:0:0:
192,160,28526,1,0,0:0:0:0:
192,160,28754,1,0,0:0:0:0:
192,160,28867,1,8,0:0:0:0:
192,160,28981,1,8,0:0:0:0:
288,160,29094,1,0,0:0:0:0:
192,160,29322,1,8,0:0:0:0:
192,160,29549,1,0,0:0:0:0:
192,160,29663,1,0,0:0:0:0:
192,160,29890,1,8,0:0:0:0:
288,160,30004,1,0,0:0:0:0:
192,160,30231,1,8,0:0:0:0:
192,160,30458,1,0,0:0:0:0:
192,160,30572,1,8,0:0:0:0:
288,160,30799,1,8,0:0:0:0:
288,160,30913,1,0,0:0:0:0:
288,160,31140,1,0,0:0:0:0:
288,160,31254,1,0,0:0:0:0:
192,160,31367,1,8,0:0:0:0:
192,160,31594,1,8,0:0:0:0:
192,160,31708,1,8,0:0:0:0:
288,160,31822,1,0,0:0:0:0:
288,160,32049,1,8,0:0:0:0:
192,160,32276,1,8,0:0:0:0:
192,160,32390,1,8,0:0:0:0:
288,160,32504,1,0,0:0:0:0:
192,160,32617,1,8,0:0:0:0:
288,160,32731,1,0,0:0:0:0:
288,160,32958,1,0,0:0:0:0:
192,160,33185,1,8,0:0:0:0:
288,160,33413,1,0,0:0:0:0:
288,160,33526,1,0,0:0:0:0:
192,160,33640,1,8,0:0:0:0:
288,160,33867,1,0,0:0:0:0:
192,160,34094,1,8,0:0:0:0:
192,160,34322,1,8,0:0:0:0:
288,160,34549,1,0,0:0:0:0:
288,160,34776,1,0,0:0:0:0:
288,160,34890,1,0,0:0:0:0:
192,160,35004,1,8,0:0:0:0:
288,160,35231,1,0,0:0:0:0:
192,160,35458,1,8,0:0:0:0:
192,160,35685,1,8,0:0:0:0:
288,160,35913,1,0,0:0:0:0:
192,160,36140,1,8,0:0:0:0:
288,160,36254,1,8,0:0:0:0:
288,160,36367,1,0,0:0:0:0:
288,160,36594,1,0,0:0:0:0:
192,160,36822,1,8,0:0:0:0:
192,160,37049,1,8,0:0:0:0:
192,160,37163,1,0,0:0:0:0:
288,160,37390,1,0,0:0:0:0:
288,160,37504,1,8,0:0:0:0:
192,160,37731,1,8,0:0:0:0:
288,160,37958,1,0,0:0:0:0:
192,160,38185,1,8,0:0:0:0:
192,160,38299,1,8,0:0:0:0:
192,160,38413,1,0,0:0:0:0:
288,160,38526,1,8,0:0:0:0:
288,160,38754,1,8,0:0:0:0:
192,160,38867,1,0,0:0:0:0:
288,160,39094,1,0,0:0:0:0:
288,160,39322,1,0,0:0:0:0:
288,160,39435,1,8,0:0:0:0:
288,160,39549,1,0,0:0:0:0:
192,160,39663,1,0,0:0:0:0:
192,160,39776,1,8,0:0:0:0:
288,224,40004,1,4,0:0:0:0:
224,160,40231,1,8,0:0:0:0:
288,160,40459,1,0,0:0:0:0:
288,160,40572,1,0,0:0:0:0:
224,160,40686,1,8,0:0:0:0:
288,160,40913,1,0,0:0:0:0:
224,160,41140,1,8,0:0:0:0:
224,160,41254,1,8,0:0:0:0:
224,160,41367,1,0,0:0:0:0:
224,160,41481,1,8,0:0:0:0:
224,160,41708,1,8,0:0:0:0:
288,160,41822,1,0,0:0:0:0:
288,160,42050,1,0,0:0:0:0:
288,160,42163,1,0,0:0:0:0:
192,160,42277,1,8,0:0:0:0:
288,160,42504,1,0,0:0:0:0:
192,160,42731,1,8,0:0:0:0:
192,160,42959,1,8,0:0:0:0:
192,160,43072,1,0,0:0:0:0:
192,160,43186,1,8,0:0:0:0:
192,160,43413,1,8,0:0:0:0:
288,160,43640,1,0,0:0:0:0:
288,160,43868,1,0,0:0:0:0:
288,160,43981,1,0,0:0:0:0:
192,160,44095,1,8,0:0:0:0:
288,160,44209,1,0,0:0:0:0:
288,160,44435,1,0,0:0:0:0:
192,160,44550,1,8,0:0:0:0:
192,160,44777,1,8,0:0:0:0:
192,160,45004,1,0,0:0:0:0:
288,160,45117,1,8,0:0:0:0:
192,160,45344,1,8,0:0:0:0:
192,160,45459,1,0,0:0:0:0:
288,160,45686,1,0,0:0:0:0:
288,160,45800,1,0,0:0:0:0:
192,160,45913,1,8,0:0:0:0:
192,160,46026,1,0,0:0:0:0:
288,160,46254,1,0,0:0:0:0:
192,160,46368,1,8,0:0:0:0:
288,160,46595,1,8,0:0:0:0:
192,160,46822,1,8,0:0:0:0:
192,160,46936,1,8,0:0:0:0:
288,160,47050,1,0,0:0:0:0:
192,160,47163,1,8,0:0:0:0:
288,160,47277,1,0,0:0:0:0:
288,160,47504,1,0,0:0:0:0:
192,160,47731,1,8,0:0:0:0:
288,160,47959,1,0,0:0:0:0:
192,160,48072,1,8,0:0:0:0:
288,160,48186,1,0,0:0:0:0:
288,160,48413,1,0,0:0:0:0:
192,160,48640,1,8,0:0:0:0:
288,160,48868,1,0,0:0:0:0:
288,160,48981,1,0,0:0:0:0:
192,160,49095,1,8,0:0:0:0:
288,160,49322,1,0,0:0:0:0:
192,160,49550,1,8,0:0:0:0:
192,160,49777,1,8,0:0:0:0:
288,160,49890,1,8,0:0:0:0:
288,160,50004,1,0,0:0:0:0:
192,160,50231,1,8,0:0:0:0:
192,160,50459,1,8,0:0:0:0:
192,160,50686,1,0,0:0:0:0:
192,160,50800,1,8,0:0:0:0:
288,160,50913,1,0,0:0:0:0:
192,160,51140,1,8,0:0:0:0:
192,160,51367,1,0,0:0:0:0:
192,160,51595,1,8,0:0:0:0:
288,160,51709,1,0,0:0:0:0:
288,160,51935,1,0,0:0:0:0:
288,160,52162,1,8,0:0:0:0:
288,160,52276,1,0,0:0:0:0:
288,160,52390,1,0,0:0:0:0:
192,160,52504,1,8,0:0:0:0:
192,160,52731,1,8,0:0:0:0:
192,160,52845,1,8,0:0:0:0:
288,160,52958,1,0,0:0:0:0:
288,160,53072,1,8,0:0:0:0:
192,160,53186,1,0,0:0:0:0:
288,160,53300,1,8,0:0:0:0:
288,160,53413,1,8,0:0:0:0:
192,160,53527,1,0,0:0:0:0:
288,160,53640,1,8,0:0:0:0:
288,160,53868,1,0,0:0:0:0:
192,160,53981,1,8,0:0:0:0:
192,160,54094,1,8,0:0:0:0:
288,160,54208,1,0,0:0:0:0:
192,160,54322,1,8,0:0:0:0:
288,224,54549,1,4,0:0:0:0:
288,224,54776,1,4,0:0:0:0:
288,160,55117,1,0,0:0:0:0:
192,224,55458,1,12,0:0:0:0:
288,224,56367,1,4,0:0:0:0:
288,224,56594,1,4,0:0:0:0:
288,224,56935,1,0,0:0:0:0:
192,224,57276,1,12,0:0:0:0:
192,160,57504,1,0,0:0:0:0:
192,160,57579,1,0,0:0:0:0:
192,160,57655,1,0,0:0:0:0:
288,160,57731,1,8,0:0:0:0:
320,224,58185,1,4,0:0:0:0:
192,160,58413,1,8,0:0:0:0:
288,160,58526,1,0,0:0:0:0:
192,160,58640,1,8,0:0:0:0:
288,160,58754,1,0,0:0:0:0:
192,160,58867,1,8,0:0:0:0:
192,160,59094,1,8,0:0:0:0:
192,160,59322,1,8,0:0:0:0:
288,160,59436,1,0,0:0:0:0:
288,160,59663,1,0,0:0:0:0:
192,160,59776,1,8,0:0:0:0:
320,224,60004,1,4,0:0:0:0:
192,160,60232,1,8,0:0:0:0:
288,160,60345,1,0,0:0:0:0:
192,160,60459,1,8,0:0:0:0:
288,160,60573,1,0,0:0:0:0:
192,160,60686,1,8,0:0:0:0:
192,160,60913,1,8,0:0:0:0:
192,160,61027,1,8,0:0:0:0:
192,160,61141,1,0,0:0:0:0:
288,160,61255,1,0,0:0:0:0:
288,160,61482,1,0,0:0:0:0:
192,160,61595,1,8,0:0:0:0:
192,160,61822,1,4,0:0:0:0:
192,160,62049,1,8,0:0:0:0:
288,160,62276,1,0,0:0:0:0:
192,160,62390,1,8,0:0:0:0:
192,160,62617,1,8,0:0:0:0:
288,160,62731,1,0,0:0:0:0:
192,160,62958,1,8,0:0:0:0:
288,160,63185,1,0,0:0:0:0:
288,160,63299,1,0,0:0:0:0:
192,160,63413,1,8,0:0:0:0:
288,160,63640,1,0,0:0:0:0:
192,160,63867,1,8,0:0:0:0:
288,160,64094,1,0,0:0:0:0:
192,160,64322,1,8,0:0:0:0:
192,160,64435,1,8,0:0:0:0:
288,160,64549,1,0,0:0:0:0:
192,160,64776,1,8,0:0:0:0:
288,160,65004,1,0,0:0:0:0:
288,160,65117,1,0,0:0:0:0:
192,160,65231,1,8,0:0:0:0:
288,224,65458,1,4,0:0:0:0:
192,160,65685,1,8,0:0:0:0:
288,160,65799,1,0,0:0:0:0:
288,160,66026,1,0,0:0:0:0:
192,160,66140,1,8,0:0:0:0:
288,160,66254,1,8,0:0:0:0:
288,160,66367,1,0,0:0:0:0:
288,160,66594,1,0,0:0:0:0:
288,160,66670,1,0,0:0:0:0:
224,160,66746,1,0,0:0:0:0:
224,160,66822,1,8,0:0:0:0:
288,160,66935,1,0,0:0:0:0:
224,160,67049,1,8,0:0:0:0:
224,160,67163,1,8,0:0:0:0:
320,160,67276,1,0,0:0:0:0:
192,160,67958,1,8,0:0:0:0:
288,224,68185,1,4,0:0:0:0:
288,224,68640,1,12,0:0:0:0:
288,160,69094,1,4,0:0:0:0:
192,160,69322,1,0,0:0:0:0:
192,160,69435,1,0,0:0:0:0:
192,160,69549,1,8,0:0:0:0:
192,160,69776,1,8,0:0:0:0:
288,160,70004,1,0,0:0:0:0:
192,160,70117,1,8,0:0:0:0:
192,160,70344,1,8,0:0:0:0:
288,160,70458,1,0,0:0:0:0:
288,160,70572,1,0,0:0:0:0:
192,160,70685,1,8,0:0:0:0:
192,160,70799,1,8,0:0:0:0:
288,160,70913,1,0,0:0:0:0:
192,160,71140,1,8,0:0:0:0:
192,160,71367,1,0,0:0:0:0:
192,160,71481,1,0,0:0:0:0:
320,160,71594,1,8,0:0:0:0:
320,160,71708,1,8,0:0:0:0:
320,160,71822,1,0,0:0:0:0:
192,160,72049,1,0,0:0:0:0:
192,160,72163,1,8,0:0:0:0:
320,160,72276,1,0,0:0:0:0:
320,160,72504,1,0,0:0:0:0:
192,160,72731,1,8,0:0:0:0:
192,160,72958,1,8,0:0:0:0:
192,160,73072,1,8,0:0:0:0:
320,160,73185,1,0,0:0:0:0:
192,160,73413,1,8,0:0:0:0:
320,160,73640,1,0,0:0:0:0:
320,160,73754,1,0,0:0:0:0:
192,160,73867,1,8,0:0:0:0:
320,160,73981,1,0,0:0:0:0:
192,160,74094,1,8,0:0:0:0:
320,160,74322,1,0,0:0:0:0:
192,256,74549,1,12,0:0:0:0:
320,160,74776,1,0,0:0:0:0:
192,256,75004,1,12,0:0:0:0:
320,160,75231,1,0,0:0:0:0:
192,256,75458,1,0,0:0:0:0:
192,160,75572,1,8,0:0:0:0:
192,160,75685,1,8,0:0:0:0:
192,256,75799,1,0,0:0:0:0:
320,160,75913,1,0,0:0:0:0:
320,160,76026,1,0,0:0:0:0:
192,160,76140,1,8,0:0:0:0:
320,224,76367,1,4,0:0:0:0:
192,160,76595,1,0,0:0:0:0:
192,160,76708,1,0,0:0:0:0:
192,160,76822,1,8,0:0:0:0:
192,160,77049,1,8,0:0:0:0:
288,160,77277,1,0,0:0:0:0:
192,160,77390,1,8,0:0:0:0:
192,160,77617,1,8,0:0:0:0:
288,160,77731,1,0,0:0:0:0:
288,160,77844,1,0,0:0:0:0:
192,160,77958,1,8,0:0:0:0:
192,160,78072,1,8,0:0:0:0:
288,160,78186,1,0,0:0:0:0:
192,160,78413,1,8,0:0:0:0:
192,160,78640,1,0,0:0:0:0:
192,160,78754,1,0,0:0:0:0:
320,160,78867,1,8,0:0:0:0:
320,160,78981,1,0,0:0:0:0:
320,160,79095,1,8,0:0:0:0:
192,160,79208,1,8,0:0:0:0:
288,160,79322,1,0,0:0:0:0:
192,160,79436,1,8,0:0:0:0:
320,160,79549,1,0,0:0:0:0:
320,160,79777,1,0,0:0:0:0:
192,160,80004,1,8,0:0:0:0:
192,160,80231,1,8,0:0:0:0:
320,160,80458,1,0,0:0:0:0:
320,160,80572,1,0,0:0:0:0:
192,160,80686,1,8,0:0:0:0:
320,160,80799,1,0,0:0:0:0:
320,160,81026,1,0,0:0:0:0:
192,160,81140,1,8,0:0:0:0:
320,160,81254,1,0,0:0:0:0:
320,160,81367,1,8,0:0:0:0:
192,160,81481,1,8,0:0:0:0:
320,160,81594,1,0,0:0:0:0:
192,256,81822,1,12,0:0:0:0:
320,160,82049,1,0,0:0:0:0:
192,256,82276,1,8,0:0:0:0:
192,160,82390,1,8,0:0:0:0:
320,160,82504,1,0,0:0:0:0:
192,256,82617,1,8,0:0:0:0:
192,160,82845,1,0,0:0:0:0:
192,160,82958,1,8,0:0:0:0:
192,160,83034,1,8,0:0:0:0:
320,160,83110,1,8,0:0:0:0:
192,160,83185,1,0,0:0:0:0:
320,160,83299,1,0,0:0:0:0:
192,160,83413,1,8,0:0:0:0:
320,256,83640,1,4,0:0:0:0:
192,160,84094,1,12,0:0:0:0:
192,160,84435,1,8,0:0:0:0:
320,160,84549,1,0,0:0:0:0:
320,160,84776,1,0,0:0:0:0:
192,160,84890,1,8,0:0:0:0:
192,160,85117,1,8,0:0:0:0:
320,256,85344,1,4,0:0:0:0:
192,160,85685,1,8,0:0:0:0:
192,160,85799,1,8,0:0:0:0:
320,160,85913,1,0,0:0:0:0:
192,160,86140,1,8,0:0:0:0:
320,160,86254,1,0,0:0:0:0:
320,160,86481,1,0,0:0:0:0:
192,160,86594,1,8,0:0:0:0:
192,160,86708,1,8,0:0:0:0:
320,160,86822,1,0,0:0:0:0:
320,160,87049,1,0,0:0:0:0:
192,256,87276,1,12,0:0:0:0:
320,160,87504,1,0,0:0:0:0:
192,256,87731,1,12,0:0:0:0:
320,160,87958,1,0,0:0:0:0:
192,256,88185,1,8,0:0:0:0:
320,160,88299,1,0,0:0:0:0:
192,256,88526,1,12,0:0:0:0:
192,256,88754,1,12,0:0:0:0:
320,256,88981,1,4,0:0:0:0:
320,160,90231,1,0,0:0:0:0:
320,160,90344,1,0,0:0:0:0:
192,160,90458,1,8,0:0:0:0:
192,160,90685,1,8,0:0:0:0:
288,224,90913,1,4,0:0:0:0:
224,160,91141,1,8,0:0:0:0:
288,160,91368,1,0,0:0:0:0:
224,160,91482,1,0,0:0:0:0:
224,160,91595,1,8,0:0:0:0:
288,160,91709,1,0,0:0:0:0:
288,160,91936,1,0,0:0:0:0:
224,160,92050,1,8,0:0:0:0:
288,160,92277,1,0,0:0:0:0:
224,160,92504,1,8,0:0:0:0:
288,160,92732,1,0,0:0:0:0:
288,160,92844,1,0,0:0:0:0:
224,160,92959,1,8,0:0:0:0:
288,160,93186,1,0,0:0:0:0:
224,160,93413,1,8,0:0:0:0:
288,160,93526,1,8,0:0:0:0:
288,160,93640,1,0,0:0:0:0:
288,160,93754,1,0,0:0:0:0:
224,160,93868,1,8,0:0:0:0:
288,160,94095,1,0,0:0:0:0:
288,160,94209,1,0,0:0:0:0:
288,160,94322,1,8,0:0:0:0:
224,160,94549,1,8,0:0:0:0:
288,160,94663,1,0,0:0:0:0:
224,160,94777,1,8,0:0:0:0:
224,160,94890,1,8,0:0:0:0:
224,224,95004,1,0,0:0:0:0:
224,160,95232,1,8,0:0:0:0:
288,160,95344,1,0,0:0:0:0:
288,160,95572,1,0,0:0:0:0:
288,160,95686,1,8,0:0:0:0:
224,160,95799,1,8,0:0:0:0:
288,160,95913,1,0,0:0:0:0:
224,160,96141,1,8,0:0:0:0:
288,224,96368,1,4,0:0:0:0:
224,160,96594,1,8,0:0:0:0:
224,160,96708,1,8,0:0:0:0:
288,160,96822,1,0,0:0:0:0:
224,160,97049,1,8,0:0:0:0:
224,160,97163,1,8,0:0:0:0:
288,160,97276,1,0,0:0:0:0:
224,160,97390,1,8,0:0:0:0:
224,160,97504,1,8,0:0:0:0:
224,160,97617,1,8,0:0:0:0:
288,160,97731,1,0,0:0:0:0:
288,160,97844,1,0,0:0:0:0:
224,160,97958,1,8,0:0:0:0:
288,224,98185,1,4,0:0:0:0:
224,160,98413,1,8,0:0:0:0:
224,160,98526,1,8,0:0:0:0:
288,160,98640,1,0,0:0:0:0:
224,160,98754,1,0,0:0:0:0:
224,160,98867,1,8,0:0:0:0:
288,160,98981,1,0,0:0:0:0:
288,160,99208,1,0,0:0:0:0:
224,160,99322,1,8,0:0:0:0:
288,160,99549,1,0,0:0:0:0:
288,160,99663,1,0,0:0:0:0:
224,160,99776,1,8,0:0:0:0:
224,160,99890,1,8,0:0:0:0:
288,160,100004,1,0,0:0:0:0:
224,160,100231,1,8,0:0:0:0:
288,160,100344,1,0,0:0:0:0:
224,160,100458,1,0,0:0:0:0:
224,160,100572,1,8,0:0:0:0:
288,160,100685,1,0,0:0:0:0:
288,160,100798,1,8,0:0:0:0:
224,160,101026,1,8,0:0:0:0:
288,160,101140,1,0,0:0:0:0:
288,160,101367,1,8,0:0:0:0:
224,160,101481,1,8,0:0:0:0:
288,160,101594,1,0,0:0:0:0:
224,160,101821,1,8,0:0:0:0:
224,160,102049,1,8,0:0:0:0:
224,224,102276,1,0,0:0:0:0:
288,160,102504,1,0,0:0:0:0:
288,160,102617,1,8,0:0:0:0:
288,160,102731,1,8,0:0:0:0:
288,160,102844,1,8,0:0:0:0:
224,160,102958,1,0,0:0:0:0:
224,160,103072,1,8,0:0:0:0:
288,160,103185,1,0,0:0:0:0:
288,160,103299,1,0,0:0:0:0:
224,160,103413,1,8,0:0:0:0:
288,224,103640,1,4,0:0:0:0:
288,224,104094,1,4,0:0:0:0:
288,224,104549,1,12,0:0:0:0:
288,160,104776,1,0,0:0:0:0:
224,160,104890,1,8,0:0:0:0:
288,224,105117,1,8,0:0:0:0:
288,224,105344,1,4,0:0:0:0:
288,224,105685,1,0,0:0:0:0:
224,224,105913,1,12,0:0:0:0:
