osu file format v14

[General]
AudioFilename: audio.mp3
AudioLeadIn: 0
PreviewTime: -1
Countdown: 1
SampleSet: Soft
StackLeniency: 0.7
Mode: 0
LetterboxInBreaks: 0
WidescreenStoryboard: 0

[Editor]
DistanceSpacing: 1
BeatDivisor: 4
GridSize: 16
TimelineZoom: 1.8

[Metadata]
Title:Silhouette
TitleUnicode:シルエット
Artist:Hello, Happy World!
ArtistUnicode:Hello, Happy World!
Creator:Tuffiii
Version:ok
Source:
Tags:
BeatmapID:1874936
BeatmapSetID:897459

[Difficulty]
HPDrainRate:6
CircleSize:4
OverallDifficulty:9
ApproachRate:9.3
SliderMultiplier:1.8
SliderTickRate:1

[Events]
//Background and Video events
0,0,"maxresdefault.jpg",0,0
//Break Periods
//Storyboard Layer 0 (Background)
//Storyboard Layer 1 (Fail)
//Storyboard Layer 2 (Pass)
//Storyboard Layer 3 (Foreground)
//Storyboard Sound Samples

[TimingPoints]
1428,327.868852459016,4,2,0,100,1,0
1428,-133.333333333333,4,2,0,100,0,0
6591,-117.647058823529,4,2,0,100,0,0
11919,-100,4,2,0,100,0,0
43395,-133.333333333333,4,2,0,100,0,0
48477,-125,4,2,0,100,0,0
53887,-90.9090909090909,4,2,0,100,0,1
74870,-90.9090909090909,4,2,0,100,0,0
77493,-90.9090909090909,4,2,0,100,0,1
98477,-133.333333333333,4,2,0,100,0,0
103887,-100,4,2,0,100,0,0

[HitObjects]
255,131,116,5,0,0:0:0:0:
385,192,444,1,0,0:0:0:0:
257,249,772,1,0,0:0:0:0:
255,131,1100,1,0,0:0:0:0:
191,285,1428,6,0,L|144:224,1,67.5000025749208
156,80,1755,2,0,L|201:140,2,67.5000025749208
321,99,2247,6,0,L|368:160,1,67.5000025749208
252,208,2575,2,0,L|186:260,1,67.5000025749208,0|0,2:0|2:0,2:0:0:0:
259,120,2903,2,0,L|216:70,1,67.5000025749208
350,147,3231,2,0,L|416:95,2,67.5000025749208,0|0|0,2:0|2:0|2:0,2:0:0:0:
252,208,3723,1,0,0:0:0:0:
252,107,3887,1,0,0:0:0:0:
252,107,4050,6,0,L|204:59,1,67.5000025749208
368,113,4378,2,0,L|344:199,1,67.5000025749208
256,113,4706,2,0,L|285:30,1,67.5000025749208
144,111,5034,2,0,L|125:176,1,67.5000025749208
224,276,5362,2,0,L|243:211,1,67.5000025749208
112,273,5690,2,0,L|89:336,1,67.5000025749208
162,141,6018,5,0,0:0:0:0:
162,141,6100,1,0,0:0:0:0:
162,141,6182,1,0,0:0:0:0:
162,141,6264,2,0,P|183:91|220:53,1,101.250003862381
296,246,6673,5,0,0:0:0:0:
277,46,6837,2,0,L|189:90,1,76.5000014591217
93,252,7165,2,0,L|170:225,1,76.5000014591217
259,96,7493,2,0,L|336:68,1,76.5000014591217
328,240,7821,1,0,0:0:0:0:
133,142,7985,1,0,0:0:0:0:
303,33,8149,2,0,L|392:82,1,76.5000014591217
257,213,8477,6,0,L|334:182,2,76.5000014591217,0|0|0,0:3|0:3|0:3,0:3:0:0:
178,65,8968,1,0,0:0:0:0:
120,218,9132,1,0,0:0:0:0:
332,110,9296,2,0,P|350:143|363:201,1,76.5000014591217
248,298,9624,2,0,L|214:229,1,76.5000014591217
171,96,9952,5,0,0:0:0:0:
341,139,10116,2,0,L|296:217,1,76.5000014591217
192,280,10444,2,0,L|142:223,1,76.5000014591217
159,157,10690,1,0,0:0:0:0:
185,131,10772,5,0,0:0:0:0:
209,107,10853,1,0,0:0:0:0:
233,83,10935,1,0,0:0:0:0:
257,60,11017,1,0,0:0:0:0:
280,180,11100,2,0,L|267:216,1,38.2500007295609
405,192,11264,2,0,L|442:197,1,38.2500007295609
169,274,11919,5,0,0:0:0:0:
125,65,12083,1,0,0:0:0:0:
270,141,12247,2,0,L|361:177,1,90
116,207,12575,1,0,0:0:0:0:
256,36,12739,2,0,L|255:136,1,90
378,315,13067,2,0,L|376:211,1,90
189,254,13395,2,0,P|144:220|117:171,2,90
228,138,13887,2,0,B|298:78|336:138|397:59,1,180
270,271,14378,5,0,0:0:0:0:
87,136,14542,1,0,0:0:0:0:
257,125,14706,2,0,L|376:142,1,90
176,294,15034,2,0,L|77:280,1,90
360,169,15362,1,0,0:0:0:0:
134,98,15526,1,0,0:0:0:0:
281,283,15690,1,0,0:0:0:0:
222,52,15854,1,0,0:0:0:0:
352,222,16018,2,0,L|430:289,1,90
378,124,16346,6,0,B|267:179|259:83|177:142,1,180
33,157,16837,1,0,0:0:0:0:
281,283,17001,1,0,0:0:0:0:
212,97,17165,1,0,0:0:0:0:
68,318,17329,2,0,L|181:312,1,90
252,171,17657,1,0,0:0:0:0:
158,314,17821,6,0,B|229:289|277:342|359:296,2,180
296,119,18641,1,0,0:0:0:0:
149,244,18805,1,0,0:0:0:0:
296,119,18968,2,0,P|365:46|471:63,1,180
318,213,19460,1,0,0:0:0:0:
164,55,19624,2,0,L|160:161,1,90
287,299,19952,2,0,L|288:192,1,90
397,45,20280,2,0,P|425:127|393:241,1,180
256,84,20772,1,0,0:0:0:0:
186,234,20936,2,0,L|84:262,1,90
340,273,21264,2,0,L|401:197,2,90
218,177,21755,2,0,L|141:108,1,90
77,137,22001,5,0,0:0:0:0:
85,181,22082,1,0,0:0:0:0:
94,225,22164,1,0,0:0:0:0:
144,288,22247,2,0,L|175:241,1,45
216,91,22411,6,0,L|285:162,1,90
349,326,22739,2,0,P|304:313|264:292,1,90
186,205,23067,2,0,L|291:149,1,90
428,160,23395,2,0,B|403:87|335:111|285:26,1,180
250,159,23887,1,0,0:0:0:0:
338,310,24050,1,0,0:0:0:0:
331,86,24214,1,0,0:0:0:0:
233,306,24378,1,0,0:0:0:0:
227,75,24541,1,0,0:0:0:0:
392,221,24706,2,0,L|444:131,1,90
302,162,25034,2,0,L|242:243,1,90
166,143,25362,2,0,L|236:50,2,90
263,249,25854,1,0,0:0:0:0:
340,100,26018,2,0,P|424:152|447:249,1,180
284,197,26509,5,0,0:0:0:0:
143,71,26673,2,0,L|59:159,1,90
124,288,27001,2,0,L|192:214,1,90
297,82,27329,2,0,P|344:108|388:168,1,90
366,260,27657,2,0,L|293:312,1,90
142,177,27985,1,0,0:0:0:0:
142,177,28313,6,0,L|61:232,2,90
263,102,28805,2,0,L|356:38,1,90
280,265,29132,1,0,0:0:0:0:
177,102,29296,1,0,0:0:0:0:
370,206,29624,6,0,L|451:152,2,90
249,282,30116,2,0,L|156:346,1,90
322,263,30444,1,0,0:0:0:0:
291,52,30608,1,0,0:0:0:0:
168,176,30772,1,0,0:0:0:0:
180,282,30936,2,0,P|98:221|87:138,1,180
240,17,31428,1,0,0:0:0:0:
193,196,31591,1,0,0:0:0:0:
321,114,31755,2,0,L|406:44,1,90
412,168,32083,2,0,P|412:219|397:269,1,90
229,146,32411,2,0,P|229:94|265:55,1,90
343,298,32739,5,0,0:0:0:0:
158,115,32903,1,0,0:0:0:0:
385,94,33067,2,0,L|300:173,1,90
127,290,33395,2,0,L|212:211,1,90,0|0,2:0|2:0,2:0:0:0:
330,118,33723,2,0,P|298:82|236:53,1,90
155,119,34050,2,0,B|197:204|228:168|271:269,1,180
320,50,34542,1,0,0:0:0:0:
375,251,34706,1,0,0:0:0:0:
222,93,34870,1,0,0:0:0:0:
223,283,35034,1,0,0:0:0:0:
79,178,35198,6,0,L|197:181,1,90
266,57,35526,2,0,P|324:92|362:137,1,90
312,245,35854,1,0,0:0:0:0:
183,131,36018,1,0,0:0:0:0:
356,132,36182,1,0,0:0:0:0:
191,232,36346,2,0,L|74:215,1,90
256,36,36673,2,0,B|293:125|313:111|362:202,1,180
284,286,37165,2,0,P|219:270|174:231,1,90
312,112,37493,2,0,P|377:128|422:167,1,90
390,288,37821,1,0,0:0:0:0:
197,129,37985,1,0,0:0:0:0:
375,77,38149,2,0,B|306:151|348:168|270:254,1,180
85,96,38805,6,0,L|142:183,1,90
273,128,39132,2,0,L|364:79,1,90
246,273,39460,1,0,0:0:0:0:
388,189,39624,1,0,0:0:0:0:
203,166,39788,1,0,0:0:0:0:
322,203,40116,6,0,L|265:116,1,90
134,171,40443,2,0,L|43:220,1,90
161,26,40771,1,0,0:0:0:0:
19,109,40935,1,0,0:0:0:0:
299,91,41100,2,0,L|254:171,1,90
73,176,41427,2,0,P|87:265|159:321,1,180
277,175,41919,1,0,0:0:0:0:
202,60,42083,5,0,0:0:0:0:
147,279,42247,1,0,0:0:0:0:
324,85,42411,1,0,0:0:0:0:
89,142,42575,1,0,0:0:0:0:
277,175,42739,2,0,P|307:216|335:277,1,90
166,185,43067,2,0,L|161:89,1,90
398,93,43395,6,0,P|406:159|399:231,1,135.000005149842
291,270,43887,1,0,0:0:0:0:
217,65,44050,6,0,P|171:114|136:172,2,135.000005149842
300,93,45034,5,0,0:0:0:0:
217,227,45198,6,0,P|271:266|332:294,2,135.000005149842
92,76,46018,1,0,0:0:0:0:
225,196,46346,1,0,0:0:0:0:
334,151,46509,6,0,P|279:111|218:83,2,135.000005149842
225,196,47329,2,0,L|165:226,1,67.5000025749208
91,168,47985,6,0,L|146:98,2,67.5000025749208
311,88,48477,2,0,P|344:162|346:181,1,72
157,244,48805,2,0,L|136:163,1,72
206,46,49132,2,0,P|244:76|271:111,1,72
56,120,49460,1,0,0:0:0:0:
231,230,49624,1,0,0:0:0:0:
248,94,49788,2,0,L|328:64,1,72
342,217,50116,2,0,L|281:293,1,72
155,123,50444,2,0,B|154:204|95:193|101:283,1,144
258,172,50936,1,0,0:0:0:0:
70,98,51100,5,0,0:0:0:0:
247,46,51264,2,0,P|287:40|326:44,1,72
361,186,51591,1,0,0:0:0:0:
172,105,51755,1,0,0:0:0:0:
247,278,51919,2,0,P|189:291|153:281,1,72
65,203,52247,2,0,L|121:124,1,72
342,148,52575,6,0,L|269:86,1,72
262,84,52821,1,0,0:0:0:0:
242,73,52903,1,0,0:0:0:0:
220,66,52985,1,0,0:0:0:0:
197,66,53067,1,0,0:0:0:0:
174,66,53149,1,0,0:0:0:0:
179,54,53887,6,0,L|84:143,1,99.0000030212403
182,310,54214,2,0,L|277:221,1,99.0000030212403
278,91,54542,1,0,0:0:0:0:
462,242,54706,2,0,L|374:305,1,99.0000030212403
172,205,55034,1,0,0:0:0:0:
403,88,55198,1,0,0:0:0:0:
323,261,55362,1,0,0:0:0:0:
223,67,55526,1,0,0:0:0:0:
135,243,55690,2,0,L|191:335,2,99.0000030212403
44,84,56182,1,0,0:0:0:0:
81,213,56509,6,0,P|110:259|151:298,1,99.0000030212403
375,184,56837,2,0,P|346:138|305:99,1,99.0000030212403
90,85,57165,2,0,L|149:164,1,99.0000030212403
261,301,57493,1,0,0:0:0:0:
342,165,57657,2,0,L|343:49,1,99.0000030212403
172,51,57985,6,0,L|84:137,1,99.0000030212403
196,306,58313,1,0,0:0:0:0:
66,153,58477,2,0,B|164:195|177:137|272:192,1,198.000006042481
348,55,58968,2,0,L|409:140,1,99.0000030212403
317,304,59296,2,0,L|196:319,1,99.0000030212403
168,108,59624,1,0,0:0:0:0:
78,232,59788,5,0,0:0:0:0:
272,68,59952,1,0,0:0:0:0:
268,231,60116,2,0,L|380:289,1,99.0000030212403
196,42,60444,2,0,P|140:49|97:71,1,99.0000030212403
19,237,60772,1,0,0:0:0:0:
238,117,60936,1,0,0:0:0:0:
50,52,61100,6,0,P|17:99|3:153,1,99.0000030212403
156,306,61427,2,0,P|188:259|202:205,1,99.0000030212403
154,40,61755,1,0,0:0:0:0:
76,211,61919,1,0,0:0:0:0:
296,148,62083,1,0,0:0:0:0:
76,72,62247,6,0,B|33:176|82:188|41:265,1,198.000006042481
221,195,62739,1,0,0:0:0:0:
128,41,62903,2,0,P|75:71|24:118,2,99.0000030212403
320,54,63395,1,0,0:0:0:0:
211,242,63559,2,0,P|162:283|122:301,1,99.0000030212403
301,141,63887,2,0,P|359:118|390:83,1,99.0000030212403
75,73,64214,1,0,0:0:0:0:
239,50,64378,6,0,L|161:132,1,99.0000030212403
206,274,64706,2,0,P|250:251|287:218,2,99.0000030212403
0,168,65198,1,0,0:0:0:0:
259,38,65362,1,0,0:0:0:0:
208,302,65526,1,0,0:0:0:0:
118,95,65690,1,0,0:0:0:0:
352,152,65854,2,0,P|376:210|385:275,1,99.0000030212403
160,232,66182,2,0,P|136:173|127:109,1,99.0000030212403
211,33,66509,1,0,0:0:0:0:
297,189,66673,6,0,P|313:239|309:297,1,99.0000030212403
123,91,67001,1,0,0:0:0:0:
163,298,67165,1,0,0:0:0:0:
301,37,67329,1,0,0:0:0:0:
347,218,67493,2,0,P|329:268|298:317,1,99.0000030212403
227,345,67821,1,0,0:0:0:0:
188,117,67985,1,0,0:0:0:0:
349,315,68149,1,0,0:0:0:0:
102,236,68313,2,0,P|58:195|40:140,1,99.0000030212403
200,49,68641,2,0,P|258:46|310:73,1,99.0000030212403
282,168,68968,2,0,P|235:151|186:155,1,99.0000030212403
57,47,69296,1,0,0:0:0:0:
188,296,69460,1,0,0:0:0:0:
211,119,69624,6,0,P|251:101|313:98,1,99.0000030212403
441,69,69952,1,0,0:0:0:0:
286,269,70116,1,0,0:0:0:0:
179,30,70280,1,0,0:0:0:0:
314,132,70444,2,0,L|403:205,1,99.0000030212403
121,222,70772,2,0,L|52:150,1,99.0000030212403
216,83,71100,1,0,0:0:0:0:
438,90,71263,5,0,0:0:0:0:
283,290,71427,1,0,0:0:0:0:
129,55,71591,1,0,0:0:0:0:
266,154,71755,2,0,L|344:78,1,99.0000030212403
166,248,72083,2,0,L|84:325,1,99.0000030212403
99,119,72411,2,0,P|112:69|155:32,1,99.0000030212403
251,74,72739,6,0,B|242:185|302:172|293:288,1,198.000006042481
98,152,73231,1,0,0:0:0:0:
276,194,73395,1,0,0:0:0:0:
82,273,73559,2,0,L|164:337,1,99.0000030212403
161,90,73886,2,0,L|195:209,1,99.0000030212403
338,142,74214,2,0,L|291:247,1,99.0000030212403
107,279,74870,6,0,L|28:200,1,99.0000030212403
45,29,75198,1,0,0:0:0:0:
217,271,75362,1,0,0:0:0:0:
131,117,75854,6,0,L|198:27,1,99.0000030212403
362,36,76182,1,0,0:0:0:0:
163,268,76346,1,0,0:0:0:0:
184,232,77165,6,0,B|133:152|63:237|15:108,1,198.000006042481
216,59,77657,5,0,0:0:0:0:
80,287,77821,1,0,0:0:0:0:
302,125,77985,6,0,L|405:77,1,99.0000030212403
98,205,78313,2,0,L|-17:247,1,99.0000030212403
95,44,78641,5,0,0:0:0:0:
188,284,78805,1,0,0:0:0:0:
220,45,78968,5,0,0:0:0:0:
313,260,79132,1,0,0:0:0:0:
328,30,79296,5,0,0:0:0:0:
420,276,79460,1,0,0:0:0:0:
231,82,79624,5,0,0:0:0:0:
269,307,79788,1,0,0:0:0:0:
124,56,79952,5,0,0:0:0:0:
322,272,80116,1,0,0:0:0:0:
362,87,80280,5,0,0:0:0:0:
169,315,80444,1,0,0:0:0:0:
446,139,80608,5,0,0:0:0:0:
198,240,80772,6,0,L|94:204,1,99.0000030212403
354,160,81100,2,0,L|458:195,1,99.0000030212403
322,322,81427,5,0,0:0:0:0:
239,93,81591,1,0,0:0:0:0:
203,333,81755,5,0,0:0:0:0:
117,92,81919,1,0,0:0:0:0:
73,328,82083,5,0,0:0:0:0:
0,87,82247,1,0,0:0:0:0:
9,262,82411,5,0,0:0:0:0:
159,74,82575,1,0,0:0:0:0:
97,292,82739,5,0,0:0:0:0:
263,92,82903,1,0,0:0:0:0:
377,112,83067,5,0,0:0:0:0:
216,360,83231,1,0,0:0:0:0:
175,142,83395,2,0,L|65:143,1,99.0000030212403
367,227,83723,2,0,L|449:321,1,99.0000030212403
250,305,84050,5,0,0:0:0:0:
426,115,84214,1,0,0:0:0:0:
171,213,84378,5,0,0:0:0:0:
325,41,84542,1,0,0:0:0:0:
55,161,84706,5,0,0:0:0:0:
208,23,84870,1,0,0:0:0:0:
134,294,85034,5,0,0:0:0:0:
268,108,85198,1,0,0:0:0:0:
244,324,85362,5,0,0:0:0:0:
369,140,85526,1,0,0:0:0:0:
373,362,85690,5,0,0:0:0:0:
496,174,85854,1,0,0:0:0:0:
285,230,86018,6,0,L|172:274,1,99.0000030212403
364,90,86346,2,0,L|371:-17,1,99.0000030212403
210,64,86673,5,0,0:0:0:0:
31,221,86837,1,0,0:0:0:0:
300,122,87001,5,0,0:0:0:0:
167,336,87165,1,0,0:0:0:0:
394,135,87329,5,0,0:0:0:0:
445,353,87493,1,0,0:0:0:0:
293,181,87657,6,0,L|232:98,1,99.0000030212403
82,33,87985,5,0,0:0:0:0:
135,254,88149,1,0,0:0:0:0:
201,99,88313,5,0,0:0:0:0:
240,292,88477,1,0,0:0:0:0:
324,119,88641,5,0,0:0:0:0:
369,347,88805,1,0,0:0:0:0:
417,78,88968,5,0,0:0:0:0:
180,211,89132,1,0,0:0:0:0:
432,182,89296,5,0,0:0:0:0:
183,345,89460,1,0,0:0:0:0:
476,303,89624,5,0,0:0:0:0:
159,189,89788,1,0,0:0:0:0:
303,111,89952,2,0,L|411:40,1,99.0000030212403
107,112,90280,2,0,L|22:36,1,99.0000030212403
272,50,90608,5,0,0:0:0:0:
154,258,90772,1,0,0:0:0:0:
383,96,90936,5,0,0:0:0:0:
368,348,91100,1,0,0:0:0:0:
313,93,91264,5,0,0:0:0:0:
221,349,91427,1,0,0:0:0:0:
213,78,91591,5,0,0:0:0:0:
6,252,91755,1,0,0:0:0:0:
331,163,91919,5,0,0:0:0:0:
25,118,92083,1,0,0:0:0:0:
140,256,92247,6,0,L|112:369,1,99.0000030212403
196,87,92575,2,0,L|249:-13,1,99.0000030212403
263,257,92903,6,0,L|235:370,1,99.0000030212403
311,116,93231,2,0,L|364:16,1,99.0000030212403
402,314,93559,5,0,0:0:0:0:
295,62,93723,1,0,0:0:0:0:
289,334,93887,5,0,0:0:0:0:
188,75,94050,1,0,0:0:0:0:
185,349,94214,5,0,0:0:0:0:
48,96,94378,1,0,0:0:0:0:
69,370,94542,5,0,0:0:0:0:
174,59,94706,1,0,0:0:0:0:
227,345,94870,5,0,0:0:0:0:
354,19,95034,1,0,0:0:0:0:
151,172,95198,6,0,L|25:227,1,99.0000030212403
387,168,95526,2,0,L|466:253,1,99.0000030212403
122,267,95854,1,0,0:0:0:0:
427,38,96018,5,0,0:0:0:0:
138,353,96182,1,0,0:0:0:0:
430,239,96346,5,0,0:0:0:0:
135,30,96509,1,0,0:0:0:0:
325,264,96673,6,0,L|341:361,1,99.0000030212403
217,99,97001,2,0,L|124:62,1,99.0000030212403
413,123,97329,5,0,0:0:0:0:
80,180,97493,1,0,0:0:0:0:
236,28,97657,5,0,0:0:0:0:
336,318,97821,1,0,0:0:0:0:
391,22,97985,5,0,0:0:0:0:
157,309,98149,1,0,0:0:0:0:
266,0,98313,5,0,0:0:0:0:
383,349,98477,1,0,0:0:0:0:
242,180,98641,6,0,L|176:224,1,67.5000025749208
213,99,98968,2,0,L|278:51,1,67.5000025749208
309,224,99296,2,0,L|379:183,1,67.5000025749208
181,217,99624,2,0,L|107:262,2,67.5000025749208
191,69,100116,1,0,0:0:0:0:
287,239,100280,1,0,0:0:0:0:
281,130,100444,2,0,L|367:83,2,67.5000025749208
126,82,100936,2,0,L|180:163,1,67.5000025749208
91,220,101264,6,0,L|17:261,1,67.5000025749208
194,222,101591,2,0,L|244:294,1,67.5000025749208
144,154,101919,2,0,L|144:66,1,67.5000025749208
228,117,102247,1,0,0:0:0:0:
55,115,102411,1,0,0:0:0:0:
142,14,102575,1,0,0:0:0:0:
140,178,102739,2,0,L|137:269,2,67.5000025749208
103,86,103231,1,0,0:0:0:0:
103,86,103313,1,0,0:0:0:0:
103,86,103395,1,0,0:0:0:0:
103,86,103477,2,0,P|69:123|50:170,1,101.250003862381
241,78,103887,5,0,0:0:0:0:
255,270,104050,1,0,0:0:0:0:
151,170,104214,1,0,0:0:0:0:
321,166,104378,2,0,L|427:168,1,90
255,270,104706,2,0,L|143:270,1,90
332,254,105034,2,0,L|330:360,1,90
228,188,105362,2,0,L|228:75,1,90
133,318,105690,2,0,L|134:212,2,90
223,222,106182,2,0,L|221:123,1,90
99,100,106509,5,0,0:0:0:0:
335,246,106673,1,0,0:0:0:0:
114,276,106837,1,0,0:0:0:0:
318,82,107001,1,0,0:0:0:0:
222,314,107165,1,0,0:0:0:0:
197,227,107329,1,0,0:0:0:0:
213,138,107493,1,0,0:0:0:0:
359,316,107657,1,0,0:0:0:0:
85,90,107821,1,0,0:0:0:0:
110,345,107985,1,0,0:0:0:0:
485,23,108149,1,0,0:0:0:0:
12,362,108313,1,0,0:0:0:0:
10,15,108477,1,0,0:0:0:0:
507,368,108641,1,0,0:0:0:0:
501,14,108805,2,0,L|391:57,1,90
