osu file format v14

[General]
AudioFilename: audio.mp3
AudioLeadIn: 0
PreviewTime: 53743
Countdown: 0
SampleSet: Soft
StackLeniency: 0.7
Mode: 0
LetterboxInBreaks: 0
WidescreenStoryboard: 0

[Editor]
DistanceSpacing: 0.9
BeatDivisor: 4
GridSize: 4
TimelineZoom: 1.5

[Metadata]
Title:Silhouette
TitleUnicode:シルエット
Artist:Hello, Happy World!
ArtistUnicode:ハロー、ハッピーワールド!
Creator:Doormat
Version:Tailed Beast Super Ultra Rasenshuriken Jutsu Technique
Source:バンドリ!ガールズバンドパーティ!
Tags:Nitrous -Nitrous DakiniBrave -_Rain_- - Rain - Kalibe BanG Dream! Girls Band Party bandori garupa ガルパ harohapi ハロハピ NARUTO-ナルト-疾風伝 shippuden boruto's dad KANA-BOON cover opening 16 game size tsurumaki kokoro 弦巻こころ itou miku 伊藤美来 seta kaoru 瀬田薫 tadokoro azusa 田所あずさ kitagawa hagumi 北沢はぐみ yoshida yuri 吉田有里 matsubara kanon 松原花音 toyota moe 豊田萌絵 michelle ミッシェル okusawa misaki 奥沢美咲 kurosawa tomoyo 黒沢ともよ
BeatmapID:1603084
BeatmapSetID:762466

[Difficulty]
HPDrainRate:6
CircleSize:4
OverallDifficulty:8.5
ApproachRate:9.3
SliderMultiplier:1.7
SliderTickRate:1

[Events]
//Background and Video events
0,0,"hello world.jpg",0,0
//Break Periods
//Storyboard Layer 0 (Background)
//Storyboard Layer 1 (Fail)
//Storyboard Layer 2 (Pass)
//Storyboard Layer 3 (Foreground)
//Storyboard Sound Samples

[TimingPoints]
1360,327.868852459016,4,2,1,40,1,0
1360,-133.333333333333,4,2,1,40,0,0
6605,-133.333333333333,4,2,1,60,0,0
11851,-100,4,2,1,70,0,1
11933,-100,4,2,1,70,0,0
21359,-66.6666666666667,4,2,1,70,0,0
21605,-100,4,2,1,5,0,0
21687,-100,4,2,1,70,0,0
22343,-125,4,2,1,60,0,0
26523,-125,4,2,1,5,0,0
26605,-125,4,2,1,60,0,0
43327,-166.666666666667,4,2,1,40,0,0
48573,-125,4,2,1,50,0,0
51196,-125,4,2,1,60,0,0
51851,-125,4,2,1,70,0,0
52507,-66.6666666666667,4,2,1,80,0,0
52753,-66.6666666666667,4,2,1,5,0,0
52835,-100,4,2,1,60,0,0
53819,-100,4,2,1,80,0,1
64228,-100,4,2,1,80,0,0
64310,-100,4,2,1,80,0,1
68491,-100,4,2,1,5,0,1
68573,-100,4,2,1,80,0,1
74802,-100,4,2,1,70,0,0
76769,-133.333333333333,4,2,1,40,0,0
77343,-133.333333333333,4,2,1,5,0,0
77425,-100,4,2,1,80,0,1
87835,-100,4,2,1,80,0,0
87917,-100,4,2,1,80,0,1
98409,-133.333333333333,4,2,1,60,0,0
106278,-100,4,2,1,80,0,0

[Colours]
Combo1 : 255,145,205
Combo2 : 255,220,45
Combo3 : 255,210,220
Combo4 : 255,200,20

[HitObjects]
172,136,1360,5,6,0:0:0:0:
220,289,1523,1,0,0:0:0:0:
271,188,1687,1,2,0:0:0:0:
119,236,1851,2,0,L|37:221,1,63.7500024318696,0|2,0:0|0:0,0:0:0:0:
322,87,2179,5,0,0:0:0:0:
370,240,2343,1,2,0:0:0:0:
322,87,2507,1,0,0:0:0:0:
271,188,2671,1,2,0:0:0:0:
423,139,2835,2,0,L|498:125,1,63.7500024318696,0|2,0:0|0:0,0:0:0:0:
280,304,3163,5,0,0:0:0:0:
322,87,3327,1,2,0:0:0:0:
415,287,3491,1,0,0:0:0:0:
221,179,3655,1,2,0:0:0:0:
440,151,3819,1,0,0:0:0:0:
322,87,3982,5,2,0:0:0:0:
297,251,4146,1,0,0:0:0:0:
227,156,4310,1,2,0:0:0:0:
391,181,4474,2,0,L|464:166,1,63.7500024318696,0|2,0:0|0:0,0:0:0:0:
132,87,4802,5,0,0:0:0:0:
157,251,4966,1,2,0:0:0:0:
132,87,5130,1,0,0:0:0:0:
227,156,5294,1,2,0:0:0:0:
63,181,5458,2,0,L|0:168,1,63.7500024318696,0|2,0:0|0:0,0:0:0:0:
236,44,5786,5,0,0:0:0:0:
157,251,5950,1,2,0:0:0:0:
12,84,6114,1,2,0:3:0:0:
12,84,6196,1,2,0:3:0:0:
12,84,6278,2,0,L|80:72,1,63.7500024318696,2|0,0:3|0:0,0:0:0:0:
304,212,6605,5,6,0:0:0:0:
48,296,6769,1,0,0:0:0:0:
52,224,6933,1,8,0:0:0:0:
56,152,7097,1,0,0:0:0:0:
248,92,7261,5,2,0:0:0:0:
312,352,7425,1,0,0:0:0:0:
240,348,7589,1,8,0:0:0:0:
168,344,7753,1,0,0:0:0:0:
52,224,7917,5,2,0:0:0:0:
280,84,8081,1,0,0:0:0:0:
289,155,8245,1,8,0:0:0:0:
298,227,8409,1,0,0:0:0:0:
168,344,8573,5,2,0:0:0:0:
20,120,8737,1,0,0:0:0:0:
90,105,8901,1,8,0:0:0:0:
161,90,9065,1,0,0:0:0:0:
292,244,9228,5,2,0:0:0:0:
64,384,9392,1,0,0:0:0:0:
52,312,9556,1,8,0:0:0:0:
40,241,9720,1,0,0:0:0:0:
232,116,9884,5,2,0:0:0:0:
320,368,10048,1,0,0:0:0:0:
248,364,10212,1,8,0:0:0:0:
176,360,10376,1,0,0:0:0:0:
437,180,10540,5,8,3:2:0:0:
437,180,10622,1,0,3:0:0:0:
437,180,10704,2,0,L|445:236,1,31.8750012159348,0|0,3:0|3:0,0:0:0:0:
296,120,10868,5,8,3:2:0:0:
296,120,10950,1,0,3:0:0:0:
296,120,11032,2,0,L|304:176,1,31.8750012159348,0|0,3:0|3:0,0:0:0:0:
425,32,11196,5,2,0:0:0:0:
424,32,11851,6,0,P|345:56|273:15,1,170,6|8,0:0|0:0,0:0:0:0:
96,112,12343,1,0,0:0:0:0:
264,208,12507,2,0,L|271:123,1,85,2|0,0:0|0:0,0:0:0:0:
24,188,12835,2,0,L|31:272,1,85,8|0,0:0|0:0,0:0:0:0:
270,123,13163,6,0,P|189:140|123:90,1,170,2|8,0:0|0:0,0:0:0:0:
300,8,13655,1,0,0:0:0:0:
372,156,13819,2,0,L|365:241,1,85,2|0,0:0|0:0,0:0:0:0:
130,175,14146,2,0,L|123:91,1,85,8|0,0:0|0:0,0:0:0:0:
372,156,14474,6,0,P|453:168|515:114,1,170,2|8,0:0|0:0,0:0:0:0:
376,16,14966,2,0,L|288:24,1,85,0|2,0:0|0:0,0:0:0:0:
176,136,15294,1,0,0:0:0:0:
372,156,15458,1,8,0:0:0:0:
291,23,15622,1,0,0:0:0:0:
88,108,15786,6,0,L|104:216,1,85,2|0,0:0|0:0,0:0:0:0:
204,308,16114,1,8,0:0:0:0:
372,156,16278,2,0,L|280:144,1,85,0|2,0:0|0:0,0:0:0:0:
396,24,16605,1,0,0:0:0:0:
488,200,16769,2,0,L|472:288,1,85,12|0,0:0|0:0,0:0:0:0:
204,308,17097,6,0,P|169:232|208:156,1,170,6|8,0:0|0:0,0:0:0:0:
404,248,17589,2,0,L|396:344,1,85,0|2,0:0|0:0,0:0:0:0:
272,240,17917,1,0,0:0:0:0:
424,120,18081,2,0,L|516:128,1,85,8|0,0:0|0:0,0:0:0:0:
272,240,18409,6,0,P|220:272|112:216,2,170,2|8|2,0:0|0:0|0:0,0:0:0:0:
144,120,19228,1,0,0:0:0:0:
16,248,19392,2,0,L|32:340,1,85,8|0,0:0|0:0,0:0:0:0:
272,240,19720,6,0,P|307:162|269:90,1,170,2|8,0:0|0:0,0:0:0:0:
1,164,20212,2,0,L|16:248,1,85,0|2,0:0|0:0,0:0:0:0:
144,344,20540,1,0,0:0:0:0:
208,168,20704,2,0,L|96:176,1,85,8|0,0:0|0:0,0:0:0:0:
304,364,21032,6,0,L|416:356,1,85,2|0,0:0|0:0,0:0:0:0:
416,140,21359,2,0,B|356:124|356:124|292:156|292:156|212:132,1,191.250007295609,12|0,0:0|0:0,0:0:0:0:
202,127,21687,5,0,3:2:0:0:
203,137,21769,1,0,3:2:0:0:
205,147,21851,1,0,3:2:0:0:
206,158,21933,1,0,3:2:0:0:
208,168,22015,1,0,3:2:0:0:
500,284,22179,1,0,3:0:0:0:
500,284,22261,1,0,3:0:0:0:
500,284,22343,6,0,L|512:196,1,68,6|0,0:0|0:0,0:0:0:0:
296,248,22671,2,0,L|320:408,1,136,8|2,0:0|0:0,0:0:0:0:
400,196,23163,1,2,0:0:0:0:
244,136,23327,2,0,L|156:152,1,68,8|0,0:0|0:0,0:0:0:0:
341,280,23655,6,0,P|397:304|469:268,2,136,2|8|2,0:0|0:0|0:0,0:0:0:0:
260,200,24474,1,2,0:0:0:0:
136,316,24638,2,0,L|148:412,1,68,8|0,0:0|0:0,0:0:0:0:
336,136,24966,5,2,0:0:0:0:
350,256,25130,1,0,0:0:0:0:
155,218,25294,1,8,0:0:0:0:
214,111,25458,1,0,0:0:0:0:
238,307,25622,1,2,0:0:0:0:
238,307,25786,1,2,0:0:0:0:
336,136,25950,2,0,L|328:52,1,68,8|0,0:0|0:0,0:0:0:0:
120,148,26278,6,0,P|98:193|108:244,1,102,2|0,0:0|0:0,0:0:0:0:
147,310,26605,2,0,L|220:296,1,68,8|0,0:0|0:0,0:0:0:0:
389,278,26933,1,2,0:0:0:0:
292,200,27097,1,2,0:0:0:0:
310,375,27261,2,0,L|383:361,1,68,8|0,0:0|0:0,0:0:0:0:
292,200,27589,6,0,P|227:183|165:210,1,136,2|8,0:0|0:0,0:0:0:0:
238,293,28081,1,0,0:0:0:0:
358,121,28245,1,2,0:0:0:0:
390,265,28409,1,2,0:0:0:0:
238,293,28573,2,0,L|168:284,1,68,8|0,0:0|0:0,0:0:0:0:
358,121,28900,6,0,P|423:104|485:131,1,136,2|8,0:0|0:0,0:0:0:0:
412,214,29392,1,0,0:0:0:0:
292,42,29556,1,2,0:0:0:0:
260,186,29720,1,2,0:0:0:0:
412,214,29884,2,0,L|482:205,1,68,8|0,0:0|0:0,0:0:0:0:
292,42,30212,6,0,P|227:25|165:52,2,136,2|8|2,0:0|0:0|0:0,0:0:0:0:
238,135,31032,1,2,0:0:0:0:
70,137,31196,2,0,L|74:65,1,68,8|0,0:0|0:0,0:0:0:0:
238,135,31523,5,2,0:0:0:0:
48,226,31687,1,0,0:0:0:0:
224,350,31851,2,0,L|228:278,1,68,8|0,0:0|0:0,0:0:0:0:
48,226,32179,5,2,0:0:0:0:
238,135,32343,1,2,0:0:0:0:
62,11,32507,2,0,L|58:83,1,68,12|0,0:0|0:0,0:0:0:0:
238,135,32835,6,0,P|303:147|364:119,1,136,6|8,0:0|0:0,0:0:0:0:
228,18,33327,1,0,0:0:0:0:
116,226,33491,1,2,0:0:0:0:
92,34,33655,1,2,0:0:0:0:
272,206,33819,2,0,L|352:186,1,68,8|0,0:0|0:0,0:0:0:0:
92,34,34146,5,2,0:0:0:0:
84,192,34310,1,0,0:0:0:0:
264,48,34474,1,8,0:0:0:0:
272,206,34638,1,0,0:0:0:0:
92,34,34802,5,2,0:0:0:0:
268,128,34966,1,2,0:0:0:0:
120,276,35130,1,8,0:0:0:0:
144,126,35294,1,0,0:0:0:0:
332,274,35458,6,0,P|270:299|209:276,1,136,2|8,0:0|0:0,0:0:0:0:
400,172,35950,1,0,0:0:0:0:
368,380,36114,1,2,0:0:0:0:
272,206,36278,1,2,0:0:0:0:
496,248,36441,2,0,L|488:332,1,68,8|0,0:0|0:0,0:0:0:0:
272,206,36769,6,0,L|265:138,1,68,2|0,0:0|0:0,0:0:0:0:
496,248,37097,2,0,L|488:332,1,68,8|0,0:0|0:0,0:0:0:0:
320,376,37425,1,2,0:0:0:0:
396,228,37589,1,2,0:0:0:0:
188,160,37753,1,8,0:0:0:0:
212,312,37917,1,0,0:0:0:0:
452,144,38081,6,0,P|388:123|327:149,1,136,2|8,0:0|0:0,0:0:0:0:
188,276,38573,1,0,0:0:0:0:
292,72,38737,1,2,0:0:0:0:
336,232,38900,1,2,0:0:0:0:
144,116,39064,1,8,0:0:0:0:
188,276,39228,1,0,0:0:0:0:
19,111,39392,6,0,P|83:90|144:116,1,136,2|8,0:0|0:0,0:0:0:0:
283,243,39884,1,0,0:0:0:0:
179,39,40048,1,2,0:0:0:0:
135,199,40212,1,2,0:0:0:0:
327,83,40376,1,8,0:0:0:0:
283,243,40540,1,0,0:0:0:0:
452,78,40704,6,0,P|388:57|327:83,1,136,2|8,0:0|0:0,0:0:0:0:
188,210,41196,1,0,0:0:0:0:
296,0,41359,1,2,0:0:0:0:
336,168,41523,1,2,0:0:0:0:
128,32,41687,2,0,L|208:20,1,68,8|0,0:0|0:0,0:0:0:0:
403,178,42015,6,0,L|336:168,1,68,2|0,0:0|0:0,0:0:0:0:
120,292,42343,2,0,L|187:282,1,68,12|0,0:0|0:0,0:0:0:0:
244,228,42589,1,2,0:0:0:0:
244,228,42671,5,10,0:0:0:0:
224,376,42835,1,10,0:0:0:0:
60,208,42999,1,8,0:3:0:0:
40,356,43163,1,8,0:3:0:0:
244,228,43327,5,6,0:0:0:0:
244,228,43655,1,2,0:0:0:0:
312,300,43819,2,0,L|432:288,1,101.999996887207,8|0,0:0|0:0,0:0:0:0:
216,376,44310,2,0,L|156:372,1,50.9999984436036,8|0,0:0|0:0,0:0:0:0:
88,292,44638,5,6,0:0:0:0:
88,292,44966,1,2,0:0:0:0:
156,220,45130,2,0,P|167:171|151:123,1,101.999996887207,8|0,0:0|0:0,0:0:0:0:
288,264,45622,2,0,P|282:288|286:313,1,50.9999984436036,8|0,0:0|0:0,0:0:0:0:
392,284,45950,5,6,0:0:0:0:
392,284,46278,1,2,0:0:0:0:
452,204,46441,2,0,L|436:96,1,101.999996887207,8|0,0:0|0:0,0:0:0:0:
371,3,46933,1,8,0:0:0:0:
336,168,47097,1,8,0:0:0:0:
271,68,47261,6,0,L|169:57,1,101.999996887207,6|8,0:0|0:0,0:0:0:0:
336,168,47753,1,8,0:0:0:0:
420,88,47917,2,0,L|412:20,1,50.9999984436036,2|0,0:0|0:0,0:0:0:0:
216,156,48245,2,0,L|224:224,1,50.9999984436036,8|0,0:0|0:0,0:0:0:0:
420,340,48573,6,0,P|460:287|451:221,2,136,6|8|2,0:0|0:0|0:0,0:0:0:0:
332,256,49392,1,2,0:0:0:0:
380,104,49556,2,0,L|447:111,1,68,8|0,0:0|0:0,0:0:0:0:
248,320,49884,6,0,L|180:327,1,68,2|0,0:0|0:0,0:0:0:0:
424,216,50212,2,0,L|491:208,1,68,8|0,0:0|0:0,0:0:0:0:
264,132,50540,1,2,0:0:0:0:
248,320,50704,1,2,0:0:0:0:
448,376,50868,2,0,L|440:296,1,68,8|0,0:0|0:0,0:0:0:0:
180,264,51196,6,0,P|156:328|192:388,2,136,2|8|2,0:0|0:0|0:0,0:0:0:0:
304,176,52015,1,2,0:0:0:0:
396,364,52179,2,0,L|320:360,1,68,8|0,0:0|0:0,0:0:0:0:
100,192,52507,6,0,B|160:176|160:176|224:208|224:208|304:184,1,191.250007295609,12|0,0:0|0:0,0:0:0:0:
306,175,52835,5,0,3:0:0:0:
307,185,52917,1,0,3:0:0:0:
309,196,52999,1,0,3:0:0:0:
310,206,53081,1,0,3:0:0:0:
311,217,53163,1,0,3:0:0:0:
72,28,53491,1,0,0:0:0:0:
56,15,53819,6,0,P|2:77|25:155,1,170,6|8,0:0|0:0,0:0:0:0:
188,204,54310,1,0,0:0:0:0:
0,308,54474,1,2,0:0:0:0:
96,92,54638,1,2,0:0:0:0:
316,180,54802,2,0,L|308:264,1,85,8|0,0:0|0:0,0:0:0:0:
40,380,55130,6,0,L|25:210,1,170,2|8,0:0|0:0,0:0:0:0:
96,92,55622,1,0,0:0:0:0:
192,336,55786,1,2,0:0:0:0:
266,166,55950,1,2,0:0:0:0:
22,262,56114,1,8,0:0:0:0:
204,240,56278,1,0,0:0:0:0:
0,72,56441,6,0,B|-28:128|16:180|16:180|68:144,1,170,2|8,0:0|0:0,0:0:0:0:
180,44,56933,1,0,0:0:0:0:
164,270,57097,1,2,0:0:0:0:
285,165,57261,1,2,0:0:0:0:
59,149,57425,2,0,L|72:248,1,85,8|0,0:0|0:0,0:0:0:0:
380,136,57753,6,0,P|391:95|382:54,1,85,2|0,0:0|0:0,0:0:0:0:
188,248,58081,1,8,0:0:0:0:
184,64,58245,1,0,0:0:0:0:
408,252,58409,1,2,0:0:0:0:
418,60,58573,1,2,0:0:0:0:
188,248,58737,2,0,L|207:330,1,85,12|0,0:0|0:0,0:0:0:0:
488,196,59064,6,0,P|417:152|339:176,1,170,6|8,0:0|0:0,0:0:0:0:
408,252,59556,1,0,0:0:0:0:
356,68,59720,1,2,0:0:0:0:
232,316,59884,1,2,0:0:0:0:
152,112,60048,2,0,L|252:116,1,85,8|0,0:0|0:0,0:0:0:0:
492,235,60376,6,0,P|421:278|343:254,1,170,2|8,0:0|0:0,0:0:0:0:
412,179,60868,1,0,0:0:0:0:
360,363,61032,1,2,0:0:0:0:
236,115,61196,1,2,0:0:0:0:
156,319,61359,2,0,L|256:315,1,85,8|0,0:0|0:0,0:0:0:0:
320,51,61687,6,0,P|249:8|171:32,2,170,2|8|2,0:0|0:0|0:0,0:0:0:0:
236,115,62507,1,2,0:0:0:0:
60,84,62671,2,0,L|68:0,1,85,8|0,0:0|0:0,0:0:0:0:
344,104,62999,5,2,0:0:0:0:
172,232,63163,1,0,0:0:0:0:
440,236,63327,5,8,0:0:0:0:
208,112,63491,1,0,0:0:0:0:
368,384,63655,5,2,0:0:0:0:
328,120,63819,1,0,0:0:0:0:
112,320,63982,5,12,0:0:0:0:
424,244,64146,1,0,0:0:0:0:
156,32,64310,6,0,L|176:212,1,170,6|8,0:0|0:0,0:0:0:0:
296,300,64802,1,0,0:0:0:0:
320,48,64966,1,2,0:0:0:0:
174,200,65130,1,2,0:0:0:0:
432,192,65294,1,8,0:0:0:0:
200,80,65458,1,0,0:0:0:0:
96,328,65622,6,0,L|265:316,1,170,2|8,0:0|0:0,0:0:0:0:
348,184,66114,1,0,0:0:0:0:
128,148,66278,1,2,0:0:0:0:
265,316,66441,1,2,0:0:0:0:
420,128,66605,2,0,P|427:74|404:33,1,85,8|0,0:0|0:0,0:0:0:0:
128,148,66933,6,0,P|104:227|145:299,1,170,2|8,0:0|0:0,0:0:0:0:
248,168,67425,1,0,0:0:0:0:
312,368,67589,1,2,0:0:0:0:
96,288,67753,1,2,0:0:0:0:
360,224,67917,1,8,0:0:0:0:
156,128,68081,1,0,0:0:0:0:
396,48,68245,6,0,P|426:101|411:162,1,127.5,2|0,0:0|0:0,0:0:0:0:
360,224,68573,2,0,L|276:208,1,85,8|0,0:0|0:0,0:0:0:0:
31,147,68900,1,2,0:0:0:0:
183,303,69064,1,2,0:0:0:0:
263,95,69228,2,0,P|271:52|259:12,1,85,12|0,0:0|0:0,0:0:0:0:
31,147,69556,6,0,P|-1:223|33:298,1,170,6|8,0:0|0:0,0:0:0:0:
207,346,70048,1,0,0:0:0:0:
263,95,70212,1,2,0:0:0:0:
120,220,70376,1,2,0:0:0:0:
328,316,70540,2,0,L|321:219,1,85,8|0,0:0|0:0,0:0:0:0:
118,69,70868,6,0,P|85:145|120:220,1,170,2|8,0:0|0:0,0:0:0:0:
294,268,71359,1,0,0:0:0:0:
350,17,71523,1,2,0:0:0:0:
207,142,71687,1,2,0:0:0:0:
415,238,71851,2,0,L|408:153,1,85,8|0,0:0|0:0,0:0:0:0:
123,202,72179,6,0,L|135:370,2,170,2|8|2,0:0|0:0|0:0,0:0:0:0:
224,80,72999,1,2,0:0:0:0:
328,256,73163,2,0,L|243:263,1,85,8|0,0:0|0:0,0:0:0:0:
400,124,73491,5,2,0:0:0:0:
460,296,73655,1,0,0:0:0:0:
492,28,73819,5,8,0:0:0:0:
388,228,73982,1,0,0:0:0:0:
284,0,74146,5,2,0:0:0:0:
496,168,74310,1,2,0:0:0:0:
224,288,74474,2,0,L|224:203,1,85,8|0,0:0|0:0,0:0:0:0:
436,332,74802,5,6,1:2:0:0:
380,128,74966,1,0,0:0:0:0:
510,202,75130,1,0,0:0:0:0:
306,258,75294,1,2,1:2:0:0:
306,258,75786,5,2,1:2:0:0:
374,42,75950,1,0,0:0:0:0:
448,184,76114,1,0,0:0:0:0:
232,116,76278,1,2,1:2:0:0:
232,116,76769,5,2,3:0:0:0:
236,120,76851,1,2,3:0:0:0:
240,124,76933,1,2,3:0:0:0:
244,128,77015,1,2,3:0:0:0:
248,132,77097,2,0,P|273:157|265:123,1,95.6250036478044,2|0,3:0|0:0,0:0:0:0:
148,121,77425,6,0,L|160:230,1,85,6|0,0:0|0:0,0:0:0:0:
416,248,77753,2,0,L|407:163,1,85,8|0,0:0|0:0,0:0:0:0:
224,356,78081,1,8,0:0:0:0:
246,131,78245,1,0,0:0:0:0:
436,368,78409,1,8,0:0:0:0:
458,143,78573,1,0,0:0:0:0:
224,356,78737,6,0,L|308:363,1,85,8|0,0:0|0:0,0:0:0:0:
246,131,79064,2,0,L|161:123,1,85,8|0,0:0|0:0,0:0:0:0:
360,16,79392,1,8,0:0:0:0:
392,224,79556,1,0,0:0:0:0:
79,31,79720,1,8,0:0:0:0:
111,239,79884,1,0,0:0:0:0:
374,97,80048,6,0,P|375:55|360:16,1,85,8|0,0:0|0:0,0:0:0:0:
97,158,80376,2,0,P|96:200|112:240,1,85,8|0,0:0|0:0,0:0:0:0:
392,332,80704,1,8,0:0:0:0:
196,184,80868,1,0,0:0:0:0:
456,72,81032,1,8,0:0:0:0:
328,244,81196,1,0,0:0:0:0:
148,12,81359,6,0,P|188:0|229:7,1,85,8|0,0:0|0:0,0:0:0:0:
216,284,81687,2,0,P|175:296|134:288,1,85,8|0,0:0|0:0,0:0:0:0:
268,116,82015,1,8,0:0:0:0:
324,368,82179,1,0,0:0:0:0:
108,164,82343,1,8,0:0:0:0:
376,212,82507,1,0,0:0:0:0:
96,384,82671,6,0,L|96:299,1,85,12|0,0:0|0:0,0:0:0:0:
376,127,82999,2,0,L|376:212,1,85,8|0,0:0|0:0,0:0:0:0:
228,40,83327,1,8,0:0:0:0:
476,24,83491,1,0,0:0:0:0:
244,236,83655,1,8,0:0:0:0:
492,220,83819,1,0,0:0:0:0:
228,40,83982,6,0,P|215:80|223:121,1,85,8|0,0:0|0:0,0:0:0:0:
487,301,84310,2,0,P|499:261|492:220,1,85,8|0,0:0|0:0,0:0:0:0:
211,345,84638,1,8,0:0:0:0:
223,121,84802,1,0,0:0:0:0:
419,369,84966,1,8,0:0:0:0:
431,145,85130,1,0,0:0:0:0:
211,345,85294,5,8,0:0:0:0:
456,252,85458,1,0,0:0:0:0:
223,121,85622,1,8,0:0:0:0:
468,28,85786,1,0,0:0:0:0:
340,248,85950,5,8,0:0:0:0:
260,0,86114,1,0,0:0:0:0:
162,283,86278,1,8,0:0:0:0:
82,35,86441,1,0,0:0:0:0:
376,144,86605,6,0,L|280:168,1,85,8|0,0:0|0:0,0:0:0:0:
48,344,86933,2,0,L|130:364,1,85,8|0,0:0|0:0,0:0:0:0:
92,116,87261,1,8,0:0:0:0:
239,311,87425,1,0,0:0:0:0:
283,39,87589,1,8,0:0:0:0:
127,247,87753,1,0,0:0:0:0:
432,311,87917,6,0,P|460:232|411:162,1,170,12|8,0:0|0:0,0:0:0:0:
232,104,88409,1,0,0:0:0:0:
184,328,88573,2,0,L|268:334,1,85,8|0,0:0|0:0,0:0:0:0:
392,144,88900,1,8,0:0:0:0:
136,196,89064,1,0,0:0:0:0:
372,360,89228,6,0,L|384:264,1,85,8|0,0:0|0:0,0:0:0:0:
184,328,89556,1,8,0:0:0:0:
356,100,89720,2,0,L|368:196,1,85,0|8,0:0|0:0,0:0:0:0:
168,132,90048,1,0,0:0:0:0:
99,338,90212,2,0,L|184:328,1,85,8|0,0:0|0:0,0:0:0:0:
314,141,90540,6,0,P|243:100|168:132,1,170,8|8,0:0|0:0,0:0:0:0:
256,248,91032,1,0,0:0:0:0:
432,144,91196,2,0,L|424:56,1,85,8|0,0:0|0:0,0:0:0:0:
256,248,91523,1,8,0:0:0:0:
260,40,91687,1,0,0:0:0:0:
464,236,91851,6,0,L|376:256,1,85,8|0,0:0|0:0,0:0:0:0:
244,144,92179,1,8,0:0:0:0:
132,336,92343,2,0,L|220:356,1,85,0|8,0:0|0:0,0:0:0:0:
352,244,92671,1,0,0:0:0:0:
120,140,92835,2,0,L|128:240,1,85,8|0,0:0|0:0,0:0:0:0:
359,144,93163,6,0,P|376:63|327:-2,1,170,12|8,0:0|0:0,0:0:0:0:
224,128,93655,1,0,0:0:0:0:
336,288,93819,2,0,L|428:272,1,85,8|0,0:0|0:0,0:0:0:0:
224,128,94146,1,8,0:0:0:0:
168,332,94310,1,0,0:0:0:0:
24,208,94474,6,0,L|28:104,1,85,8|0,0:0|0:0,0:0:0:0:
156,24,94802,1,8,0:0:0:0:
216,228,94966,2,0,L|112:224,1,85,0|8,0:0|0:0,0:0:0:0:
32,96,95294,1,0,0:0:0:0:
264,24,95458,2,0,L|260:128,1,85,8|0,0:0|0:0,0:0:0:0:
29,247,95786,6,0,P|-2:171|32:96,1,170,8|8,0:0|0:0,0:0:0:0:
176,20,96278,1,0,0:0:0:0:
260,220,96441,2,0,L|168:208,1,85,8|0,0:0|0:0,0:0:0:0:
368,96,96769,1,8,0:0:0:0:
408,316,96933,1,0,0:0:0:0:
168,293,97097,6,0,L|175:209,1,85,8|0,0:0|0:0,0:0:0:0:
188,48,97425,1,8,0:0:0:0:
360,136,97589,2,0,L|353:220,1,85,0|8,0:0|0:0,0:0:0:0:
340,380,97917,1,0,0:0:0:0:
127,144,98081,1,8,3:2:0:0:
137,142,98163,1,0,3:0:0:0:
148,140,98245,1,0,3:0:0:0:
158,139,98327,1,0,3:0:0:0:
169,137,98409,5,6,0:0:0:0:
200,302,98573,1,0,0:0:0:0:
267,204,98737,1,2,0:0:0:0:
102,235,98900,2,0,L|104:318,1,63.7500024318696,0|2,0:0|0:0,0:0:0:0:
365,271,99228,5,0,0:0:0:0:
334,106,99392,1,2,0:0:0:0:
365,271,99556,1,0,0:0:0:0:
267,204,99720,1,2,0:0:0:0:
432,173,99884,2,0,L|430:109,1,63.7500024318696,0|2,0:0|0:0,0:0:0:0:
200,95,100212,5,0,0:0:0:0:
365,271,100376,1,2,0:0:0:0:
129,227,100540,1,0,0:0:0:0:
345,124,100704,1,2,0:0:0:0:
229,335,100868,1,0,0:0:0:0:
345,124,101032,5,2,0:0:0:0:
358,309,101196,1,0,0:0:0:0:
259,224,101359,1,2,0:0:0:0:
443,210,101523,2,0,L|449:302,1,63.7500024318696,0|2,0:0|0:0,0:0:0:0:
174,323,101851,5,0,0:0:0:0:
161,139,102015,1,2,0:0:0:0:
174,323,102179,1,0,0:0:0:0:
259,224,102343,1,2,0:0:0:0:
76,238,102507,2,0,L|68:148,1,63.7500024318696,0|2,0:0|0:0,0:0:0:0:
286,94,102835,5,0,0:0:0:0:
174,323,102999,1,2,0:0:0:0:
8,104,103163,1,2,0:3:0:0:
8,104,103245,1,2,0:3:0:0:
8,104,103327,2,0,L|87:92,1,63.7500024318696,2|0,0:3|0:0,0:0:0:0:
308,216,103655,5,6,0:0:0:0:
68,332,103819,1,0,0:0:0:0:
58,260,103983,1,8,0:0:0:0:
49,188,104147,1,0,0:0:0:0:
192,12,104310,5,2,0:0:0:0:
332,240,104474,1,0,0:0:0:0:
261,254,104638,1,8,0:0:0:0:
190,269,104802,1,0,0:0:0:0:
68,76,104966,5,2,0:0:0:0:
324,0,105130,1,0,0:0:0:0:
335,71,105294,1,8,0:0:0:0:
347,142,105458,1,0,0:0:0:0:
190,269,105622,5,2,0:0:0:0:
40,48,105786,1,0,0:0:0:0:
110,33,105950,1,8,0:0:0:0:
181,18,106114,1,0,0:0:0:0:
347,142,106278,5,2,0:0:0:0:
88,208,106441,1,8,0:0:0:0:
288,36,106605,1,8,0:0:0:0:
372,288,106769,1,10,0:0:0:0:
372,288,107097,5,8,0:0:0:0:
184,88,107261,1,8,0:0:0:0:
456,48,107425,1,10,0:0:0:0:
456,48,107753,5,8,0:0:0:0:
216,220,107917,1,8,0:0:0:0:
496,312,108081,1,10,0:0:0:0:
496,312,108409,5,8,0:0:0:0:
288,88,108573,1,8,0:0:0:0:
208,384,108737,1,10,0:0:0:0:
