osu file format v14

[General]
AudioFilename: audio.mp3
AudioLeadIn: 0
PreviewTime: 53743
Countdown: 0
SampleSet: Soft
StackLeniency: 0.7
Mode: 0
LetterboxInBreaks: 0
WidescreenStoryboard: 0

[Editor]
DistanceSpacing: 0.9
BeatDivisor: 4
GridSize: 4
TimelineZoom: 1.5

[Metadata]
Title:Silhouette
TitleUnicode:シルエット
Artist:Hello, Happy World!
ArtistUnicode:ハロー、ハッピーワールド!
Creator:Doormat
Version:Normal
Source:バンドリ!ガールズバンドパーティ!
Tags:Nitrous -Nitrous DakiniBrave -_Rain_- - Rain - Kalibe BanG Dream! Girls Band Party bandori garupa ガルパ harohapi ハロハピ NARUTO-ナルト-疾風伝 shippuden boruto's dad KANA-BOON cover opening 16 game size tsurumaki kokoro 弦巻こころ itou miku 伊藤美来 seta kaoru 瀬田薫 tadokoro azusa 田所あずさ kitagawa hagumi 北沢はぐみ yoshida yuri 吉田有里 matsubara kanon 松原花音 toyota moe 豊田萌絵 michelle ミッシェル okusawa misaki 奥沢美咲 kurosawa tomoyo 黒沢ともよ
BeatmapID:1605112
BeatmapSetID:762466

[Difficulty]
HPDrainRate:4
CircleSize:3.5
OverallDifficulty:4
ApproachRate:5
SliderMultiplier:1.2
SliderTickRate:1

[Events]
//Background and Video events
0,0,"hello world.jpg",0,0
//Break Periods
//Storyboard Layer 0 (Background)
//Storyboard Layer 1 (Fail)
//Storyboard Layer 2 (Pass)
//Storyboard Layer 3 (Foreground)
//Storyboard Sound Samples

[TimingPoints]
1360,327.868852459016,4,2,1,40,1,0
1360,-100,4,2,1,40,0,0
6605,-100,4,2,1,60,0,0
11851,-100,4,2,1,70,0,1
11933,-100,4,2,1,70,0,0
21359,-100,4,2,1,70,0,0
21605,-100,4,2,1,5,0,0
21687,-100,4,2,1,70,0,0
22343,-100,4,2,1,60,0,0
43327,-100,4,2,1,40,0,0
48573,-100,4,2,1,50,0,0
51196,-100,4,2,1,60,0,0
51851,-100,4,2,1,70,0,0
52507,-100,4,2,1,80,0,0
52753,-100,4,2,1,5,0,0
52835,-100,4,2,1,60,0,0
53819,-100,4,2,1,80,0,1
64228,-100,4,2,1,80,0,0
64310,-100,4,2,1,80,0,1
74802,-100,4,2,1,70,0,0
76769,-100,4,2,1,40,0,0
77425,-100,4,2,1,80,0,1
87835,-100,4,2,1,80,0,0
87917,-100,4,2,1,80,0,1
98409,-100,4,2,1,60,0,0
106278,-100,4,2,1,80,0,0

[Colours]
Combo1 : 255,145,205
Combo2 : 255,220,45
Combo3 : 255,210,220
Combo4 : 255,200,20

[HitObjects]
358,128,1360,6,0,L|354:60,2,60,6|0|2,0:0|0:0|0:0,0:0:0:0:
394,168,1851,2,0,P|342:152|266:192,1,120,0|0,0:0|0:0,0:0:0:0:
242,212,2343,1,2,0:0:0:0:
142,168,2671,1,2,0:0:0:0:
142,168,2835,2,0,L|154:40,1,120,0|0,0:0|0:0,0:0:0:0:
186,4,3327,2,0,L|126:0,2,60,2|0|2,0:0|0:0|0:0,0:0:0:0:
278,56,3982,6,0,L|338:52,2,60,2|0|2,0:0|0:0|0:0,0:0:0:0:
238,92,4474,2,0,P|221:148|244:202,1,120,0|0,0:0|0:0,0:0:0:0:
286,236,4966,1,2,0:0:0:0:
218,320,5294,1,2,0:0:0:0:
218,320,5458,2,0,L|78:308,1,120,0|0,0:0|0:0,0:0:0:0:
57,271,5950,2,0,P|59:300|52:329,2,60,2|2|2,0:0|0:3|0:3,0:0:0:0:
50,164,6605,5,6,0:0:0:0:
50,164,6769,2,0,L|46:92,2,60,0|8|0,0:0|0:0|0:0,0:0:0:0:
154,192,7425,2,0,L|158:264,2,60,0|8|0,0:0|0:0|0:0,0:0:0:0:
242,128,8081,2,0,L|238:56,2,60,0|8|0,0:0|0:0|0:0,0:0:0:0:
346,156,8737,2,0,L|350:228,2,60,0|8|0,0:0|0:0|0:0,0:0:0:0:
414,72,9392,6,0,P|443:69|473:75,2,60,0|8|0,0:0|0:0|0:0,0:0:0:0:
346,156,10048,2,0,P|316:158|286:152,2,60,0|8|0,0:0|0:0|0:0,0:0:0:0:
390,188,10540,2,0,L|381:247,1,60,8|0,3:2|3:0,0:0:0:0:
330,268,10868,2,0,L|338:327,1,60,8|0,3:2|3:0,0:0:0:0:
382,360,11196,1,2,0:0:0:0:
502,183,11851,6,0,P|518:127|494:73,1,120,6|8,0:0|0:0,0:0:0:0:
450,56,12343,1,0,0:0:0:0:
450,56,12507,2,0,P|392:69|358:117,1,120,2|8,0:0|0:0,0:0:0:0:
286,200,13163,2,0,P|227:206|176:176,1,120,2|8,0:0|0:0,0:0:0:0:
134,156,13655,1,0,0:0:0:0:
134,156,13819,2,0,P|140:214|110:265,1,120,2|8,0:0|0:0,0:0:0:0:
34,192,14474,6,0,L|42:64,2,120,2|8|2,0:0|0:0|0:0,0:0:0:0:
110,265,15458,2,0,L|186:261,1,60,8|0,0:0|0:0,0:0:0:0:
210,227,15786,2,0,P|198:285|221:340,1,120,2|8,0:0|0:0,0:0:0:0:
270,368,16278,2,0,P|305:320|361:301,1,120,0|0,0:0|0:0,0:0:0:0:
414,304,16769,1,12,0:0:0:0:
366,208,17097,6,0,L|382:64,1,120,6|8,0:0|0:0,0:0:0:0:
402,40,17589,2,0,L|258:61,1,120,0|0,0:0|0:0,0:0:0:0:
234,76,18081,1,8,0:0:0:0:
262,180,18409,2,0,P|273:237|244:289,2,120,2|8|2,0:0|0:0|0:0,0:0:0:0:
162,220,19392,1,8,0:0:0:0:
86,144,19720,6,0,P|74:86|103:34,1,120,2|8,0:0|0:0,0:0:0:0:
146,0,20212,2,0,P|203:-11|255:17,1,120,0|0,0:0|0:0,0:0:0:0:
290,60,20704,1,8,0:0:0:0:
234,152,21032,1,2,0:0:0:0:
318,216,21359,2,0,L|446:208,1,120,12|0,0:0|3:2,0:0:0:0:
422,316,22015,2,0,L|362:319,1,60,0|0,3:2|3:0,0:0:0:0:
308,320,22343,5,6,0:0:0:0:
224,384,22671,1,8,0:0:0:0:
128,336,22999,2,0,L|136:272,1,60,2|2,0:0|0:0,0:0:0:0:
176,240,23327,2,0,P|104:244|60:208,2,120,8|2|8,0:0|0:0|0:0,0:0:0:0:
264,176,24310,2,0,L|328:192,1,60,2|2,0:0|0:0,0:0:0:0:
372,168,24638,1,8,0:0:0:0:
460,232,24966,6,0,L|452:292,1,60,2|0,0:0|0:0,0:0:0:0:
475,339,25294,2,0,P|422:315|364:327,1,120,8|2,0:0|0:0,0:0:0:0:
328,368,25786,1,2,0:0:0:0:
328,368,25950,2,0,P|269:364|223:327,1,120,8|2,0:0|0:0,0:0:0:0:
172,232,26605,1,8,0:0:0:0:
84,292,26933,2,0,L|96:368,2,60,2|2|8,0:0|0:0|0:0,0:0:0:0:
172,232,27589,6,0,L|190:113,1,120,2|8,0:0|0:0,0:0:0:0:
264,32,28245,2,0,P|300:40|336:36,1,60,2|2,0:0|0:0,0:0:0:0:
376,28,28573,1,8,0:0:0:0:
444,112,28900,2,0,L|425:230,1,120,2|8,0:0|0:0,0:0:0:0:
352,312,29556,2,0,P|316:304|280:308,1,60,2|2,0:0|0:0,0:0:0:0:
240,316,29884,1,8,0:0:0:0:
172,232,30212,6,0,L|190:113,2,120,2|8|2,0:0|0:0|0:0,0:0:0:0:
136,272,31032,1,2,0:0:0:0:
136,272,31196,2,0,P|92:272|32:204,1,120,8|2,0:0|0:0,0:0:0:0:
28,116,31851,1,8,0:0:0:0:
127,73,32179,2,0,L|196:88,1,60,2|2,0:0|0:0,0:0:0:0:
236,64,32507,1,12,0:0:0:0:
280,164,32835,6,0,P|278:223|270:283,1,120,6|8,0:0|0:0,0:0:0:0:
368,324,33491,2,0,P|368:272|376:240,1,60,2|2,0:0|0:0,0:0:0:0:
404,224,33819,2,0,P|407:194|405:164,1,60,8|0,0:0|0:0,0:0:0:0:
384,116,34146,1,2,0:0:0:0:
288,164,34474,1,8,0:0:0:0:
212,84,34802,2,0,L|144:92,1,60,2|2,0:0|0:0,0:0:0:0:
112,128,35130,1,8,0:0:0:0:
16,80,35458,6,0,P|23:138|0:193,1,120,2|8,0:0|0:0,0:0:0:0:
0,252,35950,1,0,0:0:0:0:
0,252,36114,2,0,L|68:268,1,60,2|2,0:0|0:0,0:0:0:0:
96,304,36441,2,0,L|154:290,1,60,8|0,0:0|0:0,0:0:0:0:
188,248,36769,1,2,0:0:0:0:
268,320,37097,1,8,0:0:0:0:
352,252,37425,2,0,L|344:180,2,60,2|2|8,0:0|0:0|0:0,0:0:0:0:
268,320,38081,6,0,P|224:296|132:304,1,120,2|8,0:0|0:0,0:0:0:0:
68,232,38737,2,0,L|72:156,1,60,2|2,0:0|0:0,0:0:0:0:
100,128,39064,1,8,0:0:0:0:
196,176,39392,2,0,P|240:200|332:192,1,120,2|8,0:0|0:0,0:0:0:0:
396,264,40048,2,0,L|392:340,1,60,2|2,0:0|0:0,0:0:0:0:
364,368,40375,1,8,0:0:0:0:
268,320,40704,6,0,P|224:296|132:304,2,120,2|8|2,0:0|0:0|0:0,0:0:0:0:
296,276,41523,1,2,0:0:0:0:
296,276,41687,2,0,P|294:216|321:163,1,120,8|2,0:0|0:0,0:0:0:0:
364,64,42343,2,0,L|288:44,1,60,12|0,0:0|0:0,0:0:0:0:
264,16,42671,2,0,L|205:31,1,60,10|10,0:0|0:0,0:0:0:0:
156,12,42999,2,0,P|158:72|131:125,1,120,8|6,0:3|0:0,0:0:0:0:
204,204,43655,5,2,0:0:0:0:
204,204,43819,2,0,L|336:188,1,120,8|0,0:0|0:0,0:0:0:0:
364,156,44310,2,0,L|380:288,1,120,8|6,0:0|0:0,0:0:0:0:
292,344,44966,1,2,0:0:0:0:
292,344,45130,2,0,P|248:320|164:336,1,120,8|0,0:0|0:0,0:0:0:0:
136,356,45622,2,0,P|145:306|104:231,1,120,8|6,0:0|0:0,0:0:0:0:
36,176,46278,5,2,0:0:0:0:
36,176,46441,2,0,P|26:126|67:51,1,120,8|0,0:0|0:0,0:0:0:0:
96,32,46933,2,0,L|156:52,1,60,8|8,0:0|0:0,0:0:0:0:
188,92,47261,2,0,L|308:72,1,120,6|8,0:0|0:0,0:0:0:0:
360,100,47753,1,8,0:0:0:0:
360,100,47917,2,0,P|344:52|348:28,2,60,2|0|8,0:0|0:0|0:0,0:0:0:0:
404,196,48573,6,0,L|393:315,1,120,6|8,0:0|0:0,0:0:0:0:
300,368,49228,2,0,L|272:308,1,60,2|2,0:0|0:0,0:0:0:0:
244,272,49556,1,8,0:0:0:0:
164,344,49884,1,2,0:0:0:0:
70,290,50212,1,8,0:0:0:0:
92,184,50540,2,0,L|156:180,1,60,2|2,0:0|0:0,0:0:0:0:
204,177,50868,1,8,0:0:0:0:
244,272,51196,6,0,L|380:263,1,120,2|8,0:0|0:0,0:0:0:0:
468,288,51851,2,0,P|463:258|467:228,1,60,2|2,0:0|0:0,0:0:0:0:
480,176,52179,2,0,P|483:146|478:116,1,60,8|2,0:0|0:0,0:0:0:0:
444,76,52507,1,12,0:0:0:0:
344,120,52835,2,0,L|285:108,1,60,0|0,3:0|3:0,0:0:0:0:
232,100,53163,1,0,3:0:0:0:
136,48,53491,1,0,0:0:0:0:
84,144,53819,6,0,L|104:264,1,120,6|8,0:0|0:0,0:0:0:0:
116,372,54474,2,0,L|180:356,1,60,2|2,0:0|0:0,0:0:0:0:
224,376,54802,2,0,L|288:360,1,60,8|0,0:0|0:0,0:0:0:0:
332,380,55130,2,0,P|314:323|330:266,1,120,2|8,0:0|0:0,0:0:0:0:
384,248,55622,1,0,0:0:0:0:
384,248,55786,2,0,P|340:228|332:216,2,60,2|2|8,0:0|0:0|0:0,0:0:0:0:
484,212,56441,5,2,0:0:0:0:
476,104,56768,1,8,0:0:0:0:
371,77,57097,2,0,L|304:88,1,60,2|2,0:0|0:0,0:0:0:0:
264,112,57425,2,0,L|204:102,1,60,8|0,0:0|0:0,0:0:0:0:
164,68,57753,2,0,L|144:200,1,120,2|8,0:0|0:0,0:0:0:0:
172,240,58245,1,0,0:0:0:0:
172,240,58409,2,0,P|143:231|113:233,1,60,2|2,0:0|0:0,0:0:0:0:
68,264,58737,1,12,0:0:0:0:
108,364,59064,6,0,L|228:352,1,120,6|8,0:0|0:0,0:0:0:0:
336,372,59720,2,0,P|328:343|329:313,1,60,2|2,0:0|0:0,0:0:0:0:
348,264,60048,1,8,0:0:0:0:
244,240,60376,2,0,L|256:120,1,120,2|8,0:0|0:0,0:0:0:0:
236,12,61032,2,0,P|264:19|294:18,1,60,2|2,0:0|0:0,0:0:0:0:
344,0,61360,1,8,0:0:0:0:
432,64,61687,6,0,L|420:184,1,120,2|8,0:0|0:0,0:0:0:0:
372,280,62343,2,0,P|332:252|324:236,1,60,2|2,0:0|0:0,0:0:0:0:
295,199,62671,2,0,P|283:257|238:296,1,120,8|2,0:0|0:0,0:0:0:0:
140,252,63327,1,8,0:0:0:0:
150,359,63655,1,2,0:0:0:0:
51,314,63983,1,12,0:0:0:0:
140,252,64310,6,0,P|164:204|140:120,1,120,6|8,0:0|0:0,0:0:0:0:
223,55,64966,2,0,P|246:75|274:86,1,60,2|2,0:0|0:0,0:0:0:0:
324,64,65294,2,0,P|351:52|381:51,1,60,8|0,0:0|0:0,0:0:0:0:
432,68,65622,2,0,P|432:128|392:192,1,120,2|8,0:0|0:0,0:0:0:0:
356,192,66114,1,0,0:0:0:0:
356,192,66278,2,0,L|412:248,2,60,2|2|8,0:0|0:0|0:0,0:0:0:0:
256,228,66933,6,0,L|252:352,1,120,2|8,0:0|0:0,0:0:0:0:
152,312,67589,2,0,L|150:250,1,60,2|2,0:0|0:0,0:0:0:0:
108,220,67917,2,0,L|106:158,1,60,8|0,0:0|0:0,0:0:0:0:
68,120,68245,1,2,0:0:0:0:
156,56,68573,1,8,0:0:0:0:
240,124,68900,2,0,L|304:116,1,60,2|2,0:0|0:0,0:0:0:0:
340,80,69228,1,12,0:0:0:0:
400,168,69556,6,0,P|409:226|382:278,1,120,6|8,0:0|0:0,0:0:0:0:
284,324,70212,2,0,L|204:312,1,60,2|2,0:0|0:0,0:0:0:0:
176,336,70540,1,8,0:0:0:0:
104,256,70868,2,0,P|94:197|121:145,1,120,2|8,0:0|0:0,0:0:0:0:
220,100,71524,2,0,L|300:112,1,60,2|2,0:0|0:0,0:0:0:0:
328,88,71852,1,8,0:0:0:0:
400,168,72179,6,0,P|458:177|510:150,1,120,2|8,0:0|0:0,0:0:0:0:
504,260,72835,2,0,L|492:340,1,60,2|2,0:0|0:0,0:0:0:0:
508,372,73163,2,0,L|368:340,1,120,8|2,0:0|0:0,0:0:0:0:
304,284,73819,1,8,0:0:0:0:
313,178,74146,1,2,0:0:0:0:
400,239,74474,1,8,0:0:0:0:
304,284,74802,6,0,P|224:272|176:296,1,120,6|0,1:2|0:0,0:0:0:0:
148,320,75294,1,2,1:2:0:0:
100,164,75786,2,0,P|180:176|228:152,1,120,2|0,1:2|0:0,0:0:0:0:
256,128,76278,1,2,1:2:0:0:
388,220,76769,2,0,L|384:284,2,60,2|2|2,3:0|3:0|3:0,0:0:0:0:
280,240,77425,6,0,L|272:372,1,120,6|8,0:0|0:0,0:0:0:0:
168,380,78081,2,0,L|152:316,1,60,8|0,0:0|0:0,0:0:0:0:
136,272,78409,1,8,0:0:0:0:
208,192,78737,2,0,P|276:204|328:172,1,120,8|8,0:0|0:0,0:0:0:0:
408,120,79392,2,0,L|396:48,1,60,8|0,0:0|0:0,0:0:0:0:
384,8,79720,1,8,0:0:0:0:
280,32,80048,6,0,L|144:24,1,120,8|8,0:0|0:0,0:0:0:0:
120,128,80704,2,0,L|192:144,1,60,8|0,0:0|0:0,0:0:0:0:
232,152,81032,1,8,0:0:0:0:
180,244,81359,2,0,P|157:298|173:354,1,120,8|8,0:0|0:0,0:0:0:0:
280,384,82015,2,0,L|352:364,1,60,8|0,0:0|0:0,0:0:0:0:
388,348,82343,1,8,0:0:0:0:
340,252,82671,5,12,0:0:0:0:
416,176,82999,1,8,0:0:0:0:
368,80,83327,2,0,L|296:72,1,60,8|0,0:0|0:0,0:0:0:0:
264,104,83655,2,0,L|192:96,1,60,8|0,0:0|0:0,0:0:0:0:
160,68,83982,1,8,0:0:0:0:
96,156,84310,1,8,0:0:0:0:
140,255,84638,2,0,L|212:263,1,60,8|0,0:0|0:0,0:0:0:0:
244,231,84966,2,0,L|316:239,1,60,8|0,0:0|0:0,0:0:0:0:
340,272,85294,5,8,0:0:0:0:
416,196,85622,1,8,0:0:0:0:
492,272,85950,2,0,L|488:340,1,60,8|0,0:0|0:0,0:0:0:0:
452,372,86278,1,8,0:0:0:0:
368,304,86605,1,8,0:0:0:0:
280,368,86933,1,8,0:0:0:0:
196,300,87261,2,0,L|200:232,1,60,8|0,0:0|0:0,0:0:0:0:
236,200,87589,2,0,L|240:132,1,60,8|0,0:0|0:0,0:0:0:0:
268,96,87917,6,0,P|216:108|144:76,2,120,12|8|8,0:0|0:0|0:0,0:0:0:0:
372,128,88900,2,0,L|380:200,1,60,8|0,0:0|0:0,0:0:0:0:
415,227,89228,2,0,P|357:224|306:256,1,120,8|8,0:0|0:0,0:0:0:0:
276,300,89720,1,0,0:0:0:0:
276,300,89884,2,0,P|217:303|166:271,1,120,8|8,0:0|0:0,0:0:0:0:
60,264,90540,6,0,L|44:388,2,120,8|8|8,0:0|0:0|0:0,0:0:0:0:
120,172,91523,2,0,L|112:104,1,60,8|0,0:0|0:0,0:0:0:0:
68,84,91851,2,0,P|126:90|179:63,1,120,8|8,0:0|0:0,0:0:0:0:
220,28,92343,1,0,0:0:0:0:
220,28,92507,2,0,P|256:74|313:92,1,120,8|8,0:0|0:0,0:0:0:0:
420,80,93163,6,0,P|474:56|506:6,2,120,12|8|8,0:0|0:0|0:0,0:0:0:0:
313,92,94146,2,0,L|304:156,1,60,8|0,0:0|0:0,0:0:0:0:
340,192,94474,2,0,L|216:168,1,120,8|8,0:0|0:0,0:0:0:0:
180,144,94966,1,0,0:0:0:0:
180,144,95130,2,0,L|62:166,1,120,8|8,0:0|0:0,0:0:0:0:
32,272,95786,6,0,P|20:324|64:392,2,120,8|8|8,0:0|0:0|0:0,0:0:0:0:
140,252,96769,2,0,L|198:263,1,60,8|0,0:0|0:0,0:0:0:0:
236,304,97097,2,0,P|219:247|238:191,1,120,8|8,0:0|0:0,0:0:0:0:
280,156,97589,1,0,0:0:0:0:
280,156,97753,2,0,P|283:97|252:46,1,120,8|8,0:0|3:2,0:0:0:0:
352,4,98409,6,0,L|472:20,1,120,6|2,0:0|0:0,0:0:0:0:
512,56,98900,1,0,0:0:0:0:
432,128,99228,1,0,0:0:0:0:
432,128,99392,2,0,L|444:196,1,60,2|0,0:0|0:0,0:0:0:0:
484,228,99720,1,2,0:0:0:0:
484,228,99884,2,0,P|432:216|364:260,1,120,0|0,0:0|0:0,0:0:0:0:
336,284,100376,1,2,0:0:0:0:
240,232,100704,1,2,0:0:0:0:
180,320,101032,6,0,L|192:380,2,60,2|0|2,0:0|0:0|0:0,0:0:0:0:
136,288,101523,2,0,L|149:145,1,120,0|0,0:0|0:0,0:0:0:0:
156,116,102015,1,2,0:0:0:0:
256,160,102343,1,2,0:0:0:0:
256,160,102507,2,0,L|384:144,1,120,0|0,0:0|0:0,0:0:0:0:
421,166,102999,2,0,P|412:137|416:108,2,60,2|2|2,0:0|0:3|0:3,0:0:0:0:
488,252,103655,5,6,0:0:0:0:
488,252,103819,2,0,L|480:324,2,60,0|8|0,0:0|0:0|0:0,0:0:0:0:
384,280,104474,2,0,L|377:339,2,60,0|8|0,0:0|0:0|0:0,0:0:0:0:
296,216,105130,2,0,L|302:156,2,60,0|8|0,0:0|0:0|0:0,0:0:0:0:
192,244,105786,2,0,L|200:172,2,60,0|8|0,0:0|0:0|0:0,0:0:0:0:
268,320,106441,5,8,0:0:0:0:
268,320,106605,2,0,L|332:312,1,60,8|10,0:0|0:0,0:0:0:0:
388,224,107097,1,8,0:0:0:0:
388,224,107261,2,0,L|324:216,1,60,8|10,0:0|0:0,0:0:0:0:
260,132,107753,1,8,0:0:0:0:
260,132,107917,2,0,L|324:124,1,60,8|10,0:0|0:0,0:0:0:0:
380,36,108409,1,8,0:0:0:0:
380,36,108573,2,0,L|316:28,1,60,8|10,0:0|0:0,0:0:0:0:
