osu file format v14

[General]
AudioFilename: audio.mp3
AudioLeadIn: 0
PreviewTime: 53743
Countdown: 0
SampleSet: Soft
StackLeniency: 0.7
Mode: 0
LetterboxInBreaks: 0
WidescreenStoryboard: 0

[Editor]
DistanceSpacing: 0.9
BeatDivisor: 4
GridSize: 4
TimelineZoom: 1.5

[Metadata]
Title:Silhouette
TitleUnicode:シルエット
Artist:Hello, Happy World!
ArtistUnicode:ハロー、ハッピーワールド!
Creator:Doormat
Version:Easy
Source:バンドリ!ガールズバンドパーティ!
Tags:Nitrous -Nitrous DakiniBrave -_Rain_- - Rain - Kalibe BanG Dream! Girls Band Party bandori garupa ガルパ harohapi ハロハピ NARUTO-ナルト-疾風伝 shippuden boruto's dad KANA-BOON cover opening 16 game size tsurumaki kokoro 弦巻こころ itou miku 伊藤美来 seta kaoru 瀬田薫 tadokoro azusa 田所あずさ kitagawa hagumi 北沢はぐみ yoshida yuri 吉田有里 matsubara kanon 松原花音 toyota moe 豊田萌絵 michelle ミッシェル okusawa misaki 奥沢美咲 kurosawa tomoyo 黒沢ともよ
BeatmapID:1605251
BeatmapSetID:762466

[Difficulty]
HPDrainRate:2
CircleSize:3
OverallDifficulty:2
ApproachRate:3
SliderMultiplier:1
SliderTickRate:1

[Events]
//Background and Video events
0,0,"hello world.jpg",0,0
//Break Periods
2,101232,102215
//Storyboard Layer 0 (Background)
//Storyboard Layer 1 (Fail)
//Storyboard Layer 2 (Pass)
//Storyboard Layer 3 (Foreground)
//Storyboard Sound Samples

[TimingPoints]
1360,327.868852459016,4,2,1,40,1,0
1360,-100,4,2,1,40,0,0
6605,-100,4,2,1,60,0,0
11851,-100,4,2,1,70,0,1
11933,-100,4,2,1,70,0,0
21359,-100,4,2,1,70,0,0
21605,-100,4,2,1,5,0,0
21687,-100,4,2,1,70,0,0
22343,-100,4,2,1,60,0,0
43327,-100,4,2,1,40,0,0
48573,-100,4,2,1,50,0,0
51196,-100,4,2,1,60,0,0
51851,-100,4,2,1,70,0,0
52507,-100,4,2,1,80,0,0
52753,-100,4,2,1,5,0,0
52835,-100,4,2,1,60,0,0
53819,-100,4,2,1,80,0,1
64228,-100,4,2,1,80,0,0
64310,-100,4,2,1,80,0,1
74802,-100,4,2,1,70,0,0
76769,-100,4,2,1,40,0,0
77425,-100,4,2,1,80,0,1
87835,-100,4,2,1,80,0,0
87917,-100,4,2,1,80,0,1
98409,-100,4,2,1,60,0,0
106278,-100,4,2,1,80,0,0

[Colours]
Combo1 : 255,145,205
Combo2 : 255,220,45
Combo3 : 255,210,220
Combo4 : 255,200,20

[HitObjects]
140,272,1360,6,0,P|202:310|274:295,2,150,6|0|2,0:0|0:0|0:0,0:0:0:0:
128,184,2671,2,0,B|224:153|224:153|305:209,1,200,2|2,0:0|0:0,0:0:0:0:
380,260,3655,1,2,0:0:0:0:
460,216,3982,6,0,P|496:172|452:80,2,150,2|0|2,0:0|0:0|0:0,0:0:0:0:
380,260,5294,2,0,B|288:216|288:216|195:249,1,200,2|2,0:0|0:0,0:0:0:0:
112,284,6278,1,2,0:3:0:0:
56,212,6605,6,0,L|60:104,1,100,6|8,0:0|0:0,0:0:0:0:
148,100,7261,2,0,L|144:208,1,100,2|8,0:0|0:0,0:0:0:0:
112,284,7917,1,2,0:0:0:0:
180,344,8245,2,0,L|284:328,2,100,8|2|8,0:0|0:0|0:0,0:0:0:0:
112,284,9228,6,0,L|8:268,1,100,2|8,0:0|0:0,0:0:0:0:
4,180,9884,1,2,0:0:0:0:
76,127,10212,1,8,0:0:0:0:
157,163,10540,2,0,P|188:192|196:256,2,100,8|8|2,3:2|3:2|0:0,0:0:0:0:
264,20,11851,6,0,L|424:44,2,150,6|0|8,0:0|0:0|0:0,0:0:0:0:
188,68,13163,2,0,L|28:92,2,150,2|0|8,0:0|0:0|0:0,0:0:0:0:
268,112,14474,6,0,P|288:148|256:252,1,150,2|0,0:0|0:0,0:0:0:0:
148,324,15458,1,8,0:0:0:0:
216,380,15786,2,0,L|366:380,1,150,2|0,0:0|0:0,0:0:0:0:
460,284,16769,1,12,0:0:0:0:
388,228,17097,6,0,P|360:156|400:84,2,150,6|0|8,0:0|0:0|0:0,0:0:0:0:
376,316,18409,2,0,L|277:301,1,100,2|8,0:0|0:0,0:0:0:0:
208,244,19064,2,0,L|109:258,1,100,2|8,0:0|0:0,0:0:0:0:
68,176,19720,6,0,B|133:134|133:134|220:157,2,150,2|0|8,0:0|0:0|0:0,0:0:0:0:
4,240,21032,1,2,0:0:0:0:
45,320,21360,1,12,0:0:0:0:
109,256,21687,2,0,L|216:268,1,100,0|0,3:2|3:2,0:0:0:0:
288,304,22343,5,6,0:0:0:0:
280,216,22671,1,8,0:0:0:0:
271,127,22999,2,0,P|221:119|177:96,1,100,2|8,0:0|0:0,0:0:0:0:
104,148,23655,2,0,P|112:197|103:246,2,100,2|8|2,0:0|0:0|0:0,0:0:0:0:
40,84,24638,1,8,0:0:0:0:
88,8,24966,6,0,L|196:20,1,100,2|8,0:0|0:0,0:0:0:0:
244,88,25622,1,2,0:0:0:0:
200,168,25950,2,0,P|179:261|248:328,1,200,8|8,0:0|0:0,0:0:0:0:
336,352,26933,1,2,0:0:0:0:
385,276,27261,1,8,0:0:0:0:
332,204,27589,6,0,L|340:103,1,100,2|8,0:0|0:0,0:0:0:0:
428,91,28245,2,0,L|420:192,1,100,2|8,0:0|0:0,0:0:0:0:
385,276,28900,2,0,L|486:284,1,100,2|8,0:0|0:0,0:0:0:0:
498,372,29556,2,0,L|397:364,1,100,2|8,0:0|0:0,0:0:0:0:
312,336,30212,6,0,P|264:323|221:347,1,100,2|8,0:0|0:0,0:0:0:0:
132,360,30868,2,0,P|84:346|59:304,1,100,2|8,0:0|0:0,0:0:0:0:
48,216,31523,1,2,0:0:0:0:
119,161,31851,1,8,0:0:0:0:
107,72,32179,2,0,L|216:56,1,100,2|12,0:0|0:0,0:0:0:0:
264,128,32835,6,0,L|192:220,1,100,6|8,0:0|0:0,0:0:0:0:
180,296,33491,1,2,0:0:0:0:
268,276,33819,2,0,P|362:254|439:313,1,200,8|8,0:0|0:0,0:0:0:0:
512,264,34802,2,0,L|504:156,1,100,2|8,0:0|0:0,0:0:0:0:
444,96,35458,5,2,0:0:0:0:
375,156,35786,2,0,L|264:144,1,100,8|2,0:0|0:0,0:0:0:0:
196,104,36441,2,0,L|96:114,1,100,8|2,0:0|0:0,0:0:0:0:
20,68,37097,1,8,0:0:0:0:
16,156,37425,2,0,P|12:200|36:260,1,100,2|8,0:0|0:0,0:0:0:0:
108,296,38081,6,0,P|160:244|280:260,1,200,2|2,0:0|0:0,0:0:0:0:
344,320,39064,1,8,0:0:0:0:
412,260,39392,2,0,P|434:165|374:90,1,200,2|2,0:0|0:0,0:0:0:0:
292,48,40376,1,8,0:0:0:0:
224,104,40704,6,0,L|112:96,1,100,2|8,0:0|0:0,0:0:0:0:
136,188,41359,2,0,L|248:196,1,100,2|8,0:0|0:0,0:0:0:0:
296,260,42015,1,2,0:0:0:0:
360,199,42343,1,12,0:0:0:0:
420,263,42671,2,0,L|412:368,1,100,10|8,0:0|0:3,0:0:0:0:
324,384,43327,6,0,P|260:346|187:353,2,150,6|8|8,0:0|0:0|0:0,0:0:0:0:
372,308,44638,2,0,P|435:345|508:338,2,150,6|8|8,0:0|0:0|0:0,0:0:0:0:
312,240,45950,6,0,P|248:202|175:209,2,150,6|8|8,0:0|0:0|0:0,0:0:0:0:
360,164,47261,2,0,P|423:201|528:140,1,200,6|2,0:0|0:0,0:0:0:0:
500,60,48245,1,8,0:0:0:0:
420,20,48573,6,0,L|312:40,1,100,6|8,0:0|0:0,0:0:0:0:
240,76,49228,2,0,L|141:57,1,100,2|8,0:0|0:0,0:0:0:0:
68,108,49884,1,2,0:0:0:0:
118,181,50212,1,8,0:0:0:0:
44,231,50540,2,0,L|62:329,1,100,2|8,0:0|0:0,0:0:0:0:
140,372,51196,6,0,P|204:324|324:360,2,200,2|2|12,0:0|0:0|0:0,0:0:0:0:
62,329,52835,2,0,L|44:231,1,100,0|0,3:0|3:0,0:0:0:0:
196,132,53819,6,0,L|214:230,1,100,6|8,0:0|0:0,0:0:0:0:
266,303,54474,1,2,0:0:0:0:
352,276,54802,1,8,0:0:0:0:
352,185,55130,2,0,P|344:137|303:91,1,100,2|8,0:0|0:0,0:0:0:0:
221,100,55786,2,0,P|192:139|188:200,1,100,2|8,0:0|0:0,0:0:0:0:
240,264,56441,5,2,0:0:0:0:
164,312,56769,1,8,0:0:0:0:
112,238,57097,2,0,L|-8:246,1,100,2|8,0:0|0:0,0:0:0:0:
32,156,57753,2,0,L|152:148,1,100,2|8,0:0|0:0,0:0:0:0:
192,84,58409,1,2,0:0:0:0:
280,80,58737,1,12,0:0:0:0:
344,139,59064,6,0,P|348:192|344:240,1,100,6|8,0:0|0:0,0:0:0:0:
436,244,59720,2,0,P|432:191|436:143,1,100,2|8,0:0|0:0,0:0:0:0:
476,64,60376,1,2,0:0:0:0:
411,2,60704,1,8,0:0:0:0:
332,44,61032,2,0,P|279:47|231:43,1,100,2|8,0:0|0:0,0:0:0:0:
232,132,61687,6,0,P|284:128|332:132,1,100,2|8,0:0|0:0,0:0:0:0:
404,188,62343,2,0,P|432:279|368:350,1,200,2|2,0:0|0:0,0:0:0:0:
280,332,63327,1,8,0:0:0:0:
204,381,63655,1,2,0:0:0:0:
115,362,63983,1,12,0:0:0:0:
65,286,64310,6,0,P|76:244|80:188,1,100,6|8,0:0|0:0,0:0:0:0:
168,160,64966,2,0,P|183:207|207:251,1,100,2|8,0:0|0:0,0:0:0:0:
292,284,65622,1,2,0:0:0:0:
352,216,65950,2,0,L|456:208,1,100,8|2,0:0|0:0,0:0:0:0:
500,132,66605,1,8,0:0:0:0:
444,60,66933,6,0,L|340:68,1,100,2|8,0:0|0:0,0:0:0:0:
264,108,67589,1,2,0:0:0:0:
223,27,67917,1,8,0:0:0:0:
142,67,68245,2,0,L|150:171,1,100,2|8,0:0|0:0,0:0:0:0:
190,247,68901,1,2,0:0:0:0:
109,288,69229,1,12,0:0:0:0:
150,369,69556,6,0,P|232:380|364:364,1,200,6|2,0:0|0:0,0:0:0:0:
424,320,70540,1,8,0:0:0:0:
360,256,70868,2,0,P|347:156|359:57,1,200,2|2,0:0|0:0,0:0:0:0:
432,4,71851,1,8,0:0:0:0:
500,60,72179,6,0,L|492:172,1,100,2|8,0:0|0:0,0:0:0:0:
496,252,72835,2,0,L|384:244,1,100,2|8,0:0|0:0,0:0:0:0:
320,196,73491,1,2,0:0:0:0:
239,237,73819,1,8,0:0:0:0:
234,327,74146,2,0,L|346:335,1,100,2|8,0:0|0:0,0:0:0:0:
424,344,74802,6,0,P|456:278|435:207,1,150,6|2,1:2|1:2,0:0:0:0:
316,147,75786,2,0,P|246:170|211:235,1,150,2|2,1:2|1:2,0:0:0:0:
80,271,76769,2,0,L|60:163,1,100,2|2,3:0|3:0,0:0:0:0:
88,84,77425,6,0,P|176:104|272:44,1,200,6|8,0:0|0:0,0:0:0:0:
359,48,78409,1,8,0:0:0:0:
432,104,78737,2,0,L|428:208,1,100,8|8,0:0|0:0,0:0:0:0:
444,292,79392,2,0,L|340:288,1,100,8|8,0:0|0:0,0:0:0:0:
272,236,80048,6,0,P|176:232|121:311,1,200,8|8,0:0|0:0,0:0:0:0:
180,380,81032,1,8,0:0:0:0:
256,336,81359,2,0,L|360:348,1,100,8|8,0:0|0:0,0:0:0:0:
444,372,82015,2,0,L|456:268,1,100,8|8,0:0|0:0,0:0:0:0:
488,188,82671,6,0,P|440:144|312:172,1,200,12|8,0:0|0:0,0:0:0:0:
256,232,83655,1,8,0:0:0:0:
188,176,83982,2,0,L|76:192,1,100,8|8,0:0|0:0,0:0:0:0:
72,100,84638,2,0,L|184:84,1,100,8|8,0:0|0:0,0:0:0:0:
243,31,85294,6,0,P|298:111|264:201,1,200,8|8,0:0|0:0,0:0:0:0:
200,268,86278,1,8,0:0:0:0:
288,292,86605,2,0,L|396:276,1,100,8|8,0:0|0:0,0:0:0:0:
404,364,87261,2,0,L|292:380,1,100,8|8,0:0|0:0,0:0:0:0:
216,356,87917,6,0,P|193:261|268:200,1,200,12|8,0:0|0:0,0:0:0:0:
352,196,88900,1,8,0:0:0:0:
432,236,89228,2,0,L|412:388,2,150,8|0|8,0:0|0:0|0:0,0:0:0:0:
352,196,90540,6,0,P|276:168|184:240,1,200,8|8,0:0|0:0,0:0:0:0:
164,320,91523,1,8,0:0:0:0:
228,380,91851,2,0,L|376:360,2,150,8|0|8,0:0|0:0|0:0,0:0:0:0:
164,320,93163,6,0,P|88:328|0:232,1,200,12|8,0:0|0:0,0:0:0:0:
0,156,94146,1,8,0:0:0:0:
80,196,94474,2,0,L|236:176,2,150,8|0|8,0:0|0:0|0:0,0:0:0:0:
0,156,95786,6,0,P|-16:112|88:8,1,200,8|8,0:0|0:0,0:0:0:0:
164,16,96769,1,8,0:0:0:0:
172,104,97097,2,0,L|188:268,2,150,8|0|8,0:0|0:0|3:2,0:0:0:0:
164,16,98409,5,6,0:0:0:0:
256,192,98573,12,2,101032,0:0:0:0:
316,152,103655,6,0,L|432:140,1,100,6|8,0:0|0:0,0:0:0:0:
408,232,104310,2,0,L|292:244,1,100,2|8,0:0|0:0,0:0:0:0:
220,224,104966,2,0,L|232:340,1,100,2|8,0:0|0:0,0:0:0:0:
140,316,105622,2,0,L|129:216,1,100,2|8,0:0|0:0,0:0:0:0:
64,100,106441,6,0,P|110:83|160:86,1,100,8|10,0:0|0:0,0:0:0:0:
237,132,107097,2,0,P|253:178|250:228,1,100,8|10,0:0|0:0,0:0:0:0:
205,304,107753,2,0,P|158:320|108:317,1,100,8|10,0:0|0:0,0:0:0:0:
31,271,108409,2,0,P|14:224|17:174,1,100,8|10,0:0|0:0,0:0:0:0:
