osu file format v14

[General]
AudioFilename: audio.mp3
AudioLeadIn: 0
PreviewTime: 83341
Countdown: 1
SampleSet: Normal
StackLeniency: 0.7
Mode: 1
LetterboxInBreaks: 0
WidescreenStoryboard: 0

[Editor]
Bookmarks: 27841,32555,97698
DistanceSpacing: 0.1
BeatDivisor: 6
GridSize: 32
TimelineZoom: 2.4

[Metadata]
Title:Romeo
TitleUnicode:ロメオ
Artist:Hello, Happy World!
ArtistUnicode:ハロー!ハッピーワールド!
Creator:toara_fict
Version:Oni
Source:バンドリ!ガールズバンドパーティ!
Tags:BanG Dream! Cover Girls Band Party! Hello, Happy World! Tsurumaki Kokoro 弦巻 こころ Okusawa Misaki 奥沢美咲 Michelle 奥沢 美咲 Seta Kaoru 瀬田 薫 Matsubara Kanon 松原 花音 Kitazawa Hagumi 北沢 はぐみ Miku Itou 美来 伊藤 Kurosawa Tomoyo 黒沢 ともよ Tadokoro Azusa 田所 あずさ Toyota Moe 豊田 萌絵 Yoshida Yuri 有里 吉田 Oji 海賊王 shito 使徒 cake 宇都圭輝 AtsuyuK! 田中温之
BeatmapID:1452186
BeatmapSetID:686082

[Difficulty]
HPDrainRate:5
CircleSize:5
OverallDifficulty:5
ApproachRate:5
SliderMultiplier:1.4
SliderTickRate:1

[Events]
//Background and Video events
0,0,"image.png",0,0
//Break Periods
//Storyboard Layer 0 (Background)
//Storyboard Layer 1 (Fail)
//Storyboard Layer 2 (Pass)
//Storyboard Layer 3 (Foreground)
//Storyboard Sound Samples

[TimingPoints]
-16,428.571428571429,4,1,0,70,1,0
15412,-100,4,1,0,90,0,0
70285,-100,4,1,0,90,0,0
83984,-100,4,1,0,100,0,1
111412,-100,4,1,0,95,0,0

[HitObjects]
288,160,15412,5,4,0:0:0:0:
224,160,15841,1,8,0:0:0:0:
288,160,16269,1,0,0:0:0:0:
288,160,16412,1,0,0:0:0:0:
288,160,16555,1,0,0:0:0:0:
224,160,16698,1,8,0:0:0:0:
288,160,16984,1,0,0:0:0:0:
224,160,17126,1,8,0:0:0:0:
224,160,17412,1,8,0:0:0:0:
288,160,17555,1,0,0:0:0:0:
224,160,17841,1,8,0:0:0:0:
288,160,17984,1,0,0:0:0:0:
288,160,18126,1,0,0:0:0:0:
288,160,18269,1,0,0:0:0:0:
224,160,18412,1,8,0:0:0:0:
224,160,18555,1,8,0:0:0:0:
224,160,18698,1,8,0:0:0:0:
288,160,18841,1,4,0:0:0:0:
224,160,19270,1,8,0:0:0:0:
288,160,19698,1,0,0:0:0:0:
288,160,19841,1,0,0:0:0:0:
288,160,19984,1,0,0:0:0:0:
224,160,20127,1,8,0:0:0:0:
288,160,20413,1,0,0:0:0:0:
224,160,20555,1,8,0:0:0:0:
288,160,20698,1,0,0:0:0:0:
224,160,20841,1,8,0:0:0:0:
288,160,20984,1,0,0:0:0:0:
224,160,21270,1,8,0:0:0:0:
288,160,21413,1,0,0:0:0:0:
288,160,21555,1,0,0:0:0:0:
288,160,21698,1,0,0:0:0:0:
224,160,21841,1,8,0:0:0:0:
224,160,22127,1,8,0:0:0:0:
288,160,22269,1,0,0:0:0:0:
288,160,22555,1,0,0:0:0:0:
224,160,22698,1,8,0:0:0:0:
288,160,23126,1,0,0:0:0:0:
288,160,23269,1,0,0:0:0:0:
288,160,23412,1,0,0:0:0:0:
224,160,23555,1,8,0:0:0:0:
288,160,23841,1,0,0:0:0:0:
224,160,23983,1,8,0:0:0:0:
224,160,24269,1,8,0:0:0:0:
288,160,24412,1,0,0:0:0:0:
288,160,24555,1,0,0:0:0:0:
224,160,24698,1,8,0:0:0:0:
288,160,24841,1,0,0:0:0:0:
288,160,25126,1,0,0:0:0:0:
224,160,25269,1,8,0:0:0:0:
224,160,25412,1,8,0:0:0:0:
224,160,25555,1,8,0:0:0:0:
288,160,25698,1,4,0:0:0:0:
288,160,25984,1,0,0:0:0:0:
224,160,26127,1,8,0:0:0:0:
224,160,26412,1,8,0:0:0:0:
288,160,26555,1,0,0:0:0:0:
288,160,26698,1,0,0:0:0:0:
288,160,26841,1,0,0:0:0:0:
224,160,26984,1,8,0:0:0:0:
288,160,27270,1,0,0:0:0:0:
224,160,27412,1,8,0:0:0:0:
288,160,27698,1,0,0:0:0:0:
224,160,27841,1,8,0:0:0:0:
288,160,27984,1,0,0:0:0:0:
288,160,28127,1,0,0:0:0:0:
224,160,28270,1,8,0:0:0:0:
288,160,28412,1,0,0:0:0:0:
288,160,28555,1,0,0:0:0:0:
224,160,28698,1,8,0:0:0:0:
288,160,29126,1,0,0:0:0:0:
224,160,29555,1,8,0:0:0:0:
288,160,29984,1,0,0:0:0:0:
224,160,30269,1,8,0:0:0:0:
288,160,30412,1,0,0:0:0:0:
288,160,30698,1,0,0:0:0:0:
224,160,30841,1,8,0:0:0:0:
224,160,31269,1,8,0:0:0:0:
224,160,31412,1,8,0:0:0:0:
224,160,31555,1,8,0:0:0:0:
288,160,31698,1,0,0:0:0:0:
224,160,31984,1,8,0:0:0:0:
224,160,32055,1,8,0:0:0:0:
288,160,32126,1,0,0:0:0:0:
288,160,32269,1,0,0:0:0:0:
288,160,32412,1,0,0:0:0:0:
288,160,32555,1,8,0:0:0:0:
224,160,32984,1,8,0:0:0:0:
224,160,33269,1,8,0:0:0:0:
288,160,33413,1,0,0:0:0:0:
288,160,33555,1,0,0:0:0:0:
224,160,33698,1,8,0:0:0:0:
288,160,33841,1,0,0:0:0:0:
288,160,34127,1,0,0:0:0:0:
224,160,34270,1,8,0:0:0:0:
224,160,34698,1,8,0:0:0:0:
224,160,34841,1,8,0:0:0:0:
224,160,34984,1,8,0:0:0:0:
288,160,35127,1,0,0:0:0:0:
224,160,35413,1,8,0:0:0:0:
224,160,35484,1,8,0:0:0:0:
288,160,35555,1,8,0:0:0:0:
288,160,35698,1,0,0:0:0:0:
288,160,35841,1,0,0:0:0:0:
288,160,35984,1,8,0:0:0:0:
288,160,36269,1,0,0:0:0:0:
224,160,36413,1,8,0:0:0:0:
288,160,36698,1,0,0:0:0:0:
288,160,36842,1,0,0:0:0:0:
224,160,36984,1,8,0:0:0:0:
224,160,37127,1,8,0:0:0:0:
288,160,37270,1,0,0:0:0:0:
288,160,37556,1,0,0:0:0:0:
224,160,37699,1,8,0:0:0:0:
288,160,37984,1,0,0:0:0:0:
224,160,38127,1,8,0:0:0:0:
224,160,38270,1,8,0:0:0:0:
288,160,38413,1,0,0:0:0:0:
288,160,38484,1,0,0:0:0:0:
224,160,38556,1,8,0:0:0:0:
224,160,38698,1,8,0:0:0:0:
224,160,38842,1,0,0:0:0:0:
288,160,38984,1,8,0:0:0:0:
288,160,39270,1,8,0:0:0:0:
288,160,39413,1,0,0:0:0:0:
288,160,39698,1,0,0:0:0:0:
224,160,39842,1,8,0:0:0:0:
224,160,40127,1,8,0:0:0:0:
288,160,40271,1,0,0:0:0:0:
288,160,40413,1,0,0:0:0:0:
224,160,40556,1,8,0:0:0:0:
288,160,40699,1,0,0:0:0:0:
288,160,40985,1,0,0:0:0:0:
224,160,41128,1,8,0:0:0:0:
224,160,41556,1,8,0:0:0:0:
224,160,41699,1,8,0:0:0:0:
224,160,41842,1,8,0:0:0:0:
288,160,41985,1,0,0:0:0:0:
224,160,42198,1,8,0:0:0:0:
224,160,42305,1,8,0:0:0:0:
288,160,42413,1,8,0:0:0:0:
288,160,42556,1,0,0:0:0:0:
288,160,42699,1,0,0:0:0:0:
288,224,42841,1,12,0:0:0:0:
224,160,43270,1,8,0:0:0:0:
288,160,43698,1,0,0:0:0:0:
288,160,43841,1,0,0:0:0:0:
288,160,43984,1,0,0:0:0:0:
224,160,44127,1,8,0:0:0:0:
288,160,44413,1,0,0:0:0:0:
224,160,44555,1,8,0:0:0:0:
224,160,44841,1,8,0:0:0:0:
288,160,44984,1,0,0:0:0:0:
224,160,45270,1,8,0:0:0:0:
288,160,45413,1,0,0:0:0:0:
288,160,45555,1,0,0:0:0:0:
288,160,45698,1,0,0:0:0:0:
224,160,45841,1,8,0:0:0:0:
224,160,45984,1,8,0:0:0:0:
224,160,46127,1,8,0:0:0:0:
288,160,46270,1,4,0:0:0:0:
288,160,46555,1,0,0:0:0:0:
224,160,46699,1,8,0:0:0:0:
224,160,46984,1,8,0:0:0:0:
288,160,47127,1,0,0:0:0:0:
288,160,47270,1,0,0:0:0:0:
288,160,47413,1,0,0:0:0:0:
224,160,47556,1,8,0:0:0:0:
288,160,47842,1,0,0:0:0:0:
224,160,47984,1,8,0:0:0:0:
224,160,48270,1,8,0:0:0:0:
288,160,48413,1,0,0:0:0:0:
288,160,48555,1,0,0:0:0:0:
224,160,48699,1,8,0:0:0:0:
288,160,48842,1,0,0:0:0:0:
288,160,48984,1,0,0:0:0:0:
288,160,49127,1,0,0:0:0:0:
224,160,49270,1,8,0:0:0:0:
224,160,49556,1,8,0:0:0:0:
288,160,49698,1,0,0:0:0:0:
288,160,49984,1,0,0:0:0:0:
224,160,50127,1,8,0:0:0:0:
224,160,50412,1,8,0:0:0:0:
288,160,50555,1,0,0:0:0:0:
288,160,50698,1,0,0:0:0:0:
288,160,50841,1,0,0:0:0:0:
224,160,50984,1,8,0:0:0:0:
224,160,51126,1,8,0:0:0:0:
288,160,51270,1,0,0:0:0:0:
224,160,51412,1,8,0:0:0:0:
224,160,51698,1,8,0:0:0:0:
288,160,51841,1,0,0:0:0:0:
224,160,52127,1,8,0:0:0:0:
288,160,52270,1,0,0:0:0:0:
288,160,52412,1,0,0:0:0:0:
288,160,52555,1,0,0:0:0:0:
224,160,52698,1,8,0:0:0:0:
224,160,52841,1,8,0:0:0:0:
224,160,52984,1,8,0:0:0:0:
288,160,53127,1,4,0:0:0:0:
288,160,53413,1,0,0:0:0:0:
224,160,53556,1,8,0:0:0:0:
224,160,53841,1,8,0:0:0:0:
288,160,53984,1,0,0:0:0:0:
288,160,54127,1,0,0:0:0:0:
288,160,54270,1,0,0:0:0:0:
224,160,54413,1,8,0:0:0:0:
288,160,54555,1,0,0:0:0:0:
224,160,54841,1,8,0:0:0:0:
288,160,55126,1,0,0:0:0:0:
288,160,55269,1,8,0:0:0:0:
288,160,55555,1,0,0:0:0:0:
224,160,55699,1,8,0:0:0:0:
288,160,55841,1,8,0:0:0:0:
288,160,55984,1,8,0:0:0:0:
224,160,56127,1,0,0:0:0:0:
288,160,56269,1,0,0:0:0:0:
288,160,56412,1,8,0:0:0:0:
288,160,56555,1,0,0:0:0:0:
224,160,56984,1,8,0:0:0:0:
288,160,57269,1,0,0:0:0:0:
288,160,57413,1,0,0:0:0:0:
224,160,57698,1,8,0:0:0:0:
288,160,57841,1,0,0:0:0:0:
288,160,58127,1,0,0:0:0:0:
224,160,58270,1,8,0:0:0:0:
224,160,58412,1,8,0:0:0:0:
288,160,58555,1,0,0:0:0:0:
224,160,58841,1,8,0:0:0:0:
224,160,58984,1,8,0:0:0:0:
288,160,59127,1,0,0:0:0:0:
224,160,59269,1,8,0:0:0:0:
224,160,59413,1,0,0:0:0:0:
224,160,59484,1,0,0:0:0:0:
288,160,59555,1,8,0:0:0:0:
288,160,59698,1,8,0:0:0:0:
288,160,59841,1,8,0:0:0:0:
288,160,59984,1,0,0:0:0:0:
224,160,60413,1,8,0:0:0:0:
224,160,60698,1,8,0:0:0:0:
288,160,60842,1,0,0:0:0:0:
288,160,60984,1,0,0:0:0:0:
224,160,61127,1,8,0:0:0:0:
288,160,61270,1,0,0:0:0:0:
288,160,61556,1,0,0:0:0:0:
224,160,61699,1,8,0:0:0:0:
288,160,61984,1,0,0:0:0:0:
224,160,62127,1,8,0:0:0:0:
224,160,62270,1,8,0:0:0:0:
224,160,62413,1,8,0:0:0:0:
288,160,62556,1,0,0:0:0:0:
224,160,62841,1,8,0:0:0:0:
224,160,62913,1,0,0:0:0:0:
288,160,62984,1,0,0:0:0:0:
288,160,63127,1,8,0:0:0:0:
288,160,63270,1,0,0:0:0:0:
288,160,63412,1,8,0:0:0:0:
288,160,63698,1,0,0:0:0:0:
224,160,63842,1,8,0:0:0:0:
288,160,64127,1,0,0:0:0:0:
288,160,64271,1,0,0:0:0:0:
224,160,64413,1,8,0:0:0:0:
224,160,64556,1,8,0:0:0:0:
288,160,64699,1,0,0:0:0:0:
288,160,64985,1,0,0:0:0:0:
224,160,65128,1,8,0:0:0:0:
288,160,65269,1,8,0:0:0:0:
288,160,65413,1,8,0:0:0:0:
224,160,65556,1,0,0:0:0:0:
224,160,65699,1,0,0:0:0:0:
288,160,65842,1,0,0:0:0:0:
224,160,65985,1,8,0:0:0:0:
224,160,66127,1,8,0:0:0:0:
224,160,66271,1,0,0:0:0:0:
288,160,66413,1,8,0:0:0:0:
288,160,66699,1,8,0:0:0:0:
288,160,66842,1,0,0:0:0:0:
288,160,67127,1,0,0:0:0:0:
224,160,67271,1,8,0:0:0:0:
288,160,67412,1,0,0:0:0:0:
224,160,67556,1,8,0:0:0:0:
288,160,67698,1,0,0:0:0:0:
224,160,67985,1,8,0:0:0:0:
288,160,68128,1,0,0:0:0:0:
288,160,68269,1,0,0:0:0:0:
224,160,68557,1,8,0:0:0:0:
224,160,68698,1,8,0:0:0:0:
224,160,68841,1,8,0:0:0:0:
288,160,68985,1,0,0:0:0:0:
224,160,69126,1,0,0:0:0:0:
224,160,69271,1,0,0:0:0:0:
224,160,69414,1,8,0:0:0:0:
224,160,69627,1,0,0:0:0:0:
224,160,69734,1,0,0:0:0:0:
288,160,69842,1,0,0:0:0:0:
224,224,70269,1,12,0:0:0:0:
224,160,70698,1,0,0:0:0:0:
224,160,71126,1,0,0:0:0:0:
224,160,71341,1,8,0:0:0:0:
224,160,71448,1,8,0:0:0:0:
288,160,71555,1,0,0:0:0:0:
288,160,71698,1,0,0:0:0:0:
288,160,71841,1,0,0:0:0:0:
224,224,71984,1,12,0:0:0:0:
224,160,72412,1,0,0:0:0:0:
288,160,72841,1,8,0:0:0:0:
224,160,72948,1,8,0:0:0:0:
224,160,73055,1,0,0:0:0:0:
224,160,73162,1,0,0:0:0:0:
224,160,73269,1,8,0:0:0:0:
288,160,73412,1,0,0:0:0:0:
288,160,73555,1,0,0:0:0:0:
224,224,73698,1,12,0:0:0:0:
224,160,74126,1,0,0:0:0:0:
224,160,74555,1,0,0:0:0:0:
288,160,74841,1,0,0:0:0:0:
224,160,74984,1,8,0:0:0:0:
224,160,75126,1,0,0:0:0:0:
224,160,75269,1,0,0:0:0:0:
288,224,75412,1,12,0:0:0:0:
224,160,75841,1,8,0:0:0:0:
224,160,75984,1,0,0:0:0:0:
224,160,76126,1,0,0:0:0:0:
224,160,76269,1,8,0:0:0:0:
224,160,76555,1,0,0:0:0:0:
224,160,76698,1,0,0:0:0:0:
224,160,76841,1,0,0:0:0:0:
224,160,76984,1,0,0:0:0:0:
224,224,77126,1,12,0:0:0:0:
224,160,77555,1,0,0:0:0:0:
224,160,77984,1,0,0:0:0:0:
224,160,78269,1,8,0:0:0:0:
224,160,78412,1,8,0:0:0:0:
224,160,78555,1,0,0:0:0:0:
224,160,78698,1,0,0:0:0:0:
224,224,78841,1,12,0:0:0:0:
224,160,79269,1,8,0:0:0:0:
224,160,79412,1,8,0:0:0:0:
224,160,79555,1,0,0:0:0:0:
224,160,79698,1,8,0:0:0:0:
288,160,79841,1,0,0:0:0:0:
288,160,79984,1,0,0:0:0:0:
224,160,80126,1,8,0:0:0:0:
288,160,80269,1,0,0:0:0:0:
288,160,80412,1,0,0:0:0:0:
224,224,80555,1,12,0:0:0:0:
288,160,80984,1,0,0:0:0:0:
288,160,81126,1,0,0:0:0:0:
281,159,81269,1,0,0:0:0:0:
224,160,81412,1,12,0:0:0:0:
224,160,81698,1,0,0:0:0:0:
224,160,81841,1,8,0:0:0:0:
288,160,81984,1,0,0:0:0:0:
224,160,82126,1,0,0:0:0:0:
224,160,82269,1,12,0:0:0:0:
288,224,83984,1,4,0:0:0:0:
224,160,84305,1,8,0:0:0:0:
288,160,84412,1,0,0:0:0:0:
224,160,84626,1,8,0:0:0:0:
224,160,84841,1,8,0:0:0:0:
288,160,85055,1,0,0:0:0:0:
288,160,85269,1,0,0:0:0:0:
288,160,85376,1,0,0:0:0:0:
256,160,85484,1,8,0:0:0:0:
288,160,85698,1,0,0:0:0:0:
224,224,85912,1,12,0:0:0:0:
288,160,86126,1,0,0:0:0:0:
224,224,86341,1,12,0:0:0:0:
288,160,86555,1,0,0:0:0:0:
224,224,86769,1,12,0:0:0:0:
288,160,86984,1,0,0:0:0:0:
224,224,87198,1,12,0:0:0:0:
288,160,87412,1,0,0:0:0:0:
224,160,87626,1,8,0:0:0:0:
288,160,87841,1,0,0:0:0:0:
288,160,87948,1,0,0:0:0:0:
224,160,88055,1,8,0:0:0:0:
224,160,88269,1,8,0:0:0:0:
288,160,88484,1,0,0:0:0:0:
288,160,88591,1,0,0:0:0:0:
288,160,88805,1,0,0:0:0:0:
224,160,88912,1,8,0:0:0:0:
224,160,89126,1,8,0:0:0:0:
224,160,89341,1,8,0:0:0:0:
224,160,89448,1,8,0:0:0:0:
288,160,89555,1,0,0:0:0:0:
288,160,89662,1,0,0:0:0:0:
224,160,89769,1,8,0:0:0:0:
288,160,89984,1,0,0:0:0:0:
224,160,90198,1,8,0:0:0:0:
288,160,90412,1,0,0:0:0:0:
288,160,90519,1,0,0:0:0:0:
224,160,90626,1,8,0:0:0:0:
224,160,90841,1,8,0:0:0:0:
224,160,90948,1,8,0:0:0:0:
224,160,91055,1,8,0:0:0:0:
288,160,91162,1,0,0:0:0:0:
288,160,91269,1,0,0:0:0:0:
288,160,91376,1,0,0:0:0:0:
224,160,91484,1,8,0:0:0:0:
288,160,91591,1,0,0:0:0:0:
224,160,91698,1,8,0:0:0:0:
288,160,91805,1,8,0:0:0:0:
288,160,91912,1,0,0:0:0:0:
224,160,92126,1,12,0:0:0:0:
288,160,92341,1,0,0:0:0:0:
288,160,92555,1,0,0:0:0:0:
288,160,92662,1,0,0:0:0:0:
224,160,92769,1,8,0:0:0:0:
288,160,92984,1,0,0:0:0:0:
288,160,93091,1,0,0:0:0:0:
256,160,93198,1,8,0:0:0:0:
288,160,93305,1,0,0:0:0:0:
224,160,93412,1,8,0:0:0:0:
224,160,93519,1,8,0:0:0:0:
288,160,93626,1,0,0:0:0:0:
224,160,93841,1,12,0:0:0:0:
224,160,94055,1,8,0:0:0:0:
224,160,94162,1,8,0:0:0:0:
288,160,94269,1,0,0:0:0:0:
224,160,94484,1,8,0:0:0:0:
288,160,94698,1,0,0:0:0:0:
288,160,94805,1,0,0:0:0:0:
224,160,94912,1,8,0:0:0:0:
224,160,95126,1,8,0:0:0:0:
288,160,95234,1,0,0:0:0:0:
224,160,95341,1,8,0:0:0:0:
224,160,95448,1,8,0:0:0:0:
288,160,95555,1,0,0:0:0:0:
288,160,95662,1,0,0:0:0:0:
224,160,95769,1,8,0:0:0:0:
224,224,95984,1,12,0:0:0:0:
288,160,96198,1,0,0:0:0:0:
288,160,96305,1,0,0:0:0:0:
224,160,96412,1,8,0:0:0:0:
288,160,96626,1,0,0:0:0:0:
224,160,96841,1,12,0:0:0:0:
288,160,97055,1,0,0:0:0:0:
288,160,97162,1,0,0:0:0:0:
224,160,97269,1,8,0:0:0:0:
288,160,97376,1,0,0:0:0:0:
224,160,97484,1,8,0:0:0:0:
288,224,97698,1,4,0:0:0:0:
224,160,98019,1,8,0:0:0:0:
288,160,98126,1,0,0:0:0:0:
224,160,98340,1,8,0:0:0:0:
288,160,98555,1,0,0:0:0:0:
288,160,98662,1,8,0:0:0:0:
288,160,98769,1,8,0:0:0:0:
288,160,98876,1,0,0:0:0:0:
288,160,99090,1,0,0:0:0:0:
256,160,99198,1,8,0:0:0:0:
288,160,99412,1,0,0:0:0:0:
224,224,99626,1,12,0:0:0:0:
288,160,99840,1,0,0:0:0:0:
224,224,100055,1,12,0:0:0:0:
288,160,100269,1,0,0:0:0:0:
224,224,100483,1,12,0:0:0:0:
288,160,100698,1,0,0:0:0:0:
224,224,100912,1,12,0:0:0:0:
288,160,101126,1,0,0:0:0:0:
224,160,101340,1,8,0:0:0:0:
288,160,101448,1,0,0:0:0:0:
288,160,101662,1,0,0:0:0:0:
224,160,101769,1,8,0:0:0:0:
224,160,101876,1,8,0:0:0:0:
288,160,101984,1,0,0:0:0:0:
224,160,102198,1,8,0:0:0:0:
288,160,102305,1,0,0:0:0:0:
288,160,102519,1,0,0:0:0:0:
224,160,102626,1,8,0:0:0:0:
224,160,102840,1,8,0:0:0:0:
224,160,103055,1,8,0:0:0:0:
224,160,103162,1,8,0:0:0:0:
288,160,103269,1,0,0:0:0:0:
288,160,103376,1,0,0:0:0:0:
224,160,103483,1,8,0:0:0:0:
288,160,103698,1,0,0:0:0:0:
224,160,103912,1,8,0:0:0:0:
288,160,104126,1,0,0:0:0:0:
288,160,104233,1,0,0:0:0:0:
224,160,104340,1,8,0:0:0:0:
224,160,104555,1,8,0:0:0:0:
224,160,104662,1,8,0:0:0:0:
224,160,104769,1,0,0:0:0:0:
288,160,104876,1,0,0:0:0:0:
288,160,104983,1,8,0:0:0:0:
288,160,105090,1,8,0:0:0:0:
224,160,105198,1,8,0:0:0:0:
288,160,105305,1,0,0:0:0:0:
224,160,105412,1,8,0:0:0:0:
288,160,105519,1,8,0:0:0:0:
288,160,105626,1,0,0:0:0:0:
224,160,105840,1,12,0:0:0:0:
288,160,106055,1,0,0:0:0:0:
288,160,106269,1,0,0:0:0:0:
288,160,106376,1,0,0:0:0:0:
224,160,106483,1,8,0:0:0:0:
288,160,106591,1,0,0:0:0:0:
288,160,106805,1,0,0:0:0:0:
256,160,106912,1,8,0:0:0:0:
288,160,107126,1,8,0:0:0:0:
224,160,107233,1,8,0:0:0:0:
288,160,107340,1,0,0:0:0:0:
224,160,107555,1,12,0:0:0:0:
224,160,107769,1,8,0:0:0:0:
224,160,107876,1,8,0:0:0:0:
288,160,107983,1,0,0:0:0:0:
224,160,108198,1,8,0:0:0:0:
288,160,108412,1,0,0:0:0:0:
288,160,108519,1,0,0:0:0:0:
224,160,108626,1,8,0:0:0:0:
288,160,108734,1,0,0:0:0:0:
224,160,108840,1,8,0:0:0:0:
224,160,109055,1,8,0:0:0:0:
224,160,109162,1,8,0:0:0:0:
288,160,109269,1,0,0:0:0:0:
224,160,109483,1,0,0:0:0:0:
224,224,109698,1,12,0:0:0:0:
288,160,109912,1,0,0:0:0:0:
288,160,110019,1,0,0:0:0:0:
224,160,110126,1,8,0:0:0:0:
288,160,110340,1,0,0:0:0:0:
224,160,110555,1,8,0:0:0:0:
224,160,110662,1,8,0:0:0:0:
288,160,110769,1,0,0:0:0:0:
224,160,110983,1,12,0:0:0:0:
288,224,111412,1,4,0:0:0:0:
224,160,111841,1,8,0:0:0:0:
288,160,112269,1,0,0:0:0:0:
288,160,112412,1,0,0:0:0:0:
288,160,112555,1,0,0:0:0:0:
224,160,112698,1,8,0:0:0:0:
224,160,112841,1,8,0:0:0:0:
288,160,112984,1,8,0:0:0:0:
288,160,113126,1,0,0:0:0:0:
288,160,113412,1,0,0:0:0:0:
224,160,113698,1,8,0:0:0:0:
288,160,113984,1,0,0:0:0:0:
224,160,114412,1,8,0:0:0:0:
224,160,114555,1,8,0:0:0:0:
224,160,114698,1,8,0:0:0:0:
288,160,114841,1,4,0:0:0:0:
288,160,115126,1,0,0:0:0:0:
224,160,115270,1,8,0:0:0:0:
224,160,115555,1,8,0:0:0:0:
288,160,115698,1,0,0:0:0:0:
288,160,115841,1,0,0:0:0:0:
288,160,115984,1,0,0:0:0:0:
224,160,116127,1,8,0:0:0:0:
288,160,116413,1,0,0:0:0:0:
224,160,116555,1,8,0:0:0:0:
224,160,116841,1,8,0:0:0:0:
288,160,117126,1,0,0:0:0:0:
288,160,117413,1,8,0:0:0:0:
288,160,117555,1,0,0:0:0:0:
288,160,117698,1,0,0:0:0:0:
224,160,117841,1,8,0:0:0:0:
224,160,118127,1,8,0:0:0:0:
288,160,118269,1,0,0:0:0:0:
288,160,118555,1,0,0:0:0:0:
224,160,118698,1,8,0:0:0:0:
224,160,118983,1,8,0:0:0:0:
288,160,119126,1,0,0:0:0:0:
288,160,119269,1,0,0:0:0:0:
288,160,119412,1,0,0:0:0:0:
224,160,119555,1,8,0:0:0:0:
224,160,119697,1,8,0:0:0:0:
288,160,119841,1,0,0:0:0:0:
224,160,119983,1,8,0:0:0:0:
224,160,120269,1,8,0:0:0:0:
224,160,120555,1,0,0:0:0:0:
288,160,120841,1,8,0:0:0:0:
288,160,120983,1,0,0:0:0:0:
288,160,121126,1,0,0:0:0:0:
224,160,121269,1,8,0:0:0:0:
224,160,121555,1,8,0:0:0:0:
288,160,121698,1,4,0:0:0:0:
288,160,121984,1,0,0:0:0:0:
224,160,122127,1,8,0:0:0:0:
224,160,122412,1,8,0:0:0:0:
288,160,122555,1,0,0:0:0:0:
288,160,122698,1,0,0:0:0:0:
288,160,122841,1,0,0:0:0:0:
224,160,122984,1,8,0:0:0:0:
288,160,123126,1,0,0:0:0:0:
288,160,123269,1,0,0:0:0:0:
224,160,123412,1,12,0:0:0:0:
288,160,123840,1,4,0:0:0:0:
224,160,124270,1,0,0:0:0:0:
288,160,124412,1,0,0:0:0:0:
288,160,124555,1,0,0:0:0:0:
224,160,124698,1,8,0:0:0:0:
288,160,124840,1,8,0:0:0:0:
288,160,124983,1,8,0:0:0:0:
