osu file format v14

[General]
AudioFilename: audio.mp3
AudioLeadIn: 0
PreviewTime: 83276
Countdown: 0
SampleSet: Soft
StackLeniency: 0.4
Mode: 0
LetterboxInBreaks: 0
WidescreenStoryboard: 0

[Editor]
DistanceSpacing: 1
BeatDivisor: 4
GridSize: 4
TimelineZoom: 1

[Metadata]
Title:Romeo
TitleUnicode:ロメオ
Artist:Hello, Happy World!
ArtistUnicode:ハロー、ハッピーワールド!
Creator:Startrick
Version:Expert
Source:バンドリ! ガールズバンドパーティ!
Tags:BanG Dream! Girls Band Party! Tsurumaki Kokoro Seta Kaoru Itou Miku 弦巻 こころ Tadokoro Azusa 瀬田 薫 HoneyWorks LIPxLIP Aizou Yuujirou Uchiyama Kouki Shimazaki Nobunaga Vocaloid Hatsune Miku GUMI scanter Anais
BeatmapID:1600406
BeatmapSetID:761035

[Difficulty]
HPDrainRate:6
CircleSize:4.5
OverallDifficulty:7.2
ApproachRate:9.6
SliderMultiplier:2.4
SliderTickRate:1

[Events]
//Background and Video events
0,0,"BG.png",0,0
//Break Periods
2,15548,28553
//Storyboard Layer 0 (Background)
//Storyboard Layer 1 (Fail)
//Storyboard Layer 2 (Pass)
//Storyboard Layer 3 (Foreground)
//Storyboard Sound Samples

[TimingPoints]
3348,428.571428571429,4,2,0,10,1,0
5062,-100,4,2,0,20,0,0
6776,-100,4,2,0,30,0,0
8490,-100,4,2,0,40,0,0
10205,-100,4,2,0,50,0,0
11919,-100,4,2,0,60,0,0
13633,-100,4,2,0,70,0,0
14490,-100,4,2,0,5,0,0
15348,-100,4,2,0,70,0,0
35490,-66.6666666666667,4,2,0,70,0,0
35919,-100,4,2,0,70,0,0
42776,-133.333333333333,4,2,0,70,0,0
53490,-100,4,2,0,70,0,0
53919,-133.333333333333,4,2,0,70,0,0
54348,-100,4,2,0,70,0,0
55205,-80,4,2,0,70,0,0
55633,-66.6666666666667,4,2,0,70,0,0
56062,-57.1428571428571,4,2,0,70,0,0
56490,-100,4,2,0,70,0,0
62919,-66.6666666666667,4,2,0,70,0,0
63348,-100,4,2,0,70,0,0
70205,-200,4,2,0,70,0,0
73205,-200,4,2,0,50,0,0
73633,-200,4,2,0,70,0,0
76633,-200,4,2,0,50,0,0
77062,-200,4,2,0,70,0,0
81205,-200,4,2,0,5,0,0
81348,-166.666666666667,4,2,0,70,0,0
82062,-166.666666666667,4,2,0,5,0,0
82205,-166.666666666667,4,2,0,70,0,0
83062,-166.666666666667,4,2,0,5,0,0
83276,-100,4,2,0,70,0,0
83919,-66.6666666666667,4,1,0,55,0,1
85633,-50,4,1,0,55,0,1
85740,-50,4,1,0,5,0,1
85848,-50,4,1,0,55,0,1
86169,-50,4,1,0,5,0,1
86276,-50,4,1,0,55,0,1
86598,-50,4,1,0,5,0,1
86705,-50,4,1,0,55,0,1
87026,-50,4,1,0,5,0,1
87133,-50,4,1,0,55,0,1
87348,-100,4,1,0,55,0,1
87776,-90.9090909090909,4,1,0,55,0,1
88205,-83.3333333333333,4,1,0,55,0,1
88633,-76.9230769230769,4,1,0,55,0,1
89062,-66.6666666666667,4,1,0,55,0,1
91955,-66.6666666666667,4,1,0,5,0,1
92062,-66.6666666666667,4,1,0,55,0,1
92276,-66.6666666666667,4,1,0,5,0,1
92490,-66.6666666666667,4,1,0,55,0,1
93669,-66.6666666666667,4,1,0,5,0,1
93776,-66.6666666666667,4,1,0,55,0,1
93990,-66.6666666666667,4,1,0,5,0,1
94205,-66.6666666666667,4,1,0,55,0,1
94312,-66.6666666666667,4,1,0,5,0,1
94419,-100,4,1,0,55,0,1
94526,-100,4,1,0,5,0,1
94633,-66.6666666666667,4,1,0,55,0,1
94848,-100,4,1,0,55,0,1
94955,-100,4,1,0,5,0,1
95062,-66.6666666666667,4,1,0,55,0,1
95169,-66.6666666666667,4,1,0,5,0,1
95276,-100,4,1,0,55,0,1
95383,-100,4,1,0,5,0,1
95490,-66.6666666666667,4,1,0,55,0,1
95705,-100,4,1,0,55,0,1
95812,-100,4,1,0,5,0,1
95919,-66.6666666666667,4,1,0,55,0,1
96348,-57.1428571428571,4,1,0,55,0,1
96776,-50,4,1,0,55,0,1
97205,-50,4,1,0,40,0,1
97633,-66.6666666666667,4,1,0,55,0,1
99348,-50,4,1,0,55,0,1
99455,-50,4,1,0,5,0,1
99562,-50,4,1,0,55,0,1
99883,-50,4,1,0,5,0,1
99990,-50,4,1,0,55,0,1
100312,-50,4,1,0,5,0,1
100419,-50,4,1,0,55,0,1
100740,-50,4,1,0,5,0,1
100848,-50,4,1,0,55,0,1
101062,-100,4,1,0,55,0,1
101490,-90.9090909090909,4,1,0,55,0,1
101919,-83.3333333333333,4,1,0,55,0,1
102348,-76.9230769230769,4,1,0,55,0,1
102776,-66.6666666666667,4,1,0,55,0,1
108026,-66.6666666666667,4,1,0,5,0,1
108133,-100,4,1,0,55,0,1
108240,-100,4,1,0,5,0,1
108348,-66.6666666666667,4,1,0,55,0,1
108562,-100,4,1,0,55,0,1
108669,-100,4,1,0,5,0,1
108776,-66.6666666666667,4,1,0,55,0,1
108883,-66.6666666666667,4,1,0,5,0,1
108990,-100,4,1,0,55,0,1
109098,-100,4,1,0,5,0,1
109205,-66.6666666666667,4,1,0,55,0,1
109419,-100,4,1,0,55,0,1
109526,-100,4,1,0,5,0,1
109633,-66.6666666666667,4,1,0,55,0,1
110062,-57.1428571428571,4,1,0,55,0,1
110490,-50,4,1,0,55,0,1
111240,-50,4,1,0,5,0,1
111348,-133.333333333333,4,2,0,70,0,0
124633,-133.333333333333,4,2,0,50,0,0

[Colours]
Combo1 : 255,128,192
Combo2 : 128,128,192
Combo3 : 128,128,255
Combo4 : 255,255,128
Combo5 : 255,255,0
Combo6 : 255,128,128

[HitObjects]
256,192,3348,12,0,14490,0:0:0:0:
256,192,15348,69,4,0:0:0:0:
84,236,29062,21,4,0:0:0:0:
109,271,29205,1,0,0:0:0:0:
109,227,29348,1,0,0:0:0:0:
83,263,29490,1,2,0:0:0:0:
125,249,29633,1,0,0:0:0:0:
84,236,29776,1,0,0:0:0:0:
126,339,29919,5,0,0:0:0:0:
168,183,30062,1,0,0:0:0:0:
12,225,30205,1,0,0:0:0:0:
102,249,30348,70,0,L|256:292,1,160,2|0,0:0|0:0,0:0:0:0:
464,272,30776,6,0,P|476:312|464:348,2,80
352,156,31205,2,0,P|340:116|352:80,2,80,2|0|0,0:0|0:0|0:0,0:0:0:0:
256,292,31633,70,0,L|102:249,1,160
88,228,31990,1,0,0:0:0:0:
76,208,32062,2,0,L|230:251,1,160,2|0,0:0|0:0,0:0:0:0:
380,96,32490,5,4,0:0:0:0:
448,140,32633,1,0,0:0:0:0:
504,80,32776,1,0,0:0:0:0:
436,40,32919,69,2,0:0:0:0:
380,96,33062,1,0,0:0:0:0:
324,152,33205,1,0,0:0:0:0:
256,112,33348,5,0,0:0:0:0:
312,56,33490,1,0,0:0:0:0:
380,96,33633,1,0,0:0:0:0:
448,140,33776,70,0,L|416:296,1,160,2|0,0:0|0:0,0:0:0:0:
140,144,34205,6,0,B|98:139|98:139|65:157,2,80
96,340,34633,2,0,B|137:344|137:344|170:326,2,80,2|0|0,0:0|0:0|0:0,0:0:0:0:
40,260,35062,70,0,L|200:232,1,160
220,240,35419,1,0,0:0:0:0:
244,248,35490,2,0,P|328:192|256:108,1,240.000009155274,2|0,0:0|0:0,0:0:0:0:
112,76,35919,6,0,B|87:78|72:69|72:69|59:85|39:88,1,80,4|0,0:0|0:0,0:0:0:0:
176,32,36205,1,0,0:0:0:0:
184,292,36348,70,0,B|159:290|144:299|144:299|131:283|111:280,1,80,2|0,0:0|0:0,0:0:0:0:
248,336,36633,1,0,0:0:0:0:
256,108,36776,6,0,B|231:110|216:101|216:101|203:117|183:120,1,80
320,64,37062,1,0,0:0:0:0:
328,260,37205,70,0,B|303:258|288:267|288:267|275:251|255:248,1,80,2|0,0:0|0:0,0:0:0:0:
392,304,37490,1,0,0:0:0:0:
448,132,37633,6,0,P|408:136|372:120,1,80
320,64,37919,1,0,0:0:0:0:
64,252,38062,70,0,P|104:248|140:264,1,80,2|0,0:0|0:0,0:0:0:0:
192,320,38348,1,0,0:0:0:0:
256,108,38490,6,0,B|248:172|248:172|264:204|264:204|256:264,1,160
256,264,38919,2,0,B|248:204|248:204|264:172|264:172|256:108,1,160,2|0,0:0|0:0,0:0:0:0:
55,104,39348,69,4,0:0:0:0:
101,91,39490,1,0,0:0:0:0:
88,137,39633,1,0,0:0:0:0:
28,96,39776,5,2,0:0:0:0:
120,71,39919,1,0,0:0:0:0:
96,164,40062,1,0,0:0:0:0:
0,88,40205,69,0,0:0:0:0:
142,52,40348,1,0,0:0:0:0:
102,191,40490,1,0,0:0:0:0:
81,111,40633,6,0,L|233:159,1,160,2|0,0:0|0:0,0:0:0:0:
434,51,41062,70,0,P|476:116|456:192,1,160
380,208,41490,2,0,L|304:184,3,80,2|0|0|0,0:0|0:0|0:0|0:0,0:0:0:0:
376,312,42205,5,0,0:0:0:0:
388,332,42276,1,0,0:0:0:0:
400,352,42348,2,0,L|248:304,1,160,2|0,0:0|0:0,0:0:0:0:
74,264,42776,38,0,P|40:261|17:272,2,60.0000022888184,4|0|0,0:0|0:0|0:0,0:0:0:0:
107,230,43205,2,0,P|125:202|128:176,2,60.0000022888184,2|0|0,0:0|0:0|0:0,0:0:0:0:
119,276,43633,2,0,P|133:305|154:321,2,60.0000022888184
80,237,44062,2,0,P|65:207|44:191,2,60.0000022888184,2|0|0,0:0|0:0|0:0,0:0:0:0:
93,283,44490,2,0,P|74:310|71:336,2,60.0000022888184
126,250,44919,2,0,P|159:252|182:241,2,60.0000022888184,2|0|0,0:0|0:0|0:0,0:0:0:0:
13,280,45348,5,0,0:0:0:0:
123,170,45490,1,0,0:0:0:0:
163,320,45633,1,0,0:0:0:0:
99,256,45776,2,0,L|217:231,1,120.000004577637,2|0,0:0|0:0,0:0:0:0:
280,104,46205,70,0,P|312:110|331:127,2,60.0000022888184
257,62,46633,2,0,P|245:31|249:5,2,60.0000022888184,2|0|0,0:0|0:0|0:0,0:0:0:0:
233,104,47062,2,0,P|210:129|186:139,2,60.0000022888184
281,76,47490,2,0,P|302:51|326:41,2,60.0000022888184,2|0|0,0:0|0:0|0:0,0:0:0:0:
256,117,47919,2,0,P|266:148|262:174,2,60.0000022888184
233,77,48348,2,0,P|199:71|180:54,2,60.0000022888184,2|0|0,0:0|0:0|0:0,0:0:0:0:
334,135,48776,5,0,0:0:0:0:
257,0,48919,1,0,0:0:0:0:
179,135,49062,1,0,0:0:0:0:
256,90,49205,2,0,L|256:212,1,120.000004577637,2|0,0:0|0:0,0:0:0:0:
438,264,49633,70,0,P|472:261|495:272,2,60.0000022888184
405,230,50062,2,0,P|387:202|384:176,2,60.0000022888184,2|0|0,0:0|0:0|0:0,0:0:0:0:
393,276,50490,2,0,P|379:305|358:321,2,60.0000022888184
432,237,50919,2,0,P|447:207|468:191,2,60.0000022888184,2|0|0,0:0|0:0|0:0,0:0:0:0:
419,283,51348,2,0,P|438:310|441:336,2,60.0000022888184
386,250,51776,2,0,P|353:252|330:241,2,60.0000022888184,2|0|0,0:0|0:0|0:0,0:0:0:0:
499,280,52205,5,0,0:0:0:0:
389,170,52348,1,0,0:0:0:0:
349,320,52490,1,0,0:0:0:0:
413,256,52633,2,0,L|295:231,1,120.000004577637,2|0,0:0|0:0,0:0:0:0:
72,144,53062,70,0,L|56:84,2,60.0000022888184
128,52,53490,2,0,L|149:129,2,80,2|0|0,0:0|0:0|0:0,0:0:0:0:
440,144,53919,6,0,L|456:84,2,60.0000022888184
384,52,54348,2,0,L|362:129,2,80,2|0|0,0:0|0:0|0:0,0:0:0:0:
56,86,54776,70,0,L|98:240,1,160,4|0,0:0|0:0,0:0:0:0:
135,47,55205,6,0,L|187:239,1,200,4|0,0:0|0:0,0:0:0:0:
215,9,55633,70,0,L|278:240,1,240.000009155274,4|0,0:0|0:0,0:0:0:0:
464,112,56062,6,0,P|404:80|336:96,2,140.000001335144,2|0|0,0:0|0:0|0:0,0:0:0:0:
428,236,56490,37,4,0:0:0:0:
403,271,56633,1,0,0:0:0:0:
403,227,56776,1,0,0:0:0:0:
429,263,56919,1,2,0:0:0:0:
387,249,57062,1,0,0:0:0:0:
428,236,57205,1,0,0:0:0:0:
386,339,57348,5,0,0:0:0:0:
344,183,57490,1,0,0:0:0:0:
500,225,57633,1,0,0:0:0:0:
410,249,57776,70,0,L|256:292,1,160,2|0,0:0|0:0,0:0:0:0:
48,272,58205,6,0,P|36:312|48:348,2,80
160,156,58633,2,0,P|172:116|160:80,2,80,2|0|0,0:0|0:0|0:0,0:0:0:0:
256,292,59062,70,0,L|410:249,1,160
436,208,59490,2,0,L|282:251,1,160,2|0,0:0|0:0,0:0:0:0:
132,96,59919,5,4,0:0:0:0:
64,140,60062,1,0,0:0:0:0:
8,80,60205,1,0,0:0:0:0:
76,40,60348,69,2,0:0:0:0:
132,96,60490,1,0,0:0:0:0:
188,152,60633,1,0,0:0:0:0:
256,112,60776,5,0,0:0:0:0:
200,56,60919,1,0,0:0:0:0:
132,96,61062,1,0,0:0:0:0:
64,140,61205,70,0,L|96:296,1,160,2|0,0:0|0:0,0:0:0:0:
372,144,61633,6,0,B|414:139|414:139|447:157,2,80
416,340,62062,2,0,B|375:344|375:344|342:326,2,80,2|0|0,0:0|0:0|0:0,0:0:0:0:
472,260,62490,70,0,L|312:232,1,160
236,280,62919,2,0,P|152:224|224:140,1,240.000009155274,2|0,0:0|0:0,0:0:0:0:
400,76,63348,6,0,B|425:78|440:69|440:69|453:85|473:88,1,80,4|0,0:0|0:0,0:0:0:0:
336,32,63633,1,0,0:0:0:0:
328,292,63776,70,0,B|353:290|368:299|368:299|381:283|401:280,1,80,2|0,0:0|0:0,0:0:0:0:
264,336,64062,1,0,0:0:0:0:
256,108,64205,6,0,B|281:110|296:101|296:101|309:117|329:120,1,80
192,64,64490,1,0,0:0:0:0:
184,260,64633,70,0,B|209:258|224:267|224:267|237:251|257:248,1,80,2|0,0:0|0:0,0:0:0:0:
120,304,64919,1,0,0:0:0:0:
64,132,65062,6,0,P|104:136|140:120,1,80
192,64,65348,1,0,0:0:0:0:
448,252,65490,70,0,P|408:248|372:264,1,80,2|0,0:0|0:0,0:0:0:0:
320,320,65776,1,0,0:0:0:0:
256,108,65919,6,0,B|264:172|264:172|248:204|248:204|256:264,1,160
256,264,66348,2,0,B|264:204|264:204|248:172|248:172|256:108,1,160,2|0,0:0|0:0,0:0:0:0:
457,104,66776,69,4,0:0:0:0:
411,91,66919,1,0,0:0:0:0:
424,137,67062,1,0,0:0:0:0:
484,96,67205,5,2,0:0:0:0:
392,71,67348,1,0,0:0:0:0:
416,164,67490,1,0,0:0:0:0:
512,88,67633,69,0,0:0:0:0:
370,52,67776,1,0,0:0:0:0:
410,191,67919,1,0,0:0:0:0:
431,111,68062,6,0,L|279:159,1,160,2|0,0:0|0:0,0:0:0:0:
78,51,68490,70,0,L|2:75,2,80
132,208,68919,2,0,L|208:184,2,80,2|0|0,0:0|0:0|0:0,0:0:0:0:
40,240,69348,1,0,0:0:0:0:
136,312,69633,5,0,0:0:0:0:
124,332,69705,1,0,0:0:0:0:
112,352,69776,2,0,L|264:304,1,160,2|0,0:0|0:0,0:0:0:0:
48,120,70205,38,0,L|48:40,1,80,4|0,0:0|0:0,0:0:0:0:
396,232,70633,2,0,L|396:152,1,80
184,344,71062,2,0,L|184:264,1,80
464,120,71490,2,0,L|464:40,1,80
116,232,71919,2,0,L|116:152,1,80,4|0,0:0|0:0,0:0:0:0:
328,344,72348,2,0,L|328:264,1,80
256,232,72776,2,0,L|256:152,1,80
256,80,73205,2,0,L|256:40,2,40,2|2|2,0:3|0:3|0:3,0:0:0:0:
184,40,73633,6,0,L|184:120,1,80,4|0,0:0|0:0,0:0:0:0:
464,264,74062,2,0,L|464:344,1,80
116,152,74490,2,0,L|116:232,1,80
328,40,74919,2,0,L|328:120,1,80
48,264,75348,2,0,L|48:344,1,80,4|0,0:0|0:0,0:0:0:0:
396,152,75776,2,0,L|396:232,1,80
256,152,76205,2,0,L|256:232,1,80,4|0,0:0|0:0,0:0:0:0:
256,304,76633,2,0,L|256:344,2,40,8|8|8,0:3|0:3|0:3,0:0:0:0:
184,344,77062,6,0,L|184:264,1,80,4|0,0:0|0:0,0:0:0:0:
464,120,77490,2,0,L|464:40,1,80
116,232,77919,2,0,L|116:152,1,80
464,344,78348,2,0,L|464:264,1,80
328,344,78776,2,0,L|328:264,1,80,4|0,0:0|0:0,0:0:0:0:
48,120,79205,2,0,L|48:40,1,80
396,232,79633,2,0,L|396:152,1,80
48,344,80062,2,0,L|48:264,1,80
223,146,80490,6,0,L|255:344,1,200,4|0,0:0|0:0,0:0:0:0:
292,107,81348,70,0,L|255:344,1,239.999992675781
209,59,82205,6,0,L|255:344,1,287.999991210938,4|0,0:0|0:0,0:0:0:0:
76,264,83276,37,2,0:0:0:0:
436,120,83490,1,2,0:0:0:0:
76,264,83705,1,2,0:0:0:0:
436,120,83919,6,0,P|476:200|444:280,1,180.000006866455,4|8,0:0|0:0,0:0:0:0:
368,324,84240,1,0,0:0:0:0:
284,292,84348,2,0,L|268:204,1,90.0000034332277
228,92,84562,2,0,L|244:180,1,90.0000034332277,8|0,0:0|0:0,0:0:0:0:
460,324,84776,70,0,P|476:284|468:236,1,90.0000034332277
52,60,84990,2,0,P|36:100|44:148,1,90.0000034332277,8|0,0:0|0:0,0:0:0:0:
485,246,85205,2,0,P|492:290|476:332,1,90.0000034332277
26,137,85419,2,0,P|19:93|36:52,1,90.0000034332277,8|0,0:0|0:0,0:0:0:0:
160,212,85633,6,0,B|153:243|153:243|139:248|139:248|163:253|163:253|150:258|150:258|142:292,1,120
213,247,85848,22,0,B|186:264|186:264|172:258|172:258|185:278|185:278|172:273|172:273|142:292,1,120,2|0,0:0|0:0,0:0:0:0:
223,310,86062,38,0,B|191:303|191:303|186:289|186:289|181:313|181:313|176:300|176:300|142:292,1,120
188,363,86276,22,0,B|170:336|170:336|176:322|176:322|156:335|156:335|161:322|161:322|142:292,1,120,2|0,0:0|0:0,0:0:0:0:
126,373,86490,70,0,B|132:341|132:341|146:336|146:336|122:331|122:331|135:326|135:326|142:292,1,120
72,338,86705,22,0,B|98:320|98:320|112:326|112:326|99:306|99:306|112:311|112:311|142:292,1,120,2|0,0:0|0:0,0:0:0:0:
62,276,86919,38,0,B|93:282|93:282|98:296|98:296|103:272|103:272|108:285|108:285|142:292,1,120
97,222,87133,22,0,B|114:248|114:248|108:262|108:262|128:249|128:249|123:262|123:262|142:292,1,120,2|0,0:0|0:0,0:0:0:0:
460,348,87348,70,0,L|476:260,1,60
444,156,87562,2,0,L|460:68,1,60,8|0,0:0|0:0,0:0:0:0:
332,352,87776,70,0,L|348:264,1,66.0000020141602
316,140,87990,2,0,L|332:52,1,66.0000020141602,8|0,0:0|0:0,0:0:0:0:
204,356,88205,6,0,L|220:268,1,71.9999978027344
188,124,88419,2,0,L|204:36,1,71.9999978027344,8|0,0:0|0:0,0:0:0:0:
76,360,88633,70,0,L|92:272,1,77.9999964294435
76,19,88848,1,8,0:0:0:0:
76,19,89062,6,0,P|36:99|68:179,2,180.000006866455,0|8|0,0:0|0:0|0:0,0:0:0:0:
256,102,89598,1,0,0:0:0:0:
436,19,89705,2,0,P|476:99|444:179,2,180.000006866455,8|0|8,0:0|0:0|0:0,0:0:0:0:
256,102,90240,1,0,0:0:0:0:
200,32,90348,69,0,0:0:0:0:
312,32,90455,1,0,0:0:0:0:
256,102,90562,2,0,L|256:192,1,90.0000034332277,8|0,0:0|0:0,0:0:0:0:
200,352,90776,22,0,P|168:320|124:304,1,90.0000034332277
96,136,90990,6,0,P|128:104|144:60,1,90.0000034332277,2|0,0:0|0:0,0:0:0:0:
312,32,91205,70,0,P|344:64|388:80,1,90.0000034332277
416,248,91419,6,0,P|384:280|368:324,1,90.0000034332277,2|0,0:0|0:0,0:0:0:0:
103,265,91633,70,0,P|103:220|83:177,1,90.0000034332277
182,39,91847,6,0,P|227:39|270:19,1,90.0000034332277,2|0,0:0|0:0,0:0:0:0:
480,212,92062,6,0,B|472:208|472:208|464:212|464:212|456:208|456:208|448:212|448:212|440:208|440:208|432:212|432:212|424:208|424:208|416:212|416:212|408:208|408:208|400:212|400:212|392:208|392:208|384:212|384:212|376:208|376:208|368:212|368:212|360:208|360:208|352:212|352:212|344:208|344:208|336:212|336:212|328:208|328:208|320:212|320:212|316:212,1,180.000006866455,6|0,0:0|0:0,0:0:0:0:
312,352,92490,22,0,P|344:320|388:304,1,90.0000034332277
416,136,92704,6,0,P|384:104|368:60,1,90.0000034332277,2|0,0:0|0:0,0:0:0:0:
200,32,92919,70,0,P|168:64|124:80,1,90.0000034332277
96,248,93133,6,0,P|128:280|144:324,1,90.0000034332277,2|0,0:0|0:0,0:0:0:0:
408,265,93347,70,0,P|408:220|428:177,1,90.0000034332277
329,39,93561,6,0,P|284:39|241:19,1,90.0000034332277,2|0,0:0|0:0,0:0:0:0:
32,212,93776,54,0,B|40:208|40:208|48:212|48:212|56:208|56:208|64:212|64:212|72:208|72:208|80:212|80:212|88:208|88:208|96:212|96:212|104:208|104:208|112:212|112:212|120:208|120:208|128:212|128:212|136:208|136:208|144:212|144:212|152:208|152:208|160:212|160:212|168:208|168:208|176:212|176:212|184:208|184:208|192:212|192:212|196:212,1,180.000006866455,6|0,0:0|0:0,0:0:0:0:
460,348,94205,6,0,P|476:312|468:264,1,90.0000034332277
467,263,94419,2,0,L|407:271,1,60,8|0,0:0|0:0,0:0:0:0:
52,276,94633,6,0,P|36:240|44:192,1,90.0000034332277
45,191,94848,2,0,L|105:199,1,60,8|0,0:0|0:0,0:0:0:0:
460,192,95062,70,0,P|476:156|468:108,1,90.0000034332277
467,107,95277,2,0,L|407:115,1,60,8|0,0:0|0:0,0:0:0:0:
52,120,95490,6,0,P|36:84|44:36,1,90.0000034332277
45,35,95705,2,0,L|105:43,1,60,8|0,0:0|0:0,0:0:0:0:
384,44,95919,38,0,L|360:224,1,180.000006866455,6|0,0:0|0:0,0:0:0:0:
424,284,96240,1,0,0:0:0:0:
300,28,96348,6,0,L|271:244,1,210.000002002716,6|0,0:0|0:0,0:0:0:0:
337,316,96669,1,0,0:0:0:0:
216,12,96776,70,0,L|183:253,1,240,6|0,0:0|0:0,0:0:0:0:
250,348,97098,1,0,0:0:0:0:
365,198,97205,5,8,0:2:0:0:
387,227,97312,1,8,0:2:0:0:
360,222,97419,1,8,0:2:0:0:
392,203,97526,1,8,0:2:0:0:
76,120,97633,38,0,P|36:200|68:280,1,180.000006866455,4|8,0:0|0:0,0:0:0:0:
144,324,97954,1,0,0:0:0:0:
228,292,98062,2,0,L|244:204,1,90.0000034332277
284,92,98276,2,0,L|268:180,1,90.0000034332277,8|0,0:0|0:0,0:0:0:0:
52,324,98490,6,0,P|36:284|44:236,1,90.0000034332277
460,60,98704,2,0,P|476:100|468:148,1,90.0000034332277,8|0,0:0|0:0,0:0:0:0:
27,246,98919,2,0,P|20:290|36:332,1,90.0000034332277
486,137,99133,2,0,P|493:93|476:52,1,90.0000034332277,8|0,0:0|0:0,0:0:0:0:
352,212,99348,70,0,B|359:243|359:243|373:248|373:248|349:253|349:253|362:258|362:258|370:292,1,120
299,247,99562,54,0,B|326:264|326:264|340:258|340:258|327:278|327:278|340:273|340:273|370:292,1,120,2|0,0:0|0:0,0:0:0:0:
289,310,99776,38,0,B|321:303|321:303|326:289|326:289|331:313|331:313|336:300|336:300|370:292,1,120
324,363,99990,54,0,B|342:336|342:336|336:322|336:322|356:335|356:335|351:322|351:322|370:292,1,120,2|0,0:0|0:0,0:0:0:0:
386,373,100204,6,0,B|380:341|380:341|366:336|366:336|390:331|390:331|377:326|377:326|370:292,1,120
440,338,100419,54,0,B|414:320|414:320|400:326|400:326|413:306|413:306|400:311|400:311|370:292,1,120,2|0,0:0|0:0,0:0:0:0:
450,276,100633,38,0,B|419:282|419:282|414:296|414:296|409:272|409:272|404:285|404:285|370:292,1,120
415,222,100847,54,0,B|398:248|398:248|404:262|404:262|384:249|384:249|389:262|389:262|370:292,1,120,2|0,0:0|0:0,0:0:0:0:
52,348,101062,6,0,L|36:260,1,60
68,156,101276,2,0,L|52:68,1,60,8|0,0:0|0:0,0:0:0:0:
180,352,101490,6,0,L|164:264,1,66.0000020141602
196,140,101705,2,0,L|180:52,1,66.0000020141602,8|0,0:0|0:0,0:0:0:0:
308,356,101919,70,0,L|292:268,1,71.9999978027344
324,124,102133,2,0,L|308:36,1,71.9999978027344,8|0,0:0|0:0,0:0:0:0:
436,360,102348,6,0,L|420:272,1,77.9999964294435
436,19,102562,1,8,0:0:0:0:
436,19,102776,70,0,P|476:99|444:179,2,180.000006866455,0|8|0,0:0|0:0|0:0,0:0:0:0:
256,102,103312,1,0,0:0:0:0:
76,19,103419,2,0,P|36:99|68:179,2,180.000006866455,8|0|8,0:0|0:0|0:0,0:0:0:0:
256,102,103954,1,0,0:0:0:0:
312,32,104062,5,0,0:0:0:0:
200,32,104169,1,0,0:0:0:0:
256,102,104276,2,0,L|256:192,1,90.0000034332277,8|0,0:0|0:0,0:0:0:0:
476,344,104490,37,0,0:0:0:0:
432,288,104597,5,0,0:0:0:0:
388,344,104704,69,2,0:0:0:0:
344,288,104812,5,0,0:0:0:0:
300,344,104919,69,0,0:0:0:0:
256,288,105026,5,0,0:0:0:0:
212,344,105133,69,2,0:0:0:0:
168,288,105240,5,0,0:0:0:0:
124,344,105347,69,0,0:0:0:0:
80,288,105454,5,0,0:0:0:0:
36,344,105562,69,2,0:0:0:0:
0,156,105776,53,6,0:0:0:0:
36,40,106205,53,0,0:0:0:0:
80,96,106311,5,0,0:0:0:0:
124,40,106418,69,2,0:0:0:0:
168,96,106526,5,0,0:0:0:0:
212,40,106633,69,0,0:0:0:0:
256,96,106740,5,0,0:0:0:0:
300,40,106848,69,2,0:0:0:0:
344,96,106954,5,0,0:0:0:0:
388,40,107061,69,0,0:0:0:0:
432,96,107168,5,0,0:0:0:0:
476,40,107276,69,2,0:0:0:0:
512,228,107490,37,6,0:0:0:0:
52,348,107919,38,0,P|36:312|44:264,1,90.0000034332277
45,263,108133,2,0,L|105:271,1,60,8|0,0:0|0:0,0:0:0:0:
460,276,108348,6,0,P|476:240|468:192,1,90.0000034332277
467,191,108562,2,0,L|407:199,1,60,8|0,0:0|0:0,0:0:0:0:
52,192,108776,70,0,P|36:156|44:108,1,90.0000034332277
45,107,108991,2,0,L|105:115,1,60,8|0,0:0|0:0,0:0:0:0:
460,120,109205,6,0,P|476:84|468:36,1,90.0000034332277
467,35,109419,2,0,L|407:43,1,60,8|0,0:0|0:0,0:0:0:0:
128,44,109633,6,0,L|152:224,1,180.000006866455,6|0,0:0|0:0,0:0:0:0:
88,284,109954,1,0,0:0:0:0:
212,28,110062,6,0,L|241:244,1,210.000002002716,6|0,0:0|0:0,0:0:0:0:
175,316,110383,1,0,0:0:0:0:
296,12,110490,70,0,L|329:253,1,240,6|0,0:0|0:0,0:0:0:0:
262,348,110812,1,0,0:0:0:0:
147,198,110919,6,0,P|292:128|420:252,1,360,6|0,0:0|0:0,0:0:0:0:
420,348,111348,69,4,0:0:0:0:
420,348,111776,1,2,0:0:0:0:
420,348,112062,1,2,0:0:0:0:
420,348,112205,6,0,L|436:288,1,60.0000022888184,2|0,0:0|0:0,0:0:0:0:
340,316,112490,2,0,L|383:359,1,60.0000022888184,2|0,0:0|0:0,0:0:0:0:
408,264,112776,2,0,L|348:280,1,60.0000022888184,2|0,0:0|0:0,0:0:0:0:
312,252,113062,70,0,L|431:219,2,120.000004577637,2|0|0,0:0|0:0|0:0,0:0:0:0:
420,348,113919,1,2,0:0:0:0:
420,348,114348,1,0,0:0:0:0:
92,36,114776,5,4,0:0:0:0:
92,36,115204,1,2,0:0:0:0:
92,36,115490,1,2,0:0:0:0:
92,36,115633,70,0,L|76:96,1,60.0000022888184,2|0,0:0|0:0,0:0:0:0:
172,68,115919,2,0,L|129:25,1,60.0000022888184,2|0,0:0|0:0,0:0:0:0:
104,120,116205,2,0,L|164:104,1,60.0000022888184,2|0,0:0|0:0,0:0:0:0:
200,132,116490,6,0,L|81:165,2,120.000004577637,2|0|0,0:0|0:0|0:0,0:0:0:0:
92,36,117347,1,2,0:0:0:0:
92,36,117776,1,0,0:0:0:0:
420,36,118205,69,4,0:0:0:0:
420,36,118633,1,2,0:0:0:0:
420,36,118919,1,2,0:0:0:0:
420,36,119062,6,0,L|436:96,1,60.0000022888184,2|0,0:0|0:0,0:0:0:0:
340,68,119347,2,0,L|383:25,1,60.0000022888184,2|0,0:0|0:0,0:0:0:0:
408,120,119633,2,0,L|348:104,1,60.0000022888184,2|0,0:0|0:0,0:0:0:0:
312,132,119919,70,0,L|431:165,2,120.000004577637,2|0|0,0:0|0:0|0:0,0:0:0:0:
420,36,120776,1,2,0:0:0:0:
420,36,121205,1,0,0:0:0:0:
92,348,121633,5,4,0:0:0:0:
92,348,122061,1,2,0:0:0:0:
92,348,122347,1,2,0:0:0:0:
92,348,122490,70,0,L|76:288,1,60.0000022888184,2|0,0:0|0:0,0:0:0:0:
172,316,122776,2,0,L|129:359,1,60.0000022888184,2|0,0:0|0:0,0:0:0:0:
104,264,123062,2,0,L|164:280,1,60.0000022888184,2|0,0:0|0:0,0:0:0:0:
200,252,123348,6,0,L|81:219,2,120.000004577637,2|0|0,0:0|0:0|0:0,0:0:0:0:
92,348,124204,1,2,0:0:0:0:
256,192,124633,70,0,L|256:132,2,60.0000022888184,2|2|2,0:3|0:3|0:3,0:0:0:0:
