osu file format v14

[General]
AudioFilename: audio.mp3
AudioLeadIn: 0
PreviewTime: -1
Countdown: 0
SampleSet: Soft
StackLeniency: 0.7
Mode: 0
LetterboxInBreaks: 0
WidescreenStoryboard: 0

[Editor]
Bookmarks: 54819,56534,70248,77105,83105,90819,96819,104534,110962,111391,123391,125105
DistanceSpacing: 2
BeatDivisor: 4
GridSize: 4
TimelineZoom: 2.399999

[Metadata]
Title:Romeo
TitleUnicode:Romeo
Artist:Hello, Happy World!
ArtistUnicode:Hello, Happy World!
Creator:Rhythm Frienemy
Version:Julieta
Source:Bang Dream!
Tags:
BeatmapID:1469670
BeatmapSetID:694719

[Difficulty]
HPDrainRate:6
CircleSize:4
OverallDifficulty:7.3
ApproachRate:9.1
SliderMultiplier:2.6
SliderTickRate:1

[Events]
//Background and Video events
0,0,"jmrM78t.jpg",0,0
//Break Periods
//Storyboard Layer 0 (Background)
//Storyboard Layer 1 (Fail)
//Storyboard Layer 2 (Pass)
//Storyboard Layer 3 (Foreground)
//Storyboard Sound Samples

[TimingPoints]
2856,428.571428571429,4,2,1,65,1,0
12284,-100,4,2,1,5,0,0
14534,428.571428571429,4,2,1,5,1,0
14962,-66.6666666666667,4,2,1,40,0,0
15391,-100,4,2,1,40,0,0
18391,-133.333333333333,4,2,1,40,0,0
18819,-100,4,2,1,40,0,0
21391,-100,4,2,1,40,0,0
21819,-133.333333333333,4,2,1,60,0,0
22248,-100,4,2,1,40,0,0
25248,-133.333333333333,4,2,1,40,0,0
25676,-100,4,2,1,40,0,0
26534,-200,4,2,1,35,0,0
27391,-100,4,2,1,65,0,0
27819,-66.6666666666667,4,2,1,65,0,0
28248,-100,4,2,1,65,0,0
28676,-66.6666666666667,4,2,1,65,0,0
29105,-100,4,2,1,65,0,0
31962,-133.333333333333,4,2,1,65,0,0
32534,-100,4,2,1,65,0,0
33819,-133.333333333333,4,2,1,65,0,0
35105,-100,4,2,1,65,0,0
35391,-133.333333333333,4,2,1,65,0,0
36391,-100,4,2,1,65,0,0
38105,-100,4,2,1,65,0,0
38534,-83.3333333333333,4,2,1,65,0,0
38819,-133.333333333333,4,2,1,65,0,0
39391,-100,4,2,1,65,0,0
40676,-133.333333333333,4,2,1,65,0,0
41962,-133.333333333333,4,2,1,65,0,0
42391,-100,4,2,1,50,0,0
45819,-133.333333333333,4,2,1,65,0,0
47962,-133.333333333333,4,2,1,50,0,0
49248,-133.333333333333,4,2,1,45,0,0
49676,-100,4,2,1,65,0,0
50534,-133.333333333333,4,2,1,65,0,0
52676,-200,4,2,1,65,0,0
53534,-133.333333333333,4,2,1,65,0,0
54819,-111.111111111111,4,2,1,65,0,0
54962,-125,4,2,1,65,0,0
55248,-133.333333333333,4,2,1,65,0,0
55534,-133.333333333333,4,2,1,65,0,0
55819,-100,4,2,1,65,0,0
59105,-66.6666666666667,4,2,1,65,0,0
60391,-100,4,2,1,65,0,0
62534,-66.6666666666667,4,2,1,65,0,0
62676,-66.6666666666667,4,2,1,65,0,0
65105,-100,4,2,1,65,0,0
66676,-66.6666666666667,4,2,1,65,0,0
68105,-100,4,2,1,65,0,0
70248,-133.333333333333,4,2,1,65,0,0
72819,-181.818181818182,4,2,1,65,0,0
73676,-133.333333333333,4,2,1,65,0,0
80534,-181.818181818181,4,2,1,65,0,0
82248,-200,4,2,1,65,0,0
83319,428.571428571429,4,2,1,65,1,0
83534,-100,4,2,1,65,0,0
83819,-80,4,2,1,65,0,0
83962,-80,4,2,1,65,0,1
85819,-66.6666666666667,4,2,1,65,0,1
88248,-80,4,2,1,65,0,1
92105,-100,4,2,1,65,0,1
94248,-80,4,2,1,65,0,1
97391,-80,4,2,1,65,0,0
97676,-80,4,2,1,65,0,1
98819,-66.6666666666667,4,2,1,65,0,1
101819,-80,4,2,1,65,0,1
104676,-66.6666666666667,4,2,1,65,0,1
104819,-80,4,2,1,65,0,1
104962,-66.6666666666667,4,2,1,65,0,1
105105,-80,4,2,1,65,0,1
105248,-66.6666666666667,4,2,1,65,0,1
105391,-80,4,2,1,65,0,1
107962,-100,4,2,1,65,0,1
110962,-66.6666666666667,4,2,1,65,0,1
111391,-80,4,2,1,65,0,0
111534,-100,4,2,1,65,0,0
114248,-111.111111111111,4,2,1,65,0,0
117819,-125,4,2,1,65,0,0
121248,-142.857142857143,4,2,1,65,0,0
123391,-100,4,2,1,65,0,0
123676,-83.3333333333333,4,2,1,65,0,0
124248,-71.4285714285714,4,2,1,65,0,0

[HitObjects]
256,192,12284,12,0,14534,0:2:0:0:
220,192,14962,6,0,P|284:144|316:76,1,130.000004959107
120,240,15248,1,0,0:0:0:0:
120,240,15391,6,0,L|152:132,1,86.6666666666667
214,275,15676,2,0,P|191:312|156:336,1,86.6666666666667
164,164,15962,2,0,L|248:216,1,86.6666666666667
124,16,16248,6,0,P|83:74|88:176,1,173.333333333333,8|0,0:0|0:0,0:0:0:0:
224,316,16676,2,0,L|236:212,1,86.6666666666667,8|8,0:0|0:0,0:0:0:0:
192,112,16962,2,0,L|124:204,1,86.6666666666667,8|4,0:0|0:0,0:0:0:0:
244,40,17248,6,0,L|324:104,1,86.6666666666667
216,292,17534,6,0,L|136:356,1,86.6666666666667,8|0,0:2|0:0,0:0:0:0:
164,212,17819,1,0,0:0:0:0:
292,56,17962,6,0,P|364:104|352:224,1,216.666666666667,2|0,0:0|0:0,0:0:0:0:
340,240,18391,6,0,B|304:248|292:288|292:288|260:296|220:312|208:344,1,162.500006198883,8|0,0:0|0:0,0:0:0:0:
188,352,18819,6,0,P|148:288|132:184,1,173.333333333333,4|0,0:0|0:0,0:0:0:0:
472,52,19248,6,0,L|384:128,1,86.6666666666667,8|0,0:0|0:0,0:0:0:0:
406,108,19534,1,0,0:0:0:0:
120,40,19676,6,0,P|88:140|132:212,1,173.333333333333,8|0,0:0|0:0,0:0:0:0:
328,48,20105,2,0,L|364:124,1,43.3333333333333,8|0,0:0|0:0,0:0:0:0:
428,112,20248,2,0,L|356:208,1,86.6666666666667,8|2,0:0|0:0,0:0:0:0:
436,272,20534,2,0,L|308:276,1,86.6666666666667,4|0,0:0|0:0,0:0:0:0:
349,274,20819,1,0,0:0:0:0:
176,44,20962,6,0,L|256:120,1,86.6666666666667
276,24,21248,1,0,0:0:0:0:
304,256,21391,6,0,P|248:312|120:280,1,216.666666666667,2|0,0:0|0:0,0:0:0:0:
128,252,21819,6,0,B|140:208|176:184|176:184|188:152|224:132,1,130.000004959107,8|0,0:0|0:0,0:0:0:0:
252,316,22248,6,0,B|224:297|192:313|165:299|140:325|140:325|113:319|88:341,1,173.333333333333,8|0,0:0|0:0,0:0:0:0:
136,168,22676,2,0,L|84:264,1,86.6666666666667
232,120,22962,1,0,0:0:0:0:
52,239,23105,6,0,P|96:308|184:332,1,173.333333333333,8|0,0:0|0:0,0:0:0:0:
288,280,23534,1,8,0:0:0:0:
380,272,23676,1,8,0:0:0:0:
240,208,23819,1,8,0:0:0:0:
432,344,23962,1,4,0:0:0:0:
432,344,24105,6,0,P|448:284|420:232,1,86.6666666666667
312,116,24391,2,0,L|380:200,1,86.6666666666667,8|0,0:0|0:0,0:0:0:0:
284,304,24676,2,0,L|268:256,1,43.3333333333333
256,216,24819,6,0,P|296:152|444:128,1,216.666666666667,8|0,0:0|0:0,0:0:0:0:
420,168,25248,2,0,B|394:177|372:202|372:202|333:202|320:226|289:225|274:248,1,162.500006198883,2|0,0:0|0:0,0:0:0:0:
228,256,25676,6,0,P|177:244|144:120,1,173.333333333333,8|0,0:0|0:0,0:0:0:0:
212,56,26105,1,0,0:0:0:0:
264,176,26248,1,0,0:0:0:0:
400,240,26391,1,0,0:0:0:0:
400,240,26534,2,0,L|364:292,1,43.3333333333333,8|0,0:0|0:0,0:0:0:0:
280,308,26819,1,8,0:0:0:0:
272,200,26962,1,8,0:0:0:0:
156,212,27105,1,8,0:0:0:0:
152,108,27248,1,4,0:0:0:0:
152,108,27391,6,0,L|224:176,1,86.6666666666667,2|0,0:0|0:0,0:0:0:0:
313,252,27605,1,0,0:0:0:0:
313,252,27819,6,0,L|213:165,1,130.000004959107,2|0,0:0|0:0,0:0:0:0:
152,108,28034,1,0,0:0:0:0:
152,108,28248,6,0,L|220:168,1,86.6666666666667,2|0,0:0|0:0,0:0:0:0:
313,252,28462,1,0,0:0:0:0:
313,252,28676,6,0,L|256:200,6,65.0000024795533
124,156,29248,2,0,L|184:136,1,43.3333333333333
188,56,29391,2,0,L|244:104,1,43.3333333333333
288,136,29534,6,0,P|276:172|216:224,1,86.6666666666667,8|0,0:0|0:0,0:0:0:0:
448,104,29819,6,0,L|412:164,1,43.3333333333333
360,216,29962,2,0,L|328:164,1,43.3333333333333
384,44,30105,2,0,L|284:84,1,86.6666666666667
168,224,30391,6,0,P|128:204|84:160,1,86.6666666666667,10|0,0:0|0:0,0:0:0:0:
368,68,30676,2,0,L|392:108,1,43.3333333333333
416,176,30819,2,0,L|304:188,1,86.6666666666667
336,32,31105,6,0,L|444:92,1,86.6666666666667
256,184,31391,2,0,L|232:76,1,86.6666666666667
380,112,31605,2,0,L|428:148,1,43.3333333333333
388,144,31962,6,0,B|364:176|328:196|328:196|284:156|232:144|152:168,1,260.000009918213
392,52,32676,1,0,0:0:0:0:
328,128,32819,1,0,0:0:0:0:
200,32,32962,6,0,P|147:108|152:168,1,130,8|0,0:0|0:0,0:0:0:0:
324,72,33319,2,0,L|292:128,1,43.3333333333333
329,184,33462,2,0,L|389:136,1,43.3333333333333
244,48,33676,1,0,0:0:0:0:
320,288,33819,6,0,B|376:280|424:236|444:196|436:144,1,195.00000743866,8|0,0:0|0:0,0:0:0:0:
376,56,34391,6,0,L|356:112,1,32.5000012397767
424,144,34534,2,0,L|408:196,1,32.5000012397767
344,240,34676,1,0,0:0:0:0:
365,86,34819,1,0,0:0:0:0:
496,160,34962,1,0,0:0:0:0:
456,252,35105,6,0,L|388:328,1,86.6666666666667
328,88,35391,2,0,B|316:123|351:120|344:147|344:147|372:156|364:188|392:200|392:200|392:220|387:230|387:230|380:252|372:264,1,195.00000743866
252,100,35962,2,0,L|192:32,1,65.0000024795533
388,108,36248,1,0,0:0:0:0:
332,192,36391,2,0,P|296:168|268:120,1,86.6666666666667,8|0,0:0|0:0,0:0:0:0:
360,100,36676,1,0,0:0:0:0:
392,200,36819,1,0,0:0:0:0:
360,100,36962,6,0,L|300:140,1,43.3333333333333
392,200,37105,2,0,L|412:144,1,43.3333333333333
324,312,37248,6,0,P|236:280|224:180,1,173.333333333333,8|0,0:0|0:0,0:0:0:0:
444,64,37676,5,0,0:0:0:0:
432,160,37819,1,0,0:0:0:0:
384,248,37962,1,0,0:0:0:0:
352,72,38105,2,0,L|328:172,1,86.6666666666667
180,60,38391,2,0,L|168:128,1,43.3333333333333
164,192,38534,2,0,L|272:128,1,103.999996826172,8|0,0:0|0:0,0:0:0:0:
429,228,38819,1,0,0:0:0:0:
464,352,38962,6,0,P|456:288|420:216,1,130.000004959107,8|0,0:0|0:0,0:0:0:0:
344,344,39391,6,0,L|380:256,1,86.6666666666667
416,148,39676,1,0,0:0:0:0:
440,320,39819,1,0,0:0:0:0:
328,180,39962,1,0,0:0:0:0:
428,64,40105,1,0,0:0:0:0:
260,160,40248,1,0,0:0:0:0:
432,192,40391,1,0,0:0:0:0:
260,160,40534,1,0,0:0:0:0:
225,276,40676,6,0,P|225:208|285:144,1,130.000004959107,8|0,0:0|0:0,0:0:0:0:
356,256,41105,2,0,L|344:308,1,32.5000012397767
444,244,41248,2,0,L|420:192,1,32.5000012397767
324,196,41391,2,0,L|376:157,1,65.0000024795533
236,176,41676,1,0,0:0:0:0:
268,296,41819,1,0,0:0:0:0:
393,198,41962,6,0,P|419:128|373:30,1,162.500006198883
392,48,42498,6,0,L|436:56,1,32.5
384,76,42605,2,0,L|416:96,1,32.5
372,96,42712,2,0,L|392:140,1,32.5
360,116,42819,6,0,L|360:224,1,86.6666666666667,8|0,0:0|0:0,0:0:0:0:
336,280,43105,1,0,0:0:0:0:
228,324,43248,1,0,0:0:0:0:
132,280,43391,1,0,0:0:0:0:
112,184,43534,1,0,0:0:0:0:
60,280,43676,5,8,0:0:0:0:
160,332,43819,1,0,0:0:0:0:
272,304,43962,1,4,0:0:0:0:
356,208,44105,2,0,L|384:120,1,86.6666666666667,12|12,0:0|0:0,0:0:0:0:
316,68,44391,5,10,0:0:0:0:
408,184,44534,1,0,0:0:0:0:
268,132,44676,1,0,0:0:0:0:
336,264,44819,1,2,0:0:0:0:
204,172,44962,1,0,0:0:0:0:
232,312,45105,1,2,0:0:0:0:
128,200,45248,1,0,0:0:0:0:
69,308,45391,2,0,P|153:336|241:304,1,173.333333333333,10|0,0:0|0:0,0:0:0:0:
352,232,45819,6,0,L|420:188,1,65.0000024795533,8|0,0:0|0:0,0:0:0:0:
236,232,46248,6,0,L|152:280,1,65.0000024795533,8|0,0:0|0:0,0:0:0:0:
108,200,46534,1,4,0:0:0:0:
212,148,46676,1,0,0:0:0:0:
96,148,46819,1,0,0:0:0:0:
272,120,46962,1,0,0:0:0:0:
168,248,47105,6,0,L|100:320,1,65.0000024795533,10|0,0:0|0:0,0:0:0:0:
32,296,47391,1,0,0:0:0:0:
104,196,47534,1,0,0:0:0:0:
208,168,47676,1,0,0:0:0:0:
320,216,47819,1,0,0:0:0:0:
124,232,47962,6,2,P|152:308|204:328,1,130.000004959107,2|0,0:0|0:0,0:0:0:0:
158,119,48391,2,2,P|164:183|124:232,1,130.000004959107,2|0,0:0|0:0,0:0:0:0:
240,40,48819,2,2,P|167:78|159:130,1,130.000004959107,2|0,0:0|0:0,0:0:0:0:
392,92,49248,6,0,L|464:64,1,65.0000024795533,2|0,0:0|0:0,0:0:0:0:
312,48,49676,6,0,P|274:65|232:108,1,86.6666666666667,8|0,0:0|0:0,0:0:0:0:
240,184,49962,1,0,0:0:0:0:
296,264,50105,1,0,0:0:0:0:
400,272,50248,1,0,0:0:0:0:
484,212,50391,1,0,0:0:0:0:
472,88,50534,6,0,P|412:112|364:168,1,130.000004959107,10|0,0:0|0:0,0:0:0:0:
288,288,50962,2,0,P|308:249|312:212,1,65.0000024795533,2|0,0:0|0:0,0:0:0:0:
124,80,51248,1,2,0:0:0:0:
124,80,51391,6,0,P|92:160|88:232,1,130.000004959107,8|0,0:0|0:0,0:0:0:0:
200,144,51819,2,0,P|228:92|236:64,1,65.0000024795533,2|0,0:0|0:0,0:0:0:0:
396,328,52105,1,2,0:0:0:0:
396,328,52248,6,0,P|412:260|380:196,1,130.000004959107,8|0,0:0|0:0,0:0:0:0:
240,340,52676,6,2,B|232:313|212:325|213:301|189:301|182:277|157:285|156:264|128:272,1,130,2|0,0:0|0:0,0:0:0:0:
216,184,53248,5,0,0:0:0:0:
64,216,53391,1,0,0:0:0:0:
96,52,53534,2,0,P|176:48|232:64,1,130.000004959107,4|0,0:0|0:0,0:0:0:0:
56,132,53962,2,0,P|120:152|184:144,1,130.000004959107,4|0,0:0|0:0,0:0:0:0:
144,56,54391,6,0,L|136:128,1,65.0000024795533,8|0,0:0|0:0,0:0:0:0:
152,224,54676,1,8,0:0:0:0:
248,284,54819,2,0,L|412:208,1,155.999995239258,8|0,0:0|0:0,0:0:0:0:
88,276,55248,2,0,L|172:248,1,65.0000024795533,8|0,0:0|0:0,0:0:0:0:
388,224,55534,1,0,0:0:0:0:
388,224,55676,6,0,L|316:264,1,65.0000024795533,8|0,0:0|0:0,0:0:0:0:
240,332,56105,6,0,L|244:292,5,32.5
264,156,56534,5,0,0:0:0:0:
392,128,56676,1,0,0:0:0:0:
200,104,56819,1,0,0:0:0:0:
328,240,56962,2,0,P|376:124|352:64,1,173.333333333333,4|0,0:0|0:0,0:0:0:0:
256,192,57391,5,0,0:0:0:0:
360,288,57534,1,0,0:0:0:0:
320,116,57676,1,0,0:0:0:0:
276,280,57819,2,0,P|364:276|436:208,1,173.333333333333,4|0,0:0|0:0,0:0:0:0:
312,104,58248,5,0,0:0:0:0:
272,252,58391,1,0,0:0:0:0:
404,80,58534,1,0,0:0:0:0:
256,44,58676,1,0,0:0:0:0:
484,152,58819,1,0,0:0:0:0:
320,128,58962,1,0,0:0:0:0:
320,128,59105,6,0,B|264:160|264:160|228:80|144:60|88:104,1,260.000009918213,4|0,0:0|0:0,0:0:0:0:
168,216,59534,2,0,B|232:172|360:236|360:236|384:168,1,260.000009918213,4|0,0:0|0:0,0:0:0:0:
352,112,59962,1,0,0:0:0:0:
352,112,60105,2,0,L|264:208,1,130.000004959107
360,288,60391,6,0,P|416:260|452:144,1,173.333333333333,6|0,0:0|0:0,0:0:0:0:
376,48,60819,1,0,0:0:0:0:
456,240,60962,1,0,0:0:0:0:
324,148,61105,1,0,0:0:0:0:
336,324,61248,6,0,P|224:304|232:172,1,260,6|0,0:0|0:0,0:0:0:0:
456,76,61819,2,0,L|432:156,1,43.3333333333333
332,120,61962,2,0,L|308:196,1,43.3333333333333
288,268,62105,2,0,P|260:328|252:340,2,43.3333333333333
328,132,62391,1,0,0:0:0:0:
192,152,62534,6,0,B|236:80|340:48|340:48|408:104,1,260.000009918213
224,216,62962,2,0,B|128:248|128:248|86:192|152:88,1,260.000009918213
192,284,63391,5,0,0:0:0:0:
288,168,63534,1,0,0:0:0:0:
136,176,63676,1,0,0:0:0:0:
336,216,63819,1,0,0:0:0:0:
188,160,63962,1,0,0:0:0:0:
232,336,64105,1,0,0:0:0:0:
368,212,64248,1,0,0:0:0:0:
176,200,64391,1,0,0:0:0:0:
280,352,64534,1,0,0:0:0:0:
320,160,64676,1,0,0:0:0:0:
144,252,64819,1,0,0:0:0:0:
296,328,64962,1,0,0:0:0:0:
104,352,65105,2,0,P|96:264|152:208,1,173.333333333333
124,152,65534,6,0,P|204:172|156:268,1,173.333333333333
208,176,65962,2,0,L|296:104,1,86.6666666666667
368,104,66248,1,0,0:0:0:0:
368,292,66391,1,0,0:0:0:0:
368,292,66676,6,0,P|332:260|288:184,1,130.000004959107
132,252,66962,2,0,L|168:156,1,65.0000024795533
76,152,67105,2,0,L|148:120,1,65.0000024795533
156,44,67248,1,0,0:0:0:0:
156,44,67391,2,0,P|108:104|116:176,1,130.000004959107
220,268,67676,1,0,0:0:0:0:
159,163,67819,1,0,0:0:0:0:
141,311,67962,1,0,0:0:0:0:
141,311,68105,6,0,P|113:231|169:159,1,173.333333333333
264,48,68534,1,0,0:0:0:0:
264,48,68676,2,0,L|304:104,1,43.3333333333333
202,171,68819,2,0,L|159:162,1,43.3333333333333
320,228,68962,2,0,P|352:184|360:128,1,86.6666666666667
316,48,69248,2,0,L|260:92,1,43.3333333333333
456,116,69391,2,0,L|432:40,1,43.3333333333333
316,184,69534,6,0,L|384:200,9,43.3333333333333
240,92,70248,6,0,P|193:186|196:224,1,130.000004959107
304,192,70676,2,0,P|352:120|348:56,1,130.000004959107
208,160,71105,6,0,P|192:240|200:300,1,130.000004959107
312,224,71534,2,0,P|332:128|320:80,1,130.000004959107
184,156,71962,6,0,P|208:232|252:272,1,130.000004959107
288,160,72391,2,0,P|264:84|224:32,1,130.000004959107
200,240,72819,6,0,B|248:292|304:308|356:288|396:264|420:228,1,238.33334060669
304,152,73676,6,0,P|264:216|256:288,1,130.000004959107
380,220,74105,2,0,P|412:152|420:84,1,130.000004959107
280,172,74534,6,0,P|288:240|336:304,1,130.000004959107
384,176,74962,2,0,P|364:100|320:56,1,130.000004959107
280,212,75391,6,0,P|340:280|400:296,1,130.000004959107
360,172,75819,2,0,P|300:88|252:72,1,130.000004959107
280,236,76248,6,0,P|384:268|440:256,1,130.000004959107
332,160,76676,2,0,P|244:132|188:136,1,130.000004959107
316,248,77105,6,0,P|344:300|400:320,2,65.0000024795533
384,200,77534,2,0,P|408:152|400:116,2,65.0000024795533
284,248,77962,6,0,P|232:280|224:316,2,65.0000024795533
412,224,78391,6,0,P|464:216|484:192,2,65.0000024795533
288,160,78819,6,0,L|228:128,2,65.0000024795533
356,264,79248,2,0,L|392:336,2,65.0000024795533
360,132,79676,6,0,L|376:64,2,65.0000024795533
272,232,80105,2,0,L|204:280,2,65.0000024795533
164,208,80534,6,0,P|148:308|292:328,1,238.33334060669
120,128,81391,2,0,P|208:120|232:256,1,238.33334060669
144,244,82248,2,0,B|147:302|168:328|204:352|252:360|292:342|332:296,1,260
140,248,83319,6,0,L|220:192,1,65.0000024795533
64,232,83534,2,0,L|44:328,2,65
104,68,83962,5,0,0:0:0:0:
172,140,84176,1,0,0:0:0:0:
172,140,84390,6,0,P|200:188|260:228,1,81.25
408,308,84604,6,0,P|344:260|304:248,1,81.25
212,308,84819,2,0,L|248:216,1,81.25
140,200,85033,2,0,L|216:156,1,81.25
216,80,85247,6,0,L|292:120,1,81.25
352,60,85461,2,0,L|364:156,1,81.25
240,256,85676,1,0,0:0:0:0:
240,256,85890,6,0,L|332:336,1,97.50000371933
132,168,86104,1,0,0:0:0:0:
132,168,86319,6,0,L|96:44,1,97.50000371933
168,312,86533,1,0,0:0:0:0:
168,312,86747,6,0,L|80:352,1,97.50000371933
332,240,86961,1,0,0:0:0:0:
332,240,87176,6,0,L|344:144,1,97.50000371933
276,320,87390,1,0,0:0:0:0:
452,208,87604,1,0,0:0:0:0:
336,56,87819,1,0,0:0:0:0:
272,236,88033,1,0,0:0:0:0:
336,56,88248,6,0,P|408:116|432:216,2,162.5
336,56,88890,1,0,0:0:0:0:
344,184,89105,2,0,P|312:252|256:276,1,81.25
256,196,89319,2,0,P|216:256|320:344,2,162.5
348,176,89854,6,0,L|380:336,1,162.5
379,334,90176,2,0,P|334:303|282:295,1,108.333333333333
232,296,90390,1,0,0:0:0:0:
188,328,90497,1,0,0:0:0:0:
136,348,90604,1,0,0:0:0:0:
88,340,90711,1,0,0:0:0:0:
72,304,90819,6,0,L|112:224,1,81.25
216,208,91033,2,0,L|160:300,1,81.25
140,168,91248,2,0,L|84:100,1,81.25
224,104,91461,6,0,L|300:168,1,81.25
226,192,91676,2,0,L|120:236,1,81.25
176,56,91890,1,0,0:0:0:0:
376,216,92105,6,0,P|308:169|240:168,1,130
312,320,92534,1,0,0:0:0:0:
312,320,92747,2,0,L|276:256,1,65
204,196,92962,6,0,P|199:230|208:260,1,65
244,120,93176,2,0,P|276:80|308:72,1,65
152,200,93390,6,0,P|116:240|116:268,1,65
240,136,93604,2,0,P|284:116|320:128,1,65
392,216,93819,6,0,P|364:128|320:80,1,130
232,120,94248,6,0,P|312:80|404:160,1,162.5
252,196,94676,6,0,P|200:184|168:152,1,81.25
240,112,94890,2,0,P|172:76|128:80,1,81.25
336,184,95105,2,0,P|376:244|328:360,2,162.5
128,120,95747,1,0,0:0:0:0:
396,296,95961,1,0,0:0:0:0:
400,244,96069,1,0,0:0:0:0:
388,208,96176,1,0,0:0:0:0:
388,208,96391,6,0,P|312:256|256:304,1,162.5
328,248,96819,2,0,P|369:142|360:68,1,162.5
184,84,97247,5,0,0:0:0:0:
164,128,97354,1,0,0:0:0:0:
160,176,97461,1,0,0:0:0:0:
172,220,97569,1,0,0:0:0:0:
196,252,97676,2,0,L|264:320,1,81.25
304,56,97890,6,0,B|372:76|404:144|404:144|368:184,1,162.5
112,164,98319,2,0,L|200:100,1,81.25
144,320,98533,2,0,L|88:248,1,81.25
296,328,98747,2,0,L|352:268,1,81.25
276,120,98962,2,0,L|368:224,1,97.50000371933
104,168,99176,2,0,L|176:80,1,97.50000371933
152,272,99390,1,0,0:0:0:0:
208,192,99604,6,0,L|128:304,1,97.50000371933
348,168,99819,1,0,0:0:0:0:
402,249,100033,6,0,L|346:165,1,97.50000371933
292,312,100248,1,0,0:0:0:0:
194,314,100461,6,0,L|294:311,1,97.50000371933
128,220,100676,1,0,0:0:0:0:
79,135,100890,6,0,L|138:239,1,97.50000371933
156,76,101104,1,0,0:0:0:0:
48,228,101319,1,0,0:0:0:0:
96,48,101533,2,0,P|180:16|224:100,1,195.00000743866
144,112,101962,6,0,P|92:204|132:312,2,162.5
416,240,102604,6,0,P|435:164|372:72,1,162.5
368,304,103033,1,0,0:0:0:0:
368,304,103247,2,0,L|278:256,1,81.25
368,304,103461,6,0,P|412:224|388:136,1,162.5
276,72,103890,1,0,0:0:0:0:
352,252,104104,1,0,0:0:0:0:
364,216,104211,1,0,0:0:0:0:
368,172,104319,1,0,0:0:0:0:
356,128,104426,1,0,0:0:0:0:
336,92,104534,6,0,L|264:40,1,81.25,4|4,0:0|0:0,0:0:0:0:
356,176,104747,6,0,L|313:276,1,97.50000371933
192,124,104962,2,0,L|80:48,1,97.50000371933
188,256,105176,2,0,L|146:325,1,81.25
304,80,105391,5,0,0:0:0:0:
304,168,105604,1,0,0:0:0:0:
267,242,105819,2,0,P|316:172|312:96,1,162.5
224,146,106248,1,0,0:0:0:0:
363,229,106461,1,0,0:0:0:0:
208,232,106676,6,0,P|211:172|296:92,1,162.5
296,304,107104,1,0,0:0:0:0:
364,184,107319,1,0,0:0:0:0:
364,184,107534,6,0,P|286:264|224:288,1,162.5
324,104,107962,2,0,P|408:120|460:184,1,130
188,136,108391,2,0,L|108:152,2,65
292,160,108819,6,0,P|296:252|232:300,2,130
248,120,109461,6,0,L|312:192,1,65
320,272,109676,2,0,P|369:184|352:120,1,130
232,216,110105,2,0,P|289:305|344:296,1,130
376,140,110534,2,0,P|420:108|456:100,2,65
139,262,110962,6,0,B|103:238|88:174|88:174|157:140|157:140|152:64|152:64|199:31|299:51,1,390.00001487732
256,204,111534,6,0,P|283:141|312:116,1,86.6666666666667
416,44,111819,1,0,0:0:0:0:
392,168,111962,1,0,0:0:0:0:
236,76,112105,1,0,0:0:0:0:
292,268,112248,6,0,P|324:232|340:168,1,86.6666666666667
336,80,112534,1,0,0:0:0:0:
392,256,112676,1,0,0:0:0:0:
256,160,112819,1,0,0:0:0:0:
240,308,112962,6,0,P|312:296|336:260,1,86.6666666666667
376,168,113248,2,0,P|316:184|288:204,1,86.6666666666667
152,288,113534,1,0,0:0:0:0:
152,288,113676,2,0,P|151:178|184:116,1,173.333333333333
256,52,114105,1,0,0:0:0:0:
260,56,114248,6,0,L|200:108,1,77.999997619629
180,252,114534,2,0,L|264:184,1,77.999997619629
316,156,114819,1,0,0:0:0:0:
404,148,114962,1,0,0:0:0:0:
484,200,115105,1,0,0:0:0:0:
396,88,115248,6,0,P|344:104|312:140,1,77.999997619629
260,208,115534,1,0,0:0:0:0:
260,208,115676,2,0,L|344:232,1,77.999997619629
460,276,115962,1,0,0:0:0:0:
224,316,116105,6,0,P|224:268|248:216,1,77.999997619629
264,128,116391,1,0,0:0:0:0:
408,180,116534,1,0,0:0:0:0:
368,304,116676,1,0,0:0:0:0:
208,248,116819,1,0,0:0:0:0:
376,132,116962,2,0,P|408:184|404:228,1,77.999997619629
260,168,117248,6,0,P|228:144|232:84,1,77.999997619629
372,204,117534,1,0,0:0:0:0:
260,284,117676,1,0,0:0:0:0:
344,64,117819,6,0,P|300:160|272:264,1,208
368,324,118391,1,0,0:0:0:0:
232,184,118534,1,0,0:0:0:0:
232,184,118676,6,0,P|280:160|324:160,1,69.3333333333333
396,272,118962,1,0,0:0:0:0:
396,272,119105,6,0,P|340:268|316:252,1,69.3333333333333
224,216,119391,1,0,0:0:0:0:
224,216,119534,6,0,P|240:172|264:144,1,69.3333333333333
376,64,119819,1,0,0:0:0:0:
376,64,119962,6,0,P|368:116|344:144,1,69.3333333333333
248,180,120248,1,0,0:0:0:0:
248,180,120391,6,0,P|252:144|280:96,1,69.3333333333333
360,284,120676,1,0,0:0:0:0:
360,284,120819,6,0,P|328:308|296:320,1,69.3333333333333
296,176,121105,1,0,0:0:0:0:
296,176,121248,2,0,B|254:195|228:163|188:180|154:154|104:168,1,181.999994445801
140,264,121819,1,0,0:0:0:0:
144,108,121962,1,0,0:0:0:0:
144,108,122105,6,0,L|224:88,1,60.666664815267
312,256,122391,1,0,0:0:0:0:
312,256,122534,6,0,L|224:236,1,60.666664815267
300,68,122819,1,0,0:0:0:0:
300,68,122962,6,0,L|320:144,1,60.666664815267
224,324,123248,1,0,0:0:0:0:
224,324,123391,6,0,L|208:168,1,86.6666666666667
440,344,123819,2,0,L|340:308,1,103.999996826172
320,100,124248,2,0,L|376:240,1,121.333329630534
272,320,124676,2,0,L|304:264,1,60.666664815267
244,300,124819,2,0,L|292:200,1,60.666664815267
212,288,124962,2,0,L|264:144,1,121.333329630534
