osu file format v14

[General]
AudioFilename: audio.mp3
AudioLeadIn: 0
PreviewTime: 58181
Countdown: 0
SampleSet: Soft
StackLeniency: 0.7
Mode: 3
LetterboxInBreaks: 0
SpecialStyle: 0
WidescreenStoryboard: 1

[Editor]
DistanceSpacing: 0.8
BeatDivisor: 3
GridSize: 8
TimelineZoom: 1.5

[Metadata]
Title:Omoide Illumination
TitleUnicode:おもいでイルミネーション
Artist:Hello, Happy World!
ArtistUnicode:ハロー、ハッピーワールド!
Creator:ML-ysg
Version:Hard
Source:バンドリ!ガールズバンドパーティ!
Tags:game size video game j-pop jpop pop japanese bang dream! girls band party! garupa ガルパ original song 6th sixth single Bandori project Harō, Happī Wārudo! ハロハピ HaroHapi HHW 弦巻こころ Tsurumaki Kokoro 瀬田薫 Seta Kaoru 北沢はぐみ Kitazawa Hagumi 松原花音 Matsubara Kanon 奥沢美咲 Okusawa Misaki ミッシェル Michelle 伊藤美来 Itou Miku 田所あずさ Tadokoro Azusa 吉田有里 Yoshida Yuri 豊田萌絵 Toyota Moe 黒沢ともよ Kurosawa Tomoyo
BeatmapID:3344055
BeatmapSetID:1638216

[Difficulty]
HPDrainRate:7.5
CircleSize:4
OverallDifficulty:7.5
ApproachRate:5
SliderMultiplier:1.4
SliderTickRate:1

[Events]
//Background and Video events
0,0,"3.png",0,0
//Break Periods
//Storyboard Layer 0 (Background)
//Storyboard Layer 1 (Fail)
//Storyboard Layer 2 (Pass)
//Storyboard Layer 3 (Foreground)
//Storyboard Layer 4 (Overlay)
//Storyboard Sound Samples
Sample,3636,0,"Ride.wav",50
Sample,4000,0,"Ride.wav",30
Sample,4363,0,"Ride.wav",50
Sample,5818,0,"Hat Close.wav",50
Sample,5818,0,"Bell.wav",60
Sample,6060,0,"Hat Close.wav",50
Sample,6545,0,"Tom1.wav",40
Sample,6909,0,"Tom2.wav",40
Sample,7515,0,"Ride.wav",40
Sample,7878,0,"Ride.wav",40
Sample,8242,0,"Ride.wav",40
Sample,8606,0,"Ride.wav",40
Sample,8727,0,"Ride.wav",40
Sample,8969,0,"Ride.wav",40
Sample,9333,0,"Ride.wav",40
Sample,9696,0,"Ride.wav",40
Sample,10181,0,"Ride.wav",40
Sample,10424,0,"Ride.wav",40
Sample,10787,0,"Ride.wav",40
Sample,11151,0,"Ride.wav",40
Sample,11515,0,"Ride.wav",40
Sample,11878,0,"Ride.wav",40
Sample,12242,0,"Ride.wav",40
Sample,12727,0,"Tom2.wav",40
Sample,13333,0,"Ride.wav",40
Sample,13696,0,"Ride.wav",40
Sample,14181,0,"Tom2.wav",40
Sample,16000,0,"Bell.wav",60
Sample,16727,0,"Ride.wav",50
Sample,17090,0,"Ride.wav",30
Sample,17454,0,"Ride.wav",50
Sample,18545,0,"Ride.wav",50
Sample,18909,0,"Bell.wav",50
Sample,18909,0,"Tom3.wav",40
Sample,19272,0,"Bell.wav",50
Sample,21090,0,"Hat Open.wav",50
Sample,21818,0,"Hat Open.wav",50
Sample,22545,0,"Hat Open.wav",50
Sample,26909,0,"Hat Close.wav",40
Sample,27636,0,"Hat Close.wav",40
Sample,28363,0,"Hat Close.wav",40
Sample,29090,0,"Hat Close.wav",40
Sample,29818,0,"Hat Close.wav",40
Sample,30545,0,"Hat Close.wav",40
Sample,30909,0,"Hat Close.wav",40
Sample,32727,0,"Hat Open.wav",50
Sample,33454,0,"Hat Open.wav",50
Sample,34181,0,"Hat Open.wav",50
Sample,35515,0,"Hat Open.wav",60
Sample,42181,0,"Ride.wav",50
Sample,43636,0,"Tom3.wav",40
Sample,44363,0,"Bell.wav",50
Sample,45818,0,"Bell.wav",50
Sample,48000,0,"Ride.wav",50
Sample,49454,0,"Tom3.wav",40
Sample,50181,0,"Bell.wav",50
Sample,51636,0,"Bell.wav",50
Sample,52727,0,"Ride.wav",50
Sample,53454,0,"Ride.wav",50
Sample,54181,0,"Ride.wav",50
Sample,54909,0,"Ride.wav",50
Sample,56969,0,"Tom3.wav",40
Sample,60000,0,"Bell.wav",50
Sample,60363,0,"Hat Open.wav",60
Sample,60363,0,"Bell.wav",50
Sample,60727,0,"Bell.wav",50
Sample,61090,0,"Hat Open.wav",60
Sample,61090,0,"Bell.wav",50
Sample,61454,0,"Bell.wav",50
Sample,61818,0,"Hat Open.wav",60
Sample,61818,0,"Bell.wav",50
Sample,62181,0,"Bell.wav",50
Sample,62545,0,"Hat Open.wav",60
Sample,62545,0,"Bell.wav",50
Sample,62909,0,"Bell.wav",50
Sample,63272,0,"Hat Open.wav",60
Sample,63272,0,"Bell.wav",50
Sample,63636,0,"Bell.wav",50
Sample,64000,0,"Hat Open.wav",60
Sample,64000,0,"Bell.wav",50
Sample,64363,0,"Bell.wav",50
Sample,64727,0,"Hat Open.wav",60
Sample,64727,0,"Bell.wav",50
Sample,65090,0,"Bell.wav",50
Sample,65818,0,"Bell.wav",50
Sample,66181,0,"Hat Open.wav",60
Sample,66181,0,"Bell.wav",50
Sample,66545,0,"Bell.wav",50
Sample,66909,0,"Hat Open.wav",60
Sample,66909,0,"Bell.wav",50
Sample,67272,0,"Bell.wav",50
Sample,67636,0,"Hat Open.wav",60
Sample,67636,0,"Bell.wav",50
Sample,68000,0,"Bell.wav",50
Sample,68363,0,"Hat Open.wav",60
Sample,68363,0,"Bell.wav",50
Sample,68727,0,"Bell.wav",50
Sample,69090,0,"Hat Open.wav",60
Sample,69090,0,"Bell.wav",50
Sample,69454,0,"Bell.wav",50
Sample,69818,0,"Hat Open.wav",60
Sample,69818,0,"Bell.wav",50
Sample,70181,0,"Bell.wav",50
Sample,70909,0,"Tom2.wav",40
Sample,72000,0,"Bell.wav",50
Sample,72000,0,"Ride.wav",50
Sample,72363,0,"Ride.wav",50
Sample,72727,0,"Bell.wav",50
Sample,72727,0,"Ride.wav",50
Sample,73090,0,"Ride.wav",50
Sample,73454,0,"Bell.wav",50
Sample,73454,0,"Ride.wav",50
Sample,73696,0,"Ride.wav",50
Sample,73818,0,"Bell.wav",50
Sample,73818,0,"Ride.wav",50
Sample,74181,0,"Bell.wav",50
Sample,74909,0,"Bell.wav",50
Sample,74909,0,"Ride.wav",50
Sample,75272,0,"Ride.wav",50
Sample,75636,0,"Bell.wav",50
Sample,75636,0,"Ride.wav",50
Sample,76000,0,"Ride.wav",50
Sample,76363,0,"Ride.wav",50
Sample,76606,0,"Ride.wav",30
Sample,76727,0,"Bell.wav",50
Sample,76727,0,"Ride.wav",50
Sample,77454,0,"Bell.wav",50
Sample,78181,0,"Bell.wav",50
Sample,78909,0,"Bell.wav",50
Sample,79636,0,"Bell.wav",50
Sample,81454,0,"Bell.wav",50
Sample,82181,0,"Tom2.wav",50
Sample,82545,0,"Tom3.wav",50
Sample,83151,0,"Ride.wav",50
Sample,83515,0,"Ride.wav",50
Sample,83636,0,"Ride.wav",50
Sample,83878,0,"Ride.wav",50
Sample,84242,0,"Ride.wav",50
Sample,84363,0,"Bell.wav",50
Sample,84363,0,"Ride.wav",50
Sample,84606,0,"Ride.wav",50
Sample,84969,0,"Ride.wav",50
Sample,85090,0,"Ride.wav",50
Sample,85333,0,"Ride.wav",50
Sample,85454,0,"Bell.wav",50
Sample,86060,0,"Ride.wav",50
Sample,86424,0,"Ride.wav",50
Sample,86545,0,"Ride.wav",50
Sample,86787,0,"Ride.wav",50
Sample,87151,0,"Ride.wav",50
Sample,87272,0,"Bell.wav",50
Sample,87272,0,"Ride.wav",50
Sample,87515,0,"Ride.wav",50
Sample,87878,0,"Ride.wav",50
Sample,88000,0,"Ride.wav",50
Sample,88242,0,"Ride.wav",50
Sample,88969,0,"Ride.wav",50
Sample,89333,0,"Ride.wav",50
Sample,89696,0,"Ride.wav",50
Sample,90060,0,"Ride.wav",50
Sample,90181,0,"Ride.wav",50
Sample,90424,0,"Ride.wav",50
Sample,90787,0,"Ride.wav",50
Sample,91151,0,"Ride.wav",50
Sample,91636,0,"Ride.wav",50
Sample,91878,0,"Ride.wav",50
Sample,92242,0,"Ride.wav",50
Sample,92606,0,"Ride.wav",50
Sample,92969,0,"Ride.wav",50
Sample,94181,0,"Tom2.wav",50
Sample,94909,0,"Bell.wav",50
Sample,95636,0,"Bell.wav",50
Sample,96363,0,"Tom2.wav",50
Sample,97090,0,"Bell.wav",50
Sample,97818,0,"Bell.wav",50
Sample,98181,0,"Bell.wav",50
Sample,98545,0,"Bell.wav",50
Sample,98909,0,"Bell.wav",50
Sample,99272,0,"Bell.wav",50
Sample,99636,0,"Bell.wav",50

[TimingPoints]
0,363.636363636364,4,2,1,50,1,0
59636,-100.0,4,2,1,50,0,1
71272,-100.0,4,2,1,50,0,0

[HitObjects]
192,192,1090,1,0,0:0:0:0:
320,192,1333,1,0,0:0:0:0:
64,192,1454,1,0,0:0:0:60:Bell.wav
448,192,1454,128,0,1818:0:0:0:0:
192,192,1818,128,0,2181:0:0:0:60:Bell.wav
448,192,2181,128,0,2545:0:0:0:60:Bell.wav
64,192,2545,128,0,2909:0:0:0:60:Bell.wav
192,192,2909,1,0,0:0:0:60:Bell.wav
320,192,2909,128,0,3272:0:0:0:0:
64,192,3272,1,0,0:0:0:60:Bell.wav
192,192,3636,128,0,3878:0:0:0:60:Bell.wav
448,192,3878,1,0,0:0:0:30:Ride.wav
64,192,4000,128,0,4363:0:0:0:60:Bell.wav
320,192,4363,128,0,4727:0:0:0:60:Bell.wav
192,192,4727,128,0,4969:0:0:0:60:Bell.wav
448,192,4969,1,0,0:0:0:0:
320,192,5090,128,0,5333:0:0:0:60:Bell.wav
64,192,5333,1,0,0:0:0:0:
448,192,5454,128,0,5696:0:0:0:60:Bell.wav
192,192,5696,1,0,0:0:0:0:
320,192,5818,1,2,0:0:0:0:
192,192,6060,1,2,0:0:0:0:
64,192,6181,1,8,0:0:0:0:
448,192,6181,1,0,0:0:0:60:Bell.wav
320,192,6424,1,2,0:0:0:0:
192,192,6545,1,0,0:0:0:60:Bell.wav
320,192,6666,1,0,0:0:0:40:Tom1.wav
448,192,6787,1,0,0:0:0:40:Tom1.wav
192,192,6909,1,0,0:0:0:60:Bell.wav
320,192,7030,1,0,0:0:0:40:Tom2.wav
192,192,7151,1,0,0:0:0:40:Tom3.wav
64,192,7272,1,4,0:0:0:0:
448,192,7272,1,2,0:0:0:0:
320,192,7515,1,2,0:0:0:0:
64,192,7636,1,8,0:0:0:0:
192,192,7636,1,0,0:0:0:0:
448,192,7878,1,2,0:0:0:0:
192,192,8000,1,0,0:0:0:40:Ride.wav
64,192,8242,1,2,0:0:0:0:
320,192,8363,1,8,0:0:0:0:
448,192,8363,1,0,0:0:0:0:
192,192,8606,1,2,0:0:0:0:
320,192,8727,1,2,0:0:0:0:
448,192,8969,1,2,0:0:0:0:
64,192,9090,1,8,0:0:0:0:
192,192,9090,1,0,0:0:0:0:
320,192,9333,1,2,0:0:0:0:
192,192,9454,1,0,0:0:0:40:Ride.wav
64,192,9696,1,2,0:0:0:0:
320,192,9818,1,8,0:0:0:0:
448,192,9818,1,0,0:0:0:0:
192,192,10060,1,0,0:0:0:40:Ride.wav
320,192,10181,1,2,0:0:0:0:
448,192,10424,1,2,0:0:0:0:
64,192,10545,1,8,0:0:0:0:
320,192,10545,1,0,0:0:0:0:
192,192,10787,1,2,0:0:0:0:
448,192,10909,1,0,0:0:0:40:Ride.wav
320,192,11151,1,2,0:0:0:0:
64,192,11272,1,8,0:0:0:0:
192,192,11272,1,0,0:0:0:0:
448,192,11515,1,2,0:0:0:0:
64,192,11636,1,8,0:0:0:0:
320,192,11636,1,0,0:0:0:0:
192,192,11878,1,2,0:0:0:0:
320,192,12000,1,12,0:0:0:0:
448,192,12000,1,0,0:0:0:40:Ride.wav
192,192,12242,1,2,0:0:0:0:
64,192,12363,1,8,0:0:0:0:
320,192,12363,1,0,0:0:0:0:
448,192,12484,1,8,0:0:0:0:
192,192,12606,1,8,0:0:0:0:
320,192,12727,1,2,0:0:0:0:
64,192,12848,1,0,0:0:0:40:Tom2.wav
192,192,12969,1,0,0:0:0:40:Tom3.wav
320,192,13090,1,12,0:0:0:0:
448,192,13090,1,0,0:0:0:40:Ride.wav
192,192,13333,1,2,0:0:0:0:
64,192,13454,1,12,0:0:0:0:
448,192,13454,1,0,0:0:0:40:Ride.wav
320,192,13696,1,2,0:0:0:0:
64,192,13818,1,8,0:0:0:0:
192,192,13818,1,0,0:0:0:0:
320,192,13939,1,8,0:0:0:0:
448,192,14060,1,8,0:0:0:0:
64,192,14181,1,2,0:0:0:0:
192,192,14303,1,0,0:0:0:40:Tom2.wav
320,192,14424,1,0,0:0:0:40:Tom3.wav
64,192,14545,1,4,0:0:0:0:
448,192,14545,1,2,0:0:0:0:
192,192,14909,1,0,0:0:0:60:Bell.wav
64,192,15151,1,0,0:0:0:0:
320,192,15272,1,0,0:0:0:60:Bell.wav
448,192,15515,1,0,0:0:0:0:
192,192,15636,1,0,0:0:0:60:Bell.wav
320,192,15878,1,2,0:0:0:0:
64,192,16000,1,2,0:0:0:0:
192,192,16363,1,0,0:0:0:60:Bell.wav
448,192,16727,1,0,0:0:0:60:Bell.wav
320,192,16848,1,0,0:0:0:35:Ride.wav
64,192,16969,1,0,0:0:0:30:Ride.wav
192,192,17090,1,0,0:0:0:60:Bell.wav
448,192,17212,1,0,0:0:0:30:Ride.wav
320,192,17333,1,0,0:0:0:35:Ride.wav
64,192,17454,1,6,0:0:0:0:
192,192,17454,1,0,0:0:0:60:Bell.wav
320,192,17818,1,0,0:0:0:60:Bell.wav
64,192,18060,1,0,0:0:0:0:
448,192,18181,1,0,0:0:0:60:Bell.wav
320,192,18424,1,0,0:0:0:50:Ride.wav
192,192,18545,1,0,0:0:0:60:Bell.wav
448,192,18787,1,2,0:0:0:0:
64,192,18909,1,2,0:0:0:0:
320,192,19151,1,0,0:0:0:40:Tom3.wav
192,192,19272,1,4,0:0:0:0:
64,192,19515,1,0,0:0:0:0:
320,192,19636,1,0,0:0:0:50:Bell.wav
192,192,19878,1,2,0:0:0:0:
64,192,20000,1,8,0:0:0:0:
448,192,20000,1,0,0:0:0:50:Bell.wav
320,192,20121,1,8,0:0:0:0:
192,192,20242,1,8,0:0:0:0:
64,192,20363,1,4,0:0:0:0:
448,192,20363,1,2,0:0:0:0:
320,192,20606,1,0,0:0:0:0:
64,192,20727,1,10,0:0:0:0:
192,192,20727,1,4,0:0:0:0:
448,192,20969,1,0,0:0:0:30:Hat Open.wav
192,192,21090,128,2,21454:0:0:0:0:
320,192,21454,128,10,21818:0:0:0:0:
448,192,21454,1,0,0:0:0:50:Hat Open.wav
64,192,21818,1,2,0:0:0:0:
192,192,22060,1,0,0:0:0:30:Hat Open.wav
320,192,22181,1,10,0:0:0:0:
448,192,22181,1,0,0:0:0:50:Hat Open.wav
64,192,22424,128,0,22909:0:0:0:30:Hat Open.wav
448,192,22545,1,2,0:0:0:0:
192,192,22909,1,10,0:0:0:0:
320,192,22909,1,0,0:0:0:50:Hat Open.wav
64,192,23272,1,2,0:0:0:0:
320,192,23393,1,0,0:0:0:40:Tom2.wav
192,192,23515,1,0,0:0:0:40:Tom3.wav
320,192,23636,1,4,0:0:0:0:
448,192,23636,1,8,0:0:0:0:
448,192,24000,1,2,0:0:0:0:
192,192,24121,1,0,0:0:0:40:Tom2.wav
320,192,24242,1,0,0:0:0:40:Tom3.wav
64,192,24363,1,4,0:0:0:0:
192,192,24363,1,8,0:0:0:0:
320,192,24727,1,8,0:0:0:0:
448,192,24727,1,0,0:0:0:0:
192,192,24848,1,0,0:0:0:0:
64,192,24969,1,8,0:0:0:0:
448,192,25090,1,0,0:0:0:40:Tom2.wav
320,192,25212,1,0,0:0:0:40:Tom2.wav
192,192,25333,1,0,0:0:0:40:Tom3.wav
64,192,25454,1,8,0:0:0:0:
448,192,25454,1,0,0:0:0:60:Hat Open.wav
320,192,25696,1,2,0:0:0:0:
64,192,25818,1,8,0:0:0:0:
448,192,25818,1,0,0:0:0:60:Hat Open.wav
192,192,26181,1,2,0:0:0:0:
320,192,26181,1,4,0:0:0:0:
64,192,26424,1,0,0:0:0:0:
320,192,26545,1,10,0:0:0:0:
448,192,26545,1,0,0:0:0:40:Hat Close.wav
192,192,26787,1,0,0:0:0:0:
320,192,26909,1,2,0:0:0:0:
448,192,27151,1,0,0:0:0:0:
64,192,27272,1,10,0:0:0:0:
192,192,27272,1,0,0:0:0:40:Hat Close.wav
320,192,27515,1,0,0:0:0:0:
192,192,27636,1,2,0:0:0:0:
448,192,27878,1,0,0:0:0:0:
64,192,28000,1,10,0:0:0:0:
320,192,28000,1,0,0:0:0:40:Hat Close.wav
192,192,28242,1,0,0:0:0:0:
320,192,28363,1,2,0:0:0:0:
448,192,28606,1,0,0:0:0:25:Hat Close.wav
64,192,28727,1,10,0:0:0:0:
192,192,28727,1,0,0:0:0:40:Hat Close.wav
320,192,28969,1,0,0:0:0:25:Hat Close.wav
64,192,29090,1,2,0:0:0:0:
192,192,29333,1,0,0:0:0:0:
320,192,29454,1,10,0:0:0:0:
448,192,29454,1,0,0:0:0:40:Hat Close.wav
448,192,29696,1,0,0:0:0:0:
192,192,29818,1,2,0:0:0:0:
320,192,30060,1,0,0:0:0:0:
64,192,30181,1,10,0:0:0:0:
448,192,30181,1,0,0:0:0:40:Hat Close.wav
192,192,30424,1,0,0:0:0:25:Hat Close.wav
320,192,30545,128,2,30909:0:0:0:0:
64,192,30909,1,10,0:0:0:0:
192,192,31030,1,8,0:0:0:0:
320,192,31151,1,8,0:0:0:0:
64,192,31272,1,2,0:0:0:0:
448,192,31272,1,4,0:0:0:0:
192,192,31636,1,10,0:0:0:0:
320,192,31757,1,8,0:0:0:0:
192,192,31878,1,8,0:0:0:0:
64,192,32000,1,4,0:0:0:0:
448,192,32000,1,2,0:0:0:0:
320,192,32242,1,0,0:0:0:0:
64,192,32363,1,10,0:0:0:0:
192,192,32363,1,4,0:0:0:0:
192,192,32606,1,0,0:0:0:0:
448,192,32727,128,2,33090:0:0:0:0:
64,192,33090,128,10,33454:0:0:0:0:
320,192,33090,1,0,0:0:0:50:Hat Open.wav
448,192,33454,1,2,0:0:0:0:
192,192,33696,1,0,0:0:0:0:
64,192,33818,1,10,0:0:0:0:
320,192,33818,1,0,0:0:0:50:Hat Open.wav
448,192,34060,128,0,34545:0:0:0:0:
64,192,34181,1,2,0:0:0:0:
192,192,34545,1,10,0:0:0:0:
320,192,34545,1,0,0:0:0:50:Hat Open.wav
64,192,34909,128,2,35151:0:0:0:0:
448,192,34909,1,4,0:0:0:0:
320,192,35151,1,8,0:0:0:0:
192,192,35272,1,8,0:0:0:0:
448,192,35515,128,2,35878:0:0:0:0:
64,192,35878,1,8,0:0:0:0:
320,192,36000,1,8,0:0:0:0:
192,192,36242,1,8,0:0:0:0:
320,192,36363,128,4,36606:0:0:0:0:
448,192,36363,1,2,0:0:0:0:
64,192,36606,1,0,0:0:0:0:
448,192,36727,1,0,0:0:0:40:Tom2.wav
192,192,36969,128,4,37333:0:0:0:0:
320,192,36969,1,2,0:0:0:0:
448,192,37333,1,8,0:0:0:0:
64,192,37454,1,8,0:0:0:0:
192,192,37696,1,8,0:0:0:0:
320,192,37818,1,4,0:0:0:0:
448,192,37818,1,2,0:0:0:0:
64,192,38181,1,2,0:0:0:0:
192,192,38181,128,8,38424:0:0:0:30:soft-hitclap.wav
448,192,38424,1,8,0:0:0:30:soft-hitclap.wav
64,192,38545,1,2,0:0:0:0:
320,192,38545,128,8,38787:0:0:0:40:soft-hitclap.wav
192,192,38787,1,8,0:0:0:40:soft-hitclap.wav
64,192,38909,128,8,39151:0:0:0:0:
448,192,38909,1,2,0:0:0:0:
320,192,39151,1,8,0:0:0:0:
192,192,39272,1,10,0:0:0:0:
448,192,39272,1,0,0:0:0:60:Hat Open.wav
320,192,39515,1,8,0:0:0:0:
64,192,39636,1,8,0:0:0:0:
192,192,39636,1,2,0:0:0:0:
320,192,39757,1,8,0:0:0:0:
192,192,39878,1,8,0:0:0:0:
64,192,40000,1,2,0:0:0:0:
448,192,40000,1,0,0:0:0:60:Hat Open.wav
192,192,40363,1,2,0:0:0:0:
320,192,40363,1,0,0:0:0:60:Hat Open.wav
64,192,40727,1,4,0:0:0:0:
320,192,40727,1,2,0:0:0:0:
192,192,41090,1,8,0:0:0:0:
448,192,41090,1,0,0:0:0:50:Ride.wav
320,192,41333,1,0,0:0:0:0:
64,192,41454,1,0,0:0:0:50:Ride.wav
192,192,41696,1,2,0:0:0:0:
320,192,41818,1,8,0:0:0:0:
448,192,41818,1,0,0:0:0:50:Ride.wav
64,192,42060,1,0,0:0:0:0:
320,192,42181,1,2,0:0:0:0:
448,192,42424,1,2,0:0:0:0:
64,192,42545,1,8,0:0:0:0:
192,192,42545,1,0,0:0:0:50:Ride.wav
320,192,42787,1,2,0:0:0:0:
192,192,42909,1,0,0:0:0:50:Ride.wav
64,192,43151,1,2,0:0:0:0:
320,192,43272,1,8,0:0:0:0:
448,192,43272,1,0,0:0:0:50:Ride.wav
64,192,43636,1,2,0:0:0:0:
192,192,43636,128,0,44000:0:0:0:50:Bell.wav
320,192,44000,128,10,44363:0:0:0:0:
448,192,44000,1,0,0:0:0:50:Bell.wav
64,192,44363,1,2,0:0:0:0:
192,192,44484,1,0,0:0:0:40:Tom2.wav
320,192,44606,1,0,0:0:0:40:Tom3.wav
64,192,44727,1,10,0:0:0:0:
448,192,44727,1,0,0:0:0:50:Bell.wav
320,192,44969,1,0,0:0:0:40:Tom3.wav
192,192,45090,1,2,0:0:0:0:
448,192,45090,128,0,45454:0:0:0:50:Bell.wav
64,192,45454,128,10,45818:0:0:0:0:
320,192,45454,1,0,0:0:0:50:Bell.wav
448,192,45818,1,2,0:0:0:0:
320,192,45939,1,0,0:0:0:40:Tom2.wav
192,192,46060,1,0,0:0:0:40:Tom3.wav
64,192,46181,1,10,0:0:0:0:
448,192,46181,1,0,0:0:0:50:Bell.wav
192,192,46424,1,0,0:0:0:40:Tom3.wav
320,192,46545,1,4,0:0:0:0:
448,192,46545,1,2,0:0:0:0:
64,192,46909,1,8,0:0:0:0:
192,192,46909,1,0,0:0:0:50:Ride.wav
448,192,47151,1,0,0:0:0:0:
192,192,47272,1,0,0:0:0:50:Ride.wav
64,192,47515,1,2,0:0:0:0:
192,192,47636,1,8,0:0:0:0:
320,192,47636,1,0,0:0:0:50:Ride.wav
448,192,47878,1,0,0:0:0:50:Ride.wav
64,192,48000,1,2,0:0:0:0:
192,192,48242,1,2,0:0:0:0:
320,192,48363,1,8,0:0:0:0:
448,192,48363,1,0,0:0:0:50:Ride.wav
64,192,48606,1,2,0:0:0:0:
448,192,48727,1,0,0:0:0:50:Ride.wav
320,192,48969,1,2,0:0:0:0:
64,192,49090,1,8,0:0:0:0:
192,192,49090,1,0,0:0:0:50:Ride.wav
320,192,49454,128,2,49818:0:0:0:0:
448,192,49454,1,0,0:0:0:50:Bell.wav
64,192,49818,128,10,50181:0:0:0:0:
192,192,49818,1,0,0:0:0:50:Bell.wav
448,192,50181,1,2,0:0:0:0:
192,192,50303,1,0,0:0:0:40:Tom2.wav
320,192,50424,1,0,0:0:0:40:Tom3.wav
64,192,50545,1,10,0:0:0:0:
448,192,50545,1,0,0:0:0:50:Bell.wav
320,192,50787,1,0,0:0:0:40:Tom3.wav
64,192,50909,1,2,0:0:0:0:
192,192,50909,128,0,51272:0:0:0:50:Bell.wav
320,192,51272,1,10,0:0:0:0:
448,192,51272,128,0,51636:0:0:0:50:Bell.wav
64,192,51636,1,2,0:0:0:0:
320,192,51757,1,0,0:0:0:40:Tom2.wav
192,192,51878,1,0,0:0:0:40:Tom3.wav
64,192,52000,1,10,0:0:0:0:
448,192,52000,1,0,0:0:0:50:Bell.wav
320,192,52242,1,0,0:0:0:40:Tom3.wav
64,192,52363,1,4,0:0:0:0:
192,192,52363,128,2,52606:0:0:0:0:
448,192,52606,1,2,0:0:0:0:
64,192,52727,1,8,0:0:0:0:
192,192,52969,1,2,0:0:0:0:
320,192,52969,128,4,53333:0:0:0:0:
64,192,53333,1,2,0:0:0:0:
448,192,53454,1,8,0:0:0:0:
64,192,53818,128,4,54060:0:0:0:0:
192,192,53818,1,2,0:0:0:0:
320,192,54060,1,2,0:0:0:0:
192,192,54181,1,8,0:0:0:0:
320,192,54424,1,2,0:0:0:0:
448,192,54424,128,4,54787:0:0:0:0:
64,192,54787,1,2,0:0:0:0:
192,192,54909,1,8,0:0:0:0:
320,192,55030,1,8,0:0:0:0:
192,192,55151,1,8,0:0:0:0:
64,192,55272,1,10,0:0:0:0:
448,192,55272,1,0,0:0:0:60:Hat Open.wav
320,192,55636,1,8,0:0:0:0:
192,192,55757,1,8,0:0:0:0:
320,192,55878,1,8,0:0:0:0:
64,192,56000,1,10,0:0:0:0:
448,192,56000,1,0,0:0:0:60:Hat Open.wav
448,192,56363,1,0,0:0:0:40:Tom2.wav
320,192,56484,1,0,0:0:0:40:Tom2.wav
64,192,56606,1,0,0:0:0:40:Tom3.wav
192,192,56727,1,0,0:0:0:40:Tom3.wav
320,192,56969,1,2,0:0:0:0:
64,192,57090,1,8,0:0:0:0:
448,192,57090,1,0,0:0:0:0:
192,192,57333,1,2,0:0:0:0:
320,192,57454,1,8,0:0:0:0:
448,192,57454,1,0,0:0:0:0:
192,192,57575,1,8,0:0:0:0:
64,192,57696,1,8,0:0:0:0:
448,192,57818,1,8,0:0:0:0:
320,192,57939,1,8,0:0:0:0:
192,192,58060,1,8,0:0:0:0:
64,192,58181,128,0,58545:0:0:0:50:Bell.wav
448,192,58545,128,0,58909:0:0:0:50:Bell.wav
192,192,58909,128,0,59272:0:0:0:50:Bell.wav
320,192,59272,128,0,59636:0:0:0:50:Bell.wav
64,192,59636,1,6,0:0:0:0:
448,192,59636,1,0,0:0:0:50:Bell.wav
192,192,59878,1,0,0:0:0:0:
320,192,60000,1,10,0:0:0:0:
448,192,60000,1,0,0:0:0:60:Hat Open.wav
64,192,60242,1,0,0:0:0:0:
192,192,60363,1,2,0:0:0:0:
448,192,60606,1,0,0:0:0:0:
64,192,60727,1,10,0:0:0:0:
320,192,60727,1,0,0:0:0:60:Hat Open.wav
192,192,60969,1,0,0:0:0:0:
448,192,61090,128,2,61454:0:0:0:0:
64,192,61454,128,10,61818:0:0:0:0:
192,192,61454,1,0,0:0:0:60:Hat Open.wav
320,192,61818,128,2,62181:0:0:0:0:
192,192,62181,128,10,62545:0:0:0:0:
448,192,62181,1,0,0:0:0:60:Hat Open.wav
448,192,62545,128,2,64000:0:0:0:0:
64,192,62909,1,10,0:0:0:0:
192,192,62909,1,0,0:0:0:60:Hat Open.wav
320,192,63272,1,2,0:0:0:0:
64,192,63515,1,0,0:0:0:0:
192,192,63636,1,10,0:0:0:0:
320,192,63636,1,0,0:0:0:60:Hat Open.wav
64,192,64000,1,2,0:0:0:0:
320,192,64242,1,0,0:0:0:0:
192,192,64363,1,10,0:0:0:0:
448,192,64363,1,0,0:0:0:60:Hat Open.wav
320,192,64606,1,0,0:0:0:0:
64,192,64727,1,2,0:0:0:0:
192,192,64969,1,0,0:0:0:0:
320,192,65090,1,10,0:0:0:0:
448,192,65090,1,0,0:0:0:60:Hat Open.wav
64,192,65454,1,6,0:0:0:0:
448,192,65454,1,0,0:0:0:50:Bell.wav
320,192,65696,1,0,0:0:0:0:
64,192,65818,1,10,0:0:0:0:
192,192,65818,1,0,0:0:0:60:Hat Open.wav
448,192,66060,1,0,0:0:0:0:
192,192,66181,1,2,0:0:0:0:
64,192,66424,1,0,0:0:0:0:
320,192,66545,1,10,0:0:0:0:
448,192,66545,1,0,0:0:0:60:Hat Open.wav
320,192,66787,1,0,0:0:0:0:
192,192,66909,128,2,67272:0:0:0:0:
64,192,67272,128,10,67636:0:0:0:0:
448,192,67272,1,0,0:0:0:60:Hat Open.wav
320,192,67636,128,2,68000:0:0:0:0:
64,192,68000,1,10,0:0:0:0:
448,192,68000,128,0,68363:0:0:0:60:Hat Open.wav
192,192,68363,128,2,69818:0:0:0:0:
64,192,68727,1,10,0:0:0:0:
320,192,68727,1,0,0:0:0:60:Hat Open.wav
448,192,69090,1,2,0:0:0:0:
320,192,69333,1,0,0:0:0:0:
64,192,69454,1,10,0:0:0:0:
448,192,69454,1,0,0:0:0:60:Hat Open.wav
320,192,69818,1,2,0:0:0:0:
64,192,70060,1,2,0:0:0:0:
192,192,70181,1,8,0:0:0:0:
448,192,70181,1,0,0:0:0:60:Hat Open.wav
320,192,70424,1,2,0:0:0:0:
192,192,70545,1,8,0:0:0:0:
448,192,70545,1,0,0:0:0:50:Bell.wav
64,192,70666,1,8,0:0:0:0:
320,192,70787,1,2,0:0:0:0:
192,192,70909,1,0,0:0:0:50:Bell.wav
448,192,71030,1,0,0:0:0:40:Tom2.wav
320,192,71151,1,0,0:0:0:40:Tom3.wav
64,192,71272,1,6,0:0:0:0:
192,192,71272,1,0,0:0:0:50:Bell.wav
320,192,71636,128,14,72000:0:0:0:0:
448,192,71636,128,0,72000:0:0:0:50:Bell.wav
64,192,72000,1,2,0:0:0:0:
192,192,72242,1,2,0:0:0:0:
320,192,72363,1,8,0:0:0:0:
448,192,72363,1,0,0:0:0:50:Bell.wav
448,192,72606,1,0,0:0:0:0:
192,192,72727,1,2,0:0:0:0:
320,192,72969,1,0,0:0:0:0:
64,192,73090,1,8,0:0:0:0:
448,192,73090,1,0,0:0:0:50:Bell.wav
192,192,73333,1,0,0:0:0:0:
320,192,73454,1,2,0:0:0:0:
64,192,73696,1,2,0:0:0:0:
448,192,73818,1,8,0:0:0:0:
320,192,73939,1,8,0:0:0:0:
192,192,74060,1,8,0:0:0:0:
448,192,74181,1,2,0:0:0:0:
64,192,74303,1,0,0:0:0:40:Tom2.wav
320,192,74424,1,0,0:0:0:40:Tom3.wav
64,192,74545,1,12,0:0:0:0:
192,192,74545,1,0,0:0:0:50:Bell.wav
320,192,74909,1,2,0:0:0:0:
192,192,75151,1,2,0:0:0:0:
64,192,75272,1,8,0:0:0:0:
448,192,75272,1,0,0:0:0:50:Bell.wav
320,192,75515,1,0,0:0:0:0:
192,192,75636,1,2,0:0:0:0:
448,192,75878,1,2,0:0:0:0:
64,192,76000,1,8,0:0:0:0:
320,192,76000,1,0,0:0:0:50:Bell.wav
192,192,76242,1,2,0:0:0:0:
448,192,76363,1,0,0:0:0:50:Bell.wav
320,192,76484,1,0,0:0:0:30:Ride.wav
64,192,76606,1,2,0:0:0:0:
192,192,76727,1,8,0:0:0:0:
448,192,76727,1,0,0:0:0:60:Hat Open.wav
320,192,76848,1,0,0:0:0:40:Tom2.wav
192,192,76969,1,0,0:0:0:40:Tom2.wav
64,192,77090,1,6,0:0:0:0:
448,192,77090,1,0,0:0:0:50:Bell.wav
320,192,77333,1,8,0:0:0:0:
192,192,77454,1,8,0:0:0:0:
448,192,77575,1,8,0:0:0:0:
320,192,77696,1,8,0:0:0:0:
64,192,77818,1,6,0:0:0:0:
192,192,77818,1,0,0:0:0:50:Bell.wav
448,192,78060,1,8,0:0:0:0:
320,192,78181,1,8,0:0:0:0:
64,192,78303,1,8,0:0:0:0:
192,192,78424,1,8,0:0:0:0:
320,192,78545,1,6,0:0:0:0:
448,192,78545,1,0,0:0:0:50:Bell.wav
192,192,78787,1,8,0:0:0:0:
64,192,78909,1,8,0:0:0:0:
320,192,79030,1,8,0:0:0:0:
192,192,79151,1,8,0:0:0:0:
320,192,79272,1,6,0:0:0:0:
448,192,79272,1,0,0:0:0:50:Bell.wav
64,192,79515,1,8,0:0:0:0:
192,192,79636,1,8,0:0:0:0:
448,192,79757,1,8,0:0:0:0:
320,192,79878,1,8,0:0:0:0:
64,192,80000,1,6,0:0:0:0:
192,192,80000,1,0,0:0:0:50:Bell.wav
448,192,80363,128,0,80727:0:0:0:50:Bell.wav
320,192,80727,128,0,81090:0:0:0:50:Bell.wav
192,192,81090,128,0,81454:0:0:0:50:Bell.wav
64,192,81454,1,2,0:0:0:0:
448,192,81696,1,2,0:0:0:0:
192,192,81818,1,8,0:0:0:0:
320,192,81818,1,0,0:0:0:50:Bell.wav
64,192,82060,1,2,0:0:0:0:
320,192,82181,1,0,0:0:0:50:Bell.wav
448,192,82303,1,0,0:0:0:50:Tom2.wav
192,192,82424,1,0,0:0:0:50:Tom2.wav
320,192,82545,1,0,0:0:0:50:Bell.wav
64,192,82666,1,0,0:0:0:50:Tom3.wav
192,192,82787,1,0,0:0:0:50:Tom3.wav
320,192,82909,1,6,0:0:0:0:
448,192,82909,1,0,0:0:0:50:Bell.wav
192,192,83151,1,2,0:0:0:0:
64,192,83272,1,8,0:0:0:0:
448,192,83272,1,0,0:0:0:50:Bell.wav
320,192,83515,1,2,0:0:0:0:
192,192,83636,1,0,0:0:0:50:Bell.wav
448,192,83878,1,2,0:0:0:0:
64,192,84000,1,8,0:0:0:0:
320,192,84000,1,0,0:0:0:50:Bell.wav
192,192,84242,1,2,0:0:0:0:
448,192,84363,1,2,0:0:0:0:
64,192,84606,1,2,0:0:0:0:
192,192,84727,1,8,0:0:0:0:
320,192,84727,1,0,0:0:0:50:Bell.wav
448,192,84969,1,2,0:0:0:0:
64,192,85090,1,0,0:0:0:50:Bell.wav
320,192,85333,1,2,0:0:0:0:
192,192,85454,1,8,0:0:0:0:
64,192,85696,1,0,0:0:0:50:Ride.wav
320,192,85818,1,6,0:0:0:0:
448,192,85818,1,0,0:0:0:50:Bell.wav
192,192,86060,1,2,0:0:0:0:
64,192,86181,1,8,0:0:0:0:
448,192,86181,1,0,0:0:0:50:Bell.wav
320,192,86424,1,2,0:0:0:0:
192,192,86545,1,0,0:0:0:50:Bell.wav
448,192,86787,1,2,0:0:0:0:
64,192,86909,1,8,0:0:0:0:
320,192,86909,1,0,0:0:0:50:Bell.wav
192,192,87151,1,2,0:0:0:0:
448,192,87272,1,2,0:0:0:0:
64,192,87515,1,2,0:0:0:0:
192,192,87636,1,8,0:0:0:0:
320,192,87636,1,0,0:0:0:50:Bell.wav
448,192,87878,1,2,0:0:0:0:
64,192,88000,1,0,0:0:0:50:Bell.wav
320,192,88242,1,2,0:0:0:0:
64,192,88363,1,8,0:0:0:0:
192,192,88363,1,0,0:0:0:50:Bell.wav
448,192,88606,1,0,0:0:0:50:Ride.wav
192,192,88727,1,4,0:0:0:0:
320,192,88727,1,2,0:0:0:0:
64,192,88969,1,2,0:0:0:0:
320,192,89090,1,8,0:0:0:0:
448,192,89090,1,0,0:0:0:0:
192,192,89333,1,2,0:0:0:0:
448,192,89454,1,0,0:0:0:50:Ride.wav
320,192,89696,1,2,0:0:0:0:
64,192,89818,1,8,0:0:0:0:
192,192,89818,1,0,0:0:0:0:
448,192,90060,1,2,0:0:0:0:
64,192,90181,1,2,0:0:0:0:
192,192,90424,1,2,0:0:0:0:
320,192,90545,1,8,0:0:0:0:
448,192,90545,1,0,0:0:0:0:
64,192,90787,1,2,0:0:0:0:
320,192,90909,1,0,0:0:0:50:Ride.wav
448,192,91151,1,2,0:0:0:0:
64,192,91272,1,8,0:0:0:0:
192,192,91272,1,0,0:0:0:0:
320,192,91515,1,0,0:0:0:50:Ride.wav
192,192,91636,1,2,0:0:0:0:
448,192,91878,1,2,0:0:0:0:
64,192,92000,1,8,0:0:0:0:
320,192,92000,1,0,0:0:0:0:
192,192,92242,1,2,0:0:0:0:
448,192,92363,1,0,0:0:0:50:Ride.wav
320,192,92606,1,2,0:0:0:0:
64,192,92727,1,8,0:0:0:0:
448,192,92727,1,0,0:0:0:0:
192,192,92969,1,2,0:0:0:0:
64,192,93090,1,8,0:0:0:0:
320,192,93090,1,0,0:0:0:0:
448,192,93333,1,2,0:0:0:0:
192,192,93454,1,8,0:0:0:0:
320,192,93454,1,4,0:0:0:0:
64,192,93696,1,2,0:0:0:0:
448,192,93818,1,8,0:0:0:0:
192,192,93939,1,8,0:0:0:0:
320,192,94060,1,8,0:0:0:0:
64,192,94181,1,2,0:0:0:0:
448,192,94303,1,0,0:0:0:50:Tom2.wav
192,192,94424,1,2,0:0:0:0:
320,192,94545,128,6,94787:0:0:0:0:
448,192,94545,1,0,0:0:0:50:Bell.wav
64,192,94787,1,8,0:0:0:0:
192,192,94909,1,8,0:0:0:0:
448,192,95151,128,2,95515:0:0:0:0:
192,192,95515,1,8,0:0:0:0:
320,192,95636,1,8,0:0:0:0:
64,192,95878,1,8,0:0:0:0:
192,192,96000,128,6,96242:0:0:0:0:
320,192,96000,1,0,0:0:0:50:Bell.wav
448,192,96242,1,0,0:0:0:40:Tom1.wav
320,192,96363,1,0,0:0:0:50:Bell.wav
64,192,96606,128,2,96969:0:0:0:0:
192,192,96606,1,4,0:0:0:0:
320,192,96969,1,8,0:0:0:0:
192,192,97090,1,8,0:0:0:0:
448,192,97333,1,8,0:0:0:0:
64,192,97454,1,6,0:0:0:0:
320,192,97454,1,0,0:0:0:50:Bell.wav
192,192,97818,1,2,0:0:0:0:
320,192,97939,1,8,0:0:0:0:
448,192,98060,1,8,0:0:0:0:
64,192,98181,1,2,0:0:0:0:
192,192,98303,1,8,0:0:0:0:
320,192,98424,1,8,0:0:0:0:
64,192,98545,1,2,0:0:0:0:
448,192,98666,1,8,0:0:0:0:
192,192,98787,1,8,0:0:0:0:
320,192,98909,1,10,0:0:0:0:
64,192,99151,1,8,0:0:0:0:
448,192,99272,1,2,0:0:0:0:
192,192,99393,1,8,0:0:0:0:
320,192,99515,1,8,0:0:0:0:
64,192,99636,1,2,0:0:0:0:
192,192,99757,1,8,0:0:0:0:
448,192,99878,1,8,0:0:0:0:
64,192,100000,1,6,0:0:0:0:
320,192,100000,128,0,100727:0:0:0:50:Bell.wav
