osu file format v14

[General]
AudioFilename: audio.mp3
AudioLeadIn: 0
PreviewTime: 61422
Countdown: 1
SampleSet: Soft
StackLeniency: 0.7
Mode: 0
LetterboxInBreaks: 0
WidescreenStoryboard: 0

[Editor]
DistanceSpacing: 1.1
BeatDivisor: 4
GridSize: 8
TimelineZoom: 1.6

[Metadata]
Title:High Five Adventure
TitleUnicode:ハイファイブ∞あどべんちゃっ
Artist:Hello, Happy World!
ArtistUnicode:ハロー、ハッピーワールド!
Creator:iamgoner
Version:Fleeting
Source:バンドリ!ガールズバンドパーティ!
Tags:
BeatmapID:1728664
BeatmapSetID:824928

[Difficulty]
HPDrainRate:6
CircleSize:4
OverallDifficulty:8
ApproachRate:9.3
SliderMultiplier:1.6
SliderTickRate:1

[Events]
//Background and Video events
0,0,"963Kanon-Matsubara-Pure-Nm0pnS.png",0,0
//Break Periods
//Storyboard Layer 0 (Background)
//Storyboard Layer 1 (Fail)
//Storyboard Layer 2 (Pass)
//Storyboard Layer 3 (Foreground)
//Storyboard Sound Samples

[TimingPoints]
2407,303.030303030303,4,2,1,60,1,0
21649,-200,4,2,1,60,0,0
23013,-100,4,2,1,60,0,0
61649,-83.3333333333333,4,2,1,60,0,1
71270,-83.3333333333333,4,2,1,60,0,0
71346,-83.3333333333333,4,2,1,60,0,1
81194,-100,4,2,1,60,0,0
81346,-100,4,2,1,10,0,0
81497,-100,4,2,1,60,0,0
81649,-100,4,2,1,10,0,0
81800,-100,4,2,1,60,0,0
81952,-100,4,2,1,10,0,0
82103,-100,4,2,1,60,0,0
82255,-100,4,2,1,10,0,0
82407,-100,4,2,1,60,0,0
83770,-100,4,2,1,10,0,0
83922,-100,4,2,1,60,0,0
84073,-100,4,2,1,10,0,0
84225,-100,4,2,1,60,0,0
84376,-100,4,2,1,10,0,0
84528,-100,4,2,1,60,0,0
84679,-100,4,2,1,10,0,0
84831,-100,4,2,1,60,0,0
84982,-100,4,2,1,10,0,0
85134,-100,4,2,1,60,0,0
85285,-100,4,2,1,10,0,0
85437,-100,4,2,1,60,0,0
86270,-100,4,2,1,10,0,0
86346,-100,4,2,1,60,0,0
86497,-100,4,2,1,10,0,0
86649,-100,4,2,1,60,0,0
86800,-100,4,2,1,10,0,0
86952,-100,4,2,1,60,0,0
87103,-100,4,2,1,10,0,0
87255,-100,4,2,1,60,0,0
87407,-100,4,2,1,10,0,0
87558,-100,4,2,1,60,0,0

[Colours]
Combo1 : 128,128,192
Combo2 : 255,255,128
Combo3 : 255,128,255
Combo4 : 128,255,255
Combo5 : 255,128,0

[HitObjects]
136,248,2255,6,0,L|120:72,1,160,4|0,0:0|0:0,0:0:0:0:
16,24,2710,1,0,0:0:0:0:
304,56,2861,2,0,L|296:144,1,80
296,135,3088,1,0,0:0:0:0:
296,135,3164,1,0,0:0:0:0:
136,248,3316,1,0,0:0:0:0:
56,128,3467,5,8,0:0:0:0:
384,272,3770,1,8,0:0:0:0:
448,192,3922,6,0,L|456:112,1,80,0|2,0:0|0:0,0:0:0:0:
320,24,4225,2,0,L|328:104,1,80,8|2,0:0|0:0,0:0:0:0:
344,224,4528,1,8,0:0:0:0:
56,112,4679,6,0,L|224:96,1,160,4|0,0:0|0:0,0:0:0:0:
376,24,5134,1,0,0:0:0:0:
288,176,5285,2,0,L|280:264,1,80
280,255,5513,1,0,0:0:0:0:
280,255,5588,1,0,0:0:0:0:
192,320,5740,1,0,0:0:0:0:
416,272,5891,5,8,0:0:0:0:
80,64,6194,1,8,0:0:0:0:
232,32,6346,6,0,P|296:40|320:32,1,80,0|2,0:0|0:0,0:0:0:0:
432,120,6649,2,0,L|424:160,1,40,8|0,0:0|0:0,0:0:0:0:
424,159,6800,1,2,0:0:0:0:
208,104,6952,2,0,L|200:64,1,40,8|0,0:0|0:0,0:0:0:0:
176,40,7103,6,0,L|168:208,1,160,4|0,0:0|0:0,0:0:0:0:
80,304,7558,1,0,0:0:0:0:
288,176,7710,2,0,L|384:168,1,80
367,169,7937,1,0,0:0:0:0:
367,169,8013,1,0,0:0:0:0:
432,88,8164,1,0,0:0:0:0:
264,32,8316,5,8,0:0:0:0:
224,336,8619,1,8,0:0:0:0:
376,272,8770,6,0,B|420:264|420:264|464:272,1,80,0|2,0:0|0:0,0:0:0:0:
424,352,9073,1,8,0:0:0:0:
304,104,9225,2,0,L|264:88,1,40,2|0,0:0|0:0,0:0:0:0:
266,89,9376,1,8,0:0:0:0:
120,32,9528,6,0,L|88:224,1,160,4|0,0:0|0:0,0:0:0:0:
16,288,9982,1,0,0:0:0:0:
216,136,10134,1,0,0:0:0:0:
93,57,10285,1,0,0:0:0:0:
104,181,10437,5,0,0:0:0:0:
112,208,10513,1,0,0:0:0:0:
128,232,10588,1,0,0:0:0:0:
152,248,10664,1,0,0:0:0:0:
184,256,10740,1,4,0:0:0:0:
232,128,10891,1,2,0:0:0:0:
208,304,11043,5,4,0:0:0:0:
280,104,11194,1,2,0:0:0:0:
232,352,11346,5,4,0:0:0:0:
328,80,11497,1,2,0:0:0:0:
280,328,11649,5,4,0:0:0:0:
232,72,11800,1,2,0:0:0:0:
24,320,11952,6,0,L|192:304,1,160,4|2,0:0|0:0,0:0:0:0:
392,216,12407,1,8,0:0:0:0:
336,368,12558,1,0,0:0:0:0:
216,200,12710,6,0,L|200:112,1,80,2|2,0:0|0:0,0:0:0:0:
176,32,13013,1,8,0:0:0:0:
136,224,13164,6,0,P|200:284|272:268,1,160,2|2,0:0|0:0,0:0:0:0:
416,96,13619,1,8,0:0:0:0:
304,32,13770,1,0,0:0:0:0:
312,280,13922,1,2,0:0:0:0:
416,216,14073,1,2,0:0:0:0:
192,88,14225,5,8,0:0:0:0:
192,88,14300,1,0,0:0:0:0:
192,88,14376,2,0,L|176:256,1,160,2|2,0:0|0:0,0:0:0:0:
64,304,14831,1,8,0:0:0:0:
24,168,14982,1,0,0:0:0:0:
216,224,15134,2,0,L|295:230,1,80,2|2,0:0|0:0,0:0:0:0:
384,296,15437,1,8,0:0:0:0:
448,88,15588,6,0,L|272:72,1,160,2|2,0:0|0:0,0:0:0:0:
160,128,16043,1,8,0:0:0:0:
344,48,16194,1,0,0:0:0:0:
368,192,16346,2,0,L|352:272,1,80,2|2,0:0|0:0,0:0:0:0:
176,296,16649,2,0,L|128:312,1,40,8|0,0:0|0:0,0:0:0:0:
112,336,16800,6,0,L|96:160,1,160,4|2,0:0|0:0,0:0:0:0:
24,72,17255,1,8,0:0:0:0:
224,112,17407,2,0,L|216:192,1,80,0|2,0:0|0:0,0:0:0:0:
406,320,17710,1,2,0:0:0:0:
208,232,17861,1,8,0:0:0:0:
440,144,18013,6,0,P|360:104|288:152,1,160,2|2,0:0|0:0,0:0:0:0:
368,192,18467,1,8,0:0:0:0:
296,72,18619,2,0,L|216:64,1,80,0|2,0:0|0:0,0:0:0:0:
120,136,18922,1,2,0:0:0:0:
48,40,19073,1,8,0:0:0:0:
40,272,19225,6,0,B|88:296|88:296|208:256,1,160,2|2,0:0|0:0,0:0:0:0:
312,312,19679,1,8,0:0:0:0:
200,168,19831,2,0,L|116:196,1,80,0|2,0:0|0:0,0:0:0:0:
112,72,20134,5,2,0:0:0:0:
451,132,20285,1,8,0:0:0:0:
400,64,20437,5,8,0:0:0:0:
96,48,20740,1,8,0:0:0:0:
78,290,21043,1,8,0:0:0:0:
386,317,21346,1,8,0:0:0:0:
200,120,21649,6,0,P|200:48|144:152,1,360
144,152,23619,5,2,0:0:0:0:
360,168,23770,1,8,0:0:0:0:
112,200,23922,1,2,0:0:0:0:
408,88,24073,2,0,L|488:80,1,80,4|0,0:0|0:0,0:0:0:0:
487,80,24528,6,0,L|471:160,1,80,8|0,0:0|0:0,0:0:0:0:
376,288,24831,2,0,L|360:209,1,80,2|0,0:0|0:0,0:0:0:0:
480,248,25134,1,8,0:0:0:0:
320,80,25285,1,0,0:0:0:0:
320,80,25437,6,0,P|272:72|232:80,1,80,2|0,0:0|0:0,0:0:0:0:
144,192,25740,2,0,P|192:200|232:192,1,80,8|0,0:0|0:0,0:0:0:0:
304,288,26043,1,2,0:0:0:0:
424,168,26194,1,2,0:0:0:0:
168,64,26346,1,8,0:0:0:0:
56,208,26497,6,0,L|72:296,1,80,2|0,0:0|0:0,0:0:0:0:
70,286,26800,1,2,0:0:0:0:
232,336,26952,1,8,0:0:0:0:
232,336,27255,6,0,L|320:328,1,80,2|0,0:0|0:0,0:0:0:0:
392,240,27558,1,8,0:0:0:0:
272,136,27710,1,0,0:0:0:0:
176,96,27861,2,0,P|168:160|176:184,1,80,2|0,0:0|0:0,0:0:0:0:
272,136,28164,1,8,0:0:0:0:
272,136,28467,6,0,B|312:144|312:144|360:136,1,80,2|2,0:0|0:0,0:0:0:0:
440,56,28770,1,8,0:0:0:0:
376,160,28922,2,0,L|368:320,1,160,2|2,0:0|0:0,0:0:0:0:
464,256,29376,1,8,0:0:0:0:
264,320,29679,2,0,L|176:328,1,80,2|2,0:0|0:0,0:0:0:0:
184,327,29906,1,0,0:0:0:0:
184,327,29982,1,8,0:0:0:0:
80,224,30134,5,8,0:0:0:0:
32,40,30437,1,8,0:0:0:0:
304,240,30740,1,8,0:0:0:0:
304,240,31043,5,2,0:0:0:0:
112,40,31194,1,8,0:0:0:0:
264,80,31346,6,0,L|360:64,1,80,4|0,0:0|0:0,0:0:0:0:
496,152,31649,2,0,L|400:168,1,80,0|8,0:0|0:0,0:0:0:0:
296,184,31952,1,0,0:0:0:0:
264,80,32103,1,2,0:0:0:0:
424,216,32255,1,0,0:0:0:0:
296,288,32406,2,0,L|216:296,1,80,8|0,0:0|0:0,0:0:0:0:
64,216,32710,6,0,P|56:176|72:112,1,80,2|0,0:0|0:0,0:0:0:0:
184,64,33013,2,0,P|192:104|176:168,1,80,8|0,0:0|0:0,0:0:0:0:
61,137,33316,1,2,0:0:0:0:
280,216,33467,1,0,0:0:0:0:
360,64,33619,6,0,L|400:56,1,40,8|0,0:0|0:0,0:0:0:0:
432,32,33770,2,0,L|424:208,1,160
464,304,34225,1,8,0:0:0:0:
392,136,34376,2,0,L|304:128,1,80,0|2,0:0|0:0,0:0:0:0:
232,40,34679,1,0,0:0:0:0:
280,288,34831,1,8,0:0:0:0:
64,160,34982,6,0,L|152:152,1,80,0|2,0:0|0:0,0:0:0:0:
304,232,35285,2,0,L|216:224,1,80,0|8,0:0|0:0,0:0:0:0:
224,224,35740,5,2,0:0:0:0:
64,160,35891,1,0,0:0:0:0:
328,48,36043,1,8,0:0:0:0:
472,200,36194,6,0,P|432:256|328:232,1,160
392,176,36649,1,8,0:0:0:0:
392,176,36952,6,0,L|400:96,1,80,2|0,0:0|0:0,0:0:0:0:
464,32,37255,1,8,0:0:0:0:
200,56,37407,6,0,L|216:216,1,160
215,215,37861,1,8,0:0:0:0:
215,215,38164,5,2,0:0:0:0:
112,168,38316,1,0,0:0:0:0:
296,72,38467,1,8,0:0:0:0:
296,72,38619,6,0,P|336:128|432:112,1,160
376,48,39073,1,8,0:0:0:0:
424,264,39225,1,0,0:0:0:0:
320,208,39376,2,0,L|224:200,1,80,2|0,0:0|0:0,0:0:0:0:
240,201,39679,1,8,0:0:0:0:
152,80,39831,5,4,0:0:0:0:
32,232,40134,1,0,0:0:0:0:
440,128,40437,1,0,0:0:0:0:
443,223,40588,5,2,0:0:0:0:
403,217,40663,1,0,0:0:0:0:
370,195,40739,1,8,0:0:0:0:
348,162,40815,1,8,0:0:0:0:
342,123,40891,1,8,0:0:0:0:
352,84,40966,1,8,0:0:0:0:
377,53,41042,1,8,0:0:0:0:
412,35,41118,1,0,0:0:0:0:
452,33,41194,1,2,0:0:0:0:
452,33,41497,5,4,0:0:0:0:
112,48,41649,1,0,0:0:0:0:
184,152,41800,1,0,0:0:0:0:
24,256,41952,1,0,0:0:0:0:
24,256,42255,6,0,L|192:272,1,160,8|2,0:0|0:0,0:0:0:0:
400,176,42710,2,0,L|232:192,1,160,8|2,0:0|0:0,0:0:0:0:
240,191,43164,1,2,0:0:0:0:
72,72,43316,1,8,0:0:0:0:
72,72,43619,6,0,L|64:240,1,160,2|8,0:0|0:0,0:0:0:0:
232,328,44073,2,0,L|224:168,1,160,0|2,0:0|0:0,0:0:0:0:
360,64,44528,1,0,0:0:0:0:
360,64,44679,6,0,P|408:136|344:184,1,160,8|2,0:0|0:0,0:0:0:0:
208,120,45134,5,8,0:0:0:0:
80,240,45285,1,0,0:0:0:0:
304,176,45437,1,2,0:0:0:0:
80,72,45588,1,2,0:0:0:0:
232,312,45740,1,8,0:0:0:0:
208,40,45891,1,0,0:0:0:0:
208,40,46346,5,8,0:0:0:0:
440,80,46497,1,0,0:0:0:0:
440,80,46800,1,2,0:0:0:0:
440,80,47103,6,0,L|456:272,1,160,8|2,0:0|0:0,0:0:0:0:
320,336,47558,2,0,L|333:176,1,160,8|2,0:0|0:0,0:0:0:0:
416,264,48013,1,2,0:0:0:0:
176,96,48164,1,8,0:0:0:0:
64,208,48467,6,0,L|232:216,1,160,2|8,0:0|0:0,0:0:0:0:
432,288,48922,2,0,L|264:296,1,160,0|2,0:0|0:0,0:0:0:0:
0,160,49528,6,0,P|56:128|136:168,1,160,8|2,0:0|0:0,0:0:0:0:
64,208,49982,5,8,0:0:0:0:
288,128,50134,1,0,0:0:0:0:
88,272,50285,1,8,0:0:0:0:
176,64,50437,1,8,0:0:0:0:
264,280,50588,1,8,0:0:0:0:
32,88,50740,1,8,0:0:0:0:
344,56,50891,1,4,0:0:0:0:
344,56,51194,5,8,0:0:0:0:
448,280,51346,1,0,0:0:0:0:
448,280,51649,1,2,0:0:0:0:
312,216,51952,6,0,P|288:144|304:64,1,160,2|2,0:0|0:0,0:0:0:0:
160,192,52406,2,0,P|176:269|152:344,1,160,8|2,0:0|0:0,0:0:0:0:
72,264,52861,1,2,0:0:0:0:
312,216,53013,1,8,0:0:0:0:
392,136,53316,6,0,B|336:120|336:120|232:144,1,160,2|8,0:0|0:0,0:0:0:0:
120,264,53770,2,0,B|176:280|176:280|280:256,1,160,0|2,0:0|0:0,0:0:0:0:
384,224,54225,1,8,0:0:0:0:
224,120,54376,1,2,0:0:0:0:
136,240,54528,1,0,0:0:0:0:
360,96,54679,5,2,0:0:0:0:
360,96,54755,1,0,0:0:0:0:
360,96,54831,2,0,L|456:88,1,80,8|0,0:0|0:0,0:0:0:0:
472,216,55134,2,0,L|376:208,1,80,2|8,0:0|0:0,0:0:0:0:
360,208,55361,1,8,0:0:0:0:
336,224,55437,1,8,0:0:0:0:
320,248,55513,1,8,0:0:0:0:
312,280,55588,1,8,0:0:0:0:
360,344,55740,5,12,0:0:0:0:
144,128,55891,1,0,0:0:0:0:
160,288,56043,1,2,0:0:0:0:
336,80,56194,2,0,L|432:72,1,80,12|0,0:0|0:0,0:0:0:0:
472,192,56497,2,0,L|376:184,1,80,2|12,0:0|0:0,0:0:0:0:
272,160,56800,5,2,0:0:0:0:
104,72,56952,1,12,0:0:0:0:
296,224,57103,1,0,0:0:0:0:
248,40,57255,1,2,0:0:0:0:
80,208,57406,2,0,L|72:296,1,80,12|0,0:0|0:0,0:0:0:0:
200,264,57710,5,2,0:0:0:0:
432,152,57861,1,12,0:0:0:0:
320,48,58013,5,2,0:0:0:0:
320,48,58088,1,0,0:0:0:0:
320,48,58164,2,0,L|336:136,1,80,12|0,0:0|0:0,0:0:0:0:
368,256,58467,1,2,0:0:0:0:
120,128,58619,1,12,0:0:0:0:
216,320,58770,1,0,0:0:0:0:
184,72,58922,2,0,P|136:48|96:48,1,80,2|12,0:0|0:0,0:0:0:0:
120,128,59225,1,2,0:0:0:0:
264,184,59376,6,0,L|424:168,1,160,12|2,0:0|0:0,0:0:0:0:
472,80,59831,1,12,0:0:0:0:
272,96,59982,2,0,L|256:264,1,160,0|12,0:0|0:0,0:0:0:0:
256,255,60437,5,2,0:0:0:0:
72,64,61194,1,2,0:0:0:0:
72,96,61270,1,0,0:0:0:0:
72,128,61346,1,8,0:0:0:0:
72,160,61422,1,0,0:0:0:0:
72,192,61497,1,2,0:0:0:0:
72,224,61573,1,0,0:0:0:0:
72,256,61649,6,0,L|231:262,1,143.999995605469,4|0,0:0|0:0,0:0:0:0:
272,216,61952,2,0,L|280:112,1,95.9999970703126,2|8,0:0|0:0,0:0:0:0:
224,24,62255,1,0,0:0:0:0:
408,168,62406,1,2,0:0:0:0:
408,168,62482,1,0,0:0:0:0:
408,168,62558,2,0,L|400:272,1,95.9999970703126,2|8,0:0|0:0,0:0:0:0:
360,96,62861,6,0,P|440:88|472:112,1,95.9999970703126,2|0,0:0|0:0,0:0:0:0:
168,272,63164,2,0,P|88:280|56:256,1,95.9999970703126,2|8,0:0|0:0,0:0:0:0:
112,8,63467,2,0,L|120:216,1,191.999994140625,2|2,0:0|0:0,0:0:0:0:
232,72,63922,5,8,0:0:0:0:
232,72,63997,1,0,0:0:0:0:
232,72,64073,2,0,L|328:64,1,95.9999970703126,2|0,0:0|0:0,0:0:0:0:
448,24,64376,1,2,0:0:0:0:
352,200,64528,5,8,0:0:0:0:
432,48,64679,1,0,0:0:0:0:
472,304,64831,1,2,0:0:0:0:
232,232,64982,1,2,0:0:0:0:
424,160,65134,1,8,0:0:0:0:
176,124,65285,6,0,B|124:116|124:116|68:128,1,95.9999970703126,2|0,0:0|0:0,0:0:0:0:
336,260,65588,2,0,B|388:268|388:268|444:256,1,95.9999970703126,2|8,0:0|0:0,0:0:0:0:
128,232,65891,6,0,L|120:336,1,95.9999970703126,2|0,0:0|0:0,0:0:0:0:
384,152,66194,2,0,L|392:48,1,95.9999970703126,2|8,0:0|0:0,0:0:0:0:
144,56,66497,6,0,L|152:208,1,143.999995605469,6|0,0:0|0:0,0:0:0:0:
128,272,66800,1,2,0:0:0:0:
128,272,66876,1,0,0:0:0:0:
128,272,66952,2,0,P|64:280|32:272,1,95.9999970703126,8|0,0:0|0:0,0:0:0:0:
80,200,67255,1,2,0:0:0:0:
240,120,67407,1,2,0:0:0:0:
360,240,67558,2,0,L|368:296,1,47.9999985351563,8|0,0:0|0:0,0:0:0:0:
400,312,67710,6,0,L|416:120,1,191.999994140625,2|2,0:0|0:0,0:0:0:0:
415,120,68088,1,0,0:0:0:0:
415,120,68164,1,8,0:0:0:0:
488,232,68316,1,0,0:0:0:0:
296,72,68467,2,0,L|192:64,1,95.9999970703126,2|2,0:0|0:0,0:0:0:0:
80,56,68770,5,8,0:0:0:0:
136,216,68922,2,0,P|144:272|136:312,1,95.9999970703126,2|0,0:0|0:0,0:0:0:0:
64,264,69225,1,2,0:0:0:0:
264,136,69376,2,0,L|360:128,1,95.9999970703126,8|2,0:0|0:0,0:0:0:0:
448,64,69679,1,8,0:0:0:0:
448,64,69831,1,2,0:0:0:0:
448,64,69982,1,8,0:0:0:0:
320,320,70134,5,4,0:0:0:0:
120,240,70437,1,4,0:0:0:0:
416,128,70740,1,4,0:0:0:0:
64,32,71043,1,4,0:0:0:0:
64,32,71346,6,0,L|72:176,1,143.999995605469,4|0,0:0|0:0,0:0:0:0:
120,232,71649,2,0,P|168:240|216:232,1,95.9999970703126,2|8,0:0|0:0,0:0:0:0:
336,136,71952,1,0,0:0:0:0:
178,54,72103,1,2,0:0:0:0:
178,54,72179,1,0,0:0:0:0:
178,54,72255,2,0,L|170:158,1,95.9999970703126,2|8,0:0|0:0,0:0:0:0:
80,304,72558,6,0,L|184:296,1,95.9999970703126,2|0,0:0|0:0,0:0:0:0:
432,96,72861,2,0,L|328:104,1,95.9999970703126,2|8,0:0|0:0,0:0:0:0:
40,160,73164,6,0,L|232:168,1,191.999994140625,2|2,0:0|0:0,0:0:0:0:
392,312,73619,1,8,0:0:0:0:
392,312,73694,1,0,0:0:0:0:
392,312,73770,2,0,L|400:208,1,95.9999970703126,2|0,0:0|0:0,0:0:0:0:
456,128,74073,1,2,0:0:0:0:
224,112,74225,5,8,0:0:0:0:
320,176,74376,1,0,0:0:0:0:
88,200,74528,1,2,0:0:0:0:
168,24,74679,1,2,0:0:0:0:
312,248,74831,1,8,0:0:0:0:
184,296,74982,6,0,P|128:304|80:296,1,95.9999970703126,2|0,0:0|0:0,0:0:0:0:
328,88,75285,2,0,P|384:80|432:88,1,95.9999970703126,2|8,0:0|0:0,0:0:0:0:
136,216,75588,6,0,L|128:120,1,95.9999970703126,2|0,0:0|0:0,0:0:0:0:
376,168,75891,2,0,L|384:264,1,95.9999970703126,2|8,0:0|0:0,0:0:0:0:
168,312,76194,6,0,L|176:160,1,143.999995605469,6|0,0:0|0:0,0:0:0:0:
133,115,76497,1,2,0:0:0:0:
133,115,76573,1,0,0:0:0:0:
133,115,76649,2,0,P|80:106|29:122,1,95.9999970703126,8|0,0:0|0:0,0:0:0:0:
88,192,76952,1,2,0:0:0:0:
280,64,77103,1,2,0:0:0:0:
376,184,77255,2,0,L|424:192,1,47.9999985351563,8|0,0:0|0:0,0:0:0:0:
464,216,77407,6,0,L|272:232,1,191.999994140625,2|2,0:0|0:0,0:0:0:0:
272,231,77785,1,0,0:0:0:0:
272,231,77861,1,8,0:0:0:0:
392,328,78013,1,0,0:0:0:0:
376,192,78164,2,0,L|368:96,1,95.9999970703126,2|2,0:0|0:0,0:0:0:0:
456,32,78467,5,8,0:0:0:0:
168,144,78619,2,0,P|160:88|168:40,1,95.9999970703126,2|0,0:0|0:0,0:0:0:0:
240,96,78922,1,2,0:0:0:0:
272,272,79073,2,0,L|160:288,1,95.9999970703126,8|0,0:0|0:0,0:0:0:0:
72,304,79376,1,2,0:0:0:0:
72,304,79528,1,2,0:0:0:0:
72,304,79679,1,8,0:0:0:0:
150,29,79831,5,4,0:0:0:0:
93,297,80134,1,4,0:0:0:0:
361,354,80437,1,4,0:0:0:0:
418,86,80740,1,4,0:0:0:0:
80,56,80891,5,8,0:0:0:0:
96,80,80967,1,8,0:0:0:0:
112,104,81043,1,8,0:0:0:0:
128,128,81119,1,8,0:0:0:0:
144,152,81194,6,0,P|152:208|144:248,1,80,4|0,0:0|0:0,0:0:0:0:
280,312,81497,2,0,P|272:256|280:216,1,80,8|0,0:0|0:0,0:0:0:0:
80,200,81800,6,0,L|-16:192,1,80,2|0,0:0|0:0,0:0:0:0:
352,272,82103,2,0,L|448:280,1,80,8|0,0:0|0:0,0:0:0:0:
432,72,82407,6,0,L|288:88,1,120,2|0,0:0|0:0,0:0:0:0:
312,85,82710,1,8,0:0:0:0:
192,192,82861,2,0,P|144:200|96:184,1,80,0|2,0:0|0:0,0:0:0:0:
48,64,83164,1,0,0:0:0:0:
152,128,83316,2,0,L|160:280,1,120,8|0,0:0|0:0,0:0:0:0:
158,247,83619,6,0,P|104:240|72:248,1,80,2|0,0:0|0:0,0:0:0:0:
353,136,83922,2,0,P|408:144|440:136,1,80,8|0,0:0|0:0,0:0:0:0:
112,320,84225,6,0,L|208:360,1,80,2|0,0:0|0:0,0:0:0:0:
400,64,84528,2,0,L|304:24,1,80,8|0,0:0|0:0,0:0:0:0:
160,160,84831,6,0,L|152:240,1,80,2|0,0:0|0:0,0:0:0:0:
352,224,85134,2,0,L|360:144,1,80,8|0,0:0|0:0,0:0:0:0:
432,56,85437,1,2,0:0:0:0:
256,192,85588,5,8,0:0:0:0:
256,192,85740,1,8,0:0:0:0:
256,192,86043,6,0,L|112:200,1,120,2|0,0:0|0:0,0:0:0:0:
88,144,86346,2,0,L|80:64,1,80,8|0,0:0|0:0,0:0:0:0:
320,160,86649,2,0,L|328:240,1,80,2|0,0:0|0:0,0:0:0:0:
144,208,86952,6,0,P|96:224|48:216,1,80,8|0,0:0|0:0,0:0:0:0:
272,96,87255,2,0,P|320:80|368:88,1,80,2|0,0:0|0:0,0:0:0:0:
464,40,87558,5,8,0:0:0:0:
429,141,87710,2,0,L|436:260,1,120
436,260,88013,1,0,0:0:0:0:
292,348,88164,2,0,L|204:340,1,80,8|0,0:0|0:0,0:0:0:0:
144,264,88467,1,2,0:0:0:0:
248,120,88619,1,0,0:0:0:0:
176,176,88770,6,0,P|160:120|168:80,1,80,8|0,0:0|0:0,0:0:0:0:
320,64,89073,2,0,P|336:120|328:160,1,80,2|0,0:0|0:0,0:0:0:0:
160,224,89376,6,0,L|80:232,1,80,8|0,0:0|0:0,0:0:0:0:
360,32,89679,2,0,L|440:24,1,80,2|0,0:0|0:0,0:0:0:0:
496,104,89982,1,8,0:0:0:0:
416,200,90134,2,0,L|408:288,1,80,0|2,0:0|0:0,0:0:0:0:
256,192,90437,5,8,0:0:0:0:
256,192,90588,1,8,0:0:0:0:
256,192,92710,5,2,0:0:0:0:
136,160,92861,1,8,0:0:0:0:
392,72,93013,1,2,0:0:0:0:
392,72,93164,6,0,L|400:240,1,160,4|2,0:0|0:0,0:0:0:0:
488,168,93619,1,8,0:0:0:0:
304,296,93770,2,0,L|224:304,1,80,0|2,0:0|0:0,0:0:0:0:
224,303,93997,1,0,0:0:0:0:
224,303,94073,1,2,0:0:0:0:
104,168,94225,1,8,0:0:0:0:
128,80,94376,6,0,P|168:104|192:144,1,80,2|0,0:0|0:0,0:0:0:0:
80,248,94679,2,0,P|40:224|16:184,1,80,2|8,0:0|0:0,0:0:0:0:
248,80,94982,6,0,L|328:72,1,80,0|2,0:0|0:0,0:0:0:0:
432,32,95285,1,2,0:0:0:0:
432,32,95361,1,0,0:0:0:0:
432,32,95437,1,8,0:0:0:0:
456,144,95588,6,0,L|440:280,1,120,2|0,0:0|0:0,0:0:0:0:
441,263,95891,1,2,0:0:0:0:
441,263,95967,1,0,0:0:0:0:
411,289,96043,2,0,L|323:281,1,80,8|0,0:0|0:0,0:0:0:0:
88,88,96346,2,0,P|80:136|88:168,1,80,2|2,0:0|0:0,0:0:0:0:
168,128,96649,1,8,0:0:0:0:
224,56,96800,6,0,P|176:40|136:40,1,80,2|0,0:0|0:0,0:0:0:0:
112,200,97103,2,0,P|160:216|200:216,1,80,2|8,0:0|0:0,0:0:0:0:
280,128,97407,5,2,0:0:0:0:
448,192,97558,2,0,L|456:280,1,80,2|2,0:0|0:0,0:0:0:0:
455,271,97785,1,0,0:0:0:0:
455,271,97861,1,8,0:0:0:0:
288,304,98013,6,0,L|296:144,1,160,4|2,0:0|0:0,0:0:0:0:
392,64,98467,1,8,0:0:0:0:
248,224,98619,2,0,L|160:232,1,80,0|2,0:0|0:0,0:0:0:0:
168,231,98846,1,0,0:0:0:0:
168,231,98922,1,2,0:0:0:0:
80,112,99073,1,8,0:0:0:0:
0,72,99225,6,0,P|32:40|96:24,1,80,2|0,0:0|0:0,0:0:0:0:
160,152,99528,2,0,P|128:184|64:200,1,80,2|8,0:0|0:0,0:0:0:0:
264,72,99831,6,0,L|352:64,1,80,0|2,0:0|0:0,0:0:0:0:
464,32,100134,1,2,0:0:0:0:
464,32,100210,1,0,0:0:0:0:
464,32,100285,1,8,0:0:0:0:
400,184,100437,6,0,L|256:192,1,120,2|0,0:0|0:0,0:0:0:0:
280,190,100740,1,2,0:0:0:0:
280,190,100816,1,0,0:0:0:0:
263,225,100891,2,0,L|183:233,1,80,8|0,0:0|0:0,0:0:0:0:
56,136,101194,6,0,L|136:128,1,80,2|2,0:0|0:0,0:0:0:0:
360,120,101497,1,8,0:0:0:0:
440,56,101649,6,0,P|456:120|448:160,1,80,4|0,0:0|0:0,0:0:0:0:
280,176,101952,2,0,P|264:112|272:72,1,80
432,208,102255,6,0,P|376:232|352:232,1,80
296,24,102558,2,0,P|352:0|376:0,1,80
472,168,102861,6,0,L|304:192,1,160,4|2,0:0|0:0,0:0:0:0:
400,272,103316,1,8,0:0:0:0:
256,128,103467,2,0,L|248:40,1,80,0|2,0:0|0:0,0:0:0:0:
248,48,103694,1,0,0:0:0:0:
248,48,103770,1,2,0:0:0:0:
112,208,103922,1,8,0:0:0:0:
56,136,104073,6,0,P|112:120|152:128,1,80,2|0,0:0|0:0,0:0:0:0:
168,288,104376,2,0,P|112:304|72:296,1,80,2|8,0:0|0:0,0:0:0:0:
208,176,104679,2,0,L|296:168,1,80,0|2,0:0|0:0,0:0:0:0:
368,72,104982,1,2,0:0:0:0:
368,72,105058,1,0,0:0:0:0:
368,72,105134,1,8,0:0:0:0:
464,144,105285,6,0,L|448:272,1,120,2|0,0:0|0:0,0:0:0:0:
449,263,105588,1,2,0:0:0:0:
449,263,105664,1,0,0:0:0:0:
420,291,105740,2,0,P|364:299|332:291,1,80,8|0,0:0|0:0,0:0:0:0:
390,119,106043,2,0,L|382:207,1,80,2|2,0:0|0:0,0:0:0:0:
192,168,106346,1,8,0:0:0:0:
104,208,106497,6,0,P|96:152|104:120,1,80,2|0,0:0|0:0,0:0:0:0:
280,128,106800,2,0,P|288:184|280:216,1,80,2|8,0:0|0:0,0:0:0:0:
184,288,107103,1,2,0:0:0:0:
360,264,107255,6,0,L|448:272,1,80,2|2,0:0|0:0,0:0:0:0:
439,271,107482,1,0,0:0:0:0:
439,271,107558,1,8,0:0:0:0:
224,80,107710,6,0,L|240:248,1,160,4|2,0:0|0:0,0:0:0:0:
312,320,108164,1,8,0:0:0:0:
184,160,108316,2,0,L|88:152,1,80,0|2,0:0|0:0,0:0:0:0:
105,153,108543,1,0,0:0:0:0:
105,153,108619,1,2,0:0:0:0:
88,288,108770,1,8,0:0:0:0:
8,232,108922,6,0,P|40:200|80:192,1,80,2|0,0:0|0:0,0:0:0:0:
168,344,109225,2,0,P|136:376|96:384,1,80,2|8,0:0|0:0,0:0:0:0:
144,144,109528,1,0,0:0:0:0:
256,64,109679,6,0,L|344:56,1,80,2|2,0:0|0:0,0:0:0:0:
335,56,109907,1,0,0:0:0:0:
335,56,109982,1,8,0:0:0:0:
440,216,110134,6,0,L|312:224,1,120,2|0,0:0|0:0,0:0:0:0:
320,223,110437,1,2,0:0:0:0:
320,223,110513,1,0,0:0:0:0:
288,199,110588,2,0,L|280:111,1,80,8|0,0:0|0:0,0:0:0:0:
339,23,110891,1,2,0:0:0:0:
144,160,111043,2,0,L|152:248,1,80,2|8,0:0|0:0,0:0:0:0:
272,240,111346,5,8,0:0:0:0:
128,336,111649,1,8,0:0:0:0:
272,64,111952,1,8,0:0:0:0:
488,272,112255,1,8,0:0:0:0:
488,272,112558,6,0,L|320:280,1,160,4|0,0:0|0:0,0:0:0:0:
190,205,113013,5,0,0:0:0:0:
276,128,113164,1,0,0:0:0:0:
300,241,113316,1,0,0:0:0:0:
186,105,113467,5,0,0:0:0:0:
365,174,113619,1,0,0:0:0:0:
216,295,113770,1,0,0:0:0:0:
246,56,113922,5,0,0:0:0:0:
378,251,114073,1,0,0:0:0:0:
143,268,114225,1,0,0:0:0:0:
339,81,114376,5,0,0:0:0:0:
310,319,114528,1,0,0:0:0:0:
118,175,114679,1,0,0:0:0:0:
411,164,114831,5,8,0:0:0:0:
202,339,114982,1,8,0:0:0:0:
