osu file format v14

[General]
AudioFilename: audio.mp3
AudioLeadIn: 0
PreviewTime: 50408
Countdown: 0
SampleSet: None
StackLeniency: 0.3
Mode: 0
LetterboxInBreaks: 0
WidescreenStoryboard: 0

[Editor]
DistanceSpacing: 1
BeatDivisor: 8
GridSize: 32
TimelineZoom: 2.899999

[Metadata]
Title:Happy Summer Wedding
TitleUnicode:ハッピーサマーウェディング
Artist:Hello, Happy World!
ArtistUnicode:ハロー、ハッピーワールド!
Creator:Hikan
Version:happy-go-lucky
Source:バンドリ!
Tags:Bandori BanG Dream! Tsurumaki Kokoro 弦巻 こころ Okusawa Misaki 奥沢 美咲 Seta Kaoru 瀬田 薫 Kitazawa Hagumi 北沢 はぐみ Matsubara Kanon 松原 花音 Michelle ミッシェル 美咲 nightcore
BeatmapID:1348378
BeatmapSetID:635408

[Difficulty]
HPDrainRate:5
CircleSize:4
OverallDifficulty:8
ApproachRate:9.3
SliderMultiplier:2.2
SliderTickRate:1

[Events]
//Background and Video events
0,0,"kokoro.jpg",0,0
//Break Periods
2,35900,42647
//Storyboard Layer 0 (Background)
//Storyboard Layer 1 (Fail)
//Storyboard Layer 2 (Pass)
//Storyboard Layer 3 (Foreground)
//Storyboard Sound Samples

[TimingPoints]
1951,468.75,4,2,0,40,1,0
8982,-66.6666666666667,4,2,0,40,0,0
9451,-83.3333333333333,4,2,0,40,0,0
9919,-58.8235294117647,4,2,0,40,0,0
11326,-90.9090909090909,4,2,0,40,0,0
12263,-66.6666666666667,4,2,0,40,0,0
12497,-66.6666666666667,4,2,0,20,0,0
12732,-58.8235294117647,4,2,0,40,0,0
13083,-58.8235294117647,4,2,0,5,0,0
13201,-100,4,2,0,40,0,0
16365,-100,4,2,0,5,0,0
16482,-58.8235294117647,4,2,0,40,0,0
17419,-66.6666666666667,4,2,0,40,0,0
17888,-83.3333333333333,4,2,0,40,0,0
18357,-66.6666666666667,4,2,0,40,0,0
18826,-57.1428571428571,4,2,0,40,0,0
18943,-57.1428571428571,4,2,0,5,0,0
19060,-66.6666666666667,4,2,0,40,0,0
19177,-66.6666666666667,4,2,0,5,0,0
19294,-80,4,2,0,40,0,0
19411,-80,4,2,0,5,0,0
19529,-100,4,2,0,40,0,0
19646,-100,4,2,0,5,0,0
19763,-100,4,2,0,40,0,0
19997,-58.8235294117647,4,2,0,40,0,0
20115,-58.8235294117647,4,2,0,5,0,0
20232,-58.8235294117647,4,2,0,40,0,0
20583,-58.8235294117647,4,2,0,5,0,0
20701,-58.8235294117647,4,2,0,40,0,0
23982,-66.6666666666667,4,2,0,40,0,0
24099,-66.6666666666667,4,2,0,5,0,0
24451,-66.6666666666667,4,2,0,40,0,0
28083,-66.6666666666667,4,2,0,5,0,0
28201,-100,4,2,0,40,0,0
29021,-100,4,2,0,5,0,0
29138,-100,4,2,0,40,0,0
29958,-100,4,2,0,40,0,0
29958,-100,4,2,0,5,0,0
30076,-100,4,2,0,40,0,0
31833,-100,4,2,0,40,0,0
31833,-100,4,2,0,5,0,0
31951,-100,4,2,0,40,0,0
34997,-52.6315789473684,4,2,0,40,0,0
35115,-52.6315789473684,4,2,0,5,0,0
35232,-100,4,2,0,40,0,0
46833,-100,4,2,0,5,0,0
46951,-100,4,2,0,40,0,0
49997,-52.6315789473684,4,2,0,40,0,0
50115,-52.6315789473684,4,2,0,5,0,0
50232,-100,4,2,0,40,0,0
51052,-100,4,2,0,5,0,0
51169,-100,4,2,0,40,0,0
64060,-50,4,2,0,40,0,0
64118,-50,4,2,0,5,0,0
64177,-50,4,2,0,40,0,0
64236,-50,4,2,0,5,0,0
64294,-100,4,2,0,40,0,0
64470,-100,4,2,0,5,0,0
64529,-50,4,2,0,40,0,0
64587,-50,4,2,0,5,0,0
64763,-100,4,2,0,40,0,0
64880,-100,4,2,0,5,0,0
64997,-50,4,2,0,40,0,0
65173,-50,4,2,0,5,0,0
65232,-33.3333333333333,4,2,0,40,0,0
65408,-33.3333333333333,4,2,0,5,0,0
65466,-25,4,2,0,40,0,0
65642,-25,4,2,0,5,0,0
65701,-66.6666666666667,4,2,0,40,0,0
65818,-66.6666666666667,4,2,0,5,0,0
65935,-33.3333333333333,4,2,0,40,0,0
65993,-33.3333333333333,4,2,0,5,0,0
66052,-33.3333333333333,4,2,0,40,0,0
66111,-33.3333333333333,4,2,0,5,0,0
66169,-66.6666666666667,4,2,0,40,0,0
66228,-66.6666666666667,4,2,0,5,0,0
66286,-66.6666666666667,4,2,0,40,0,0
66345,-66.6666666666667,4,2,0,5,0,0
66404,-33.3333333333333,4,2,0,40,0,0
66521,-33.3333333333333,4,2,0,5,0,0
66638,-50,4,2,0,40,0,0
66755,-50,4,2,0,5,0,0
66872,-33.3333333333333,4,2,0,40,0,0
67048,-33.3333333333333,4,2,0,5,0,0
67107,-25,4,2,0,40,0,0
67283,-25,4,2,0,5,0,0
67341,-20,4,2,0,40,0,0
67517,-20,4,2,0,5,0,0
67576,-153.846153846154,4,2,0,40,0,1
68454,-153.846153846154,4,2,0,5,0,1
68513,-83.3333333333333,4,2,0,40,0,1
69451,-153.846153846154,4,2,0,40,0,1
69861,-153.846153846154,4,2,0,5,0,1
69919,-66.6666666666667,4,2,0,40,0,1
70388,-83.3333333333333,4,2,0,40,0,1
71326,-125,4,2,0,40,0,1
71736,-125,4,2,0,5,0,1
71794,-125,4,2,0,40,0,1
72204,-125,4,2,0,5,0,1
72263,-83.3333333333333,4,2,0,40,0,1
74138,-66.6666666666667,4,2,0,40,0,1
75076,-153.846153846154,4,2,0,40,0,1
75544,-90.9090909090909,4,2,0,40,0,1
76013,-83.3333333333333,4,2,0,40,0,1
77419,-71.4285714285714,4,2,0,40,0,1
77888,-83.3333333333333,4,2,0,40,0,1
78826,-153.846153846154,4,2,0,40,0,1
79763,-83.3333333333333,4,2,0,40,0,1
80701,-76.9230769230769,4,2,0,40,0,1
81169,-71.4285714285714,4,2,0,40,0,1
81638,-66.6666666666667,4,2,0,40,0,1
82576,-90.9090909090909,4,2,0,40,0,1
83044,-83.3333333333333,4,2,0,40,0,1
83513,-90.9090909090909,4,2,0,40,0,1
83982,-83.3333333333333,4,2,0,40,0,1
84451,-125,4,2,0,40,0,1
84685,-125,4,2,0,5,0,1
84802,-66.6666666666667,4,2,0,40,0,1
85036,-66.6666666666667,4,2,0,5,0,1
85154,-50,4,2,0,40,0,1
85271,-50,4,2,0,5,0,1
85388,-100,4,2,0,40,0,1
86326,-100,4,2,0,40,0,1
86560,-50,4,2,0,20,0,1
86677,-50,4,2,0,40,0,1
86794,-100,4,2,0,40,0,1
87029,-50,4,2,0,20,0,1
87146,-50,4,2,0,40,0,1
87263,-55.5555555555556,4,2,0,40,0,0
87497,-55.5555555555556,4,2,0,5,0,0
87732,-142.857142857143,4,2,0,40,0,0
88201,-100,4,2,0,40,0,0
93357,-66.6666666666667,4,2,0,40,0,0
94294,-58.8235294117647,4,2,0,40,0,0
94763,-83.3333333333333,4,2,0,40,0,0
95232,-58.8235294117647,4,2,0,40,0,0
95701,-100,4,2,0,40,0,0
97107,-58.8235294117647,4,2,0,40,0,0
97458,-58.8235294117647,4,2,0,5,0,0
97576,-100,4,2,0,40,0,0
100857,-66.6666666666667,4,2,0,40,0,0
101326,-83.3333333333333,4,2,0,40,0,0
101794,-58.8235294117647,4,2,0,40,0,0
103201,-100,4,2,0,40,0,0
104372,-50,4,2,0,40,0,0
104548,-50,4,2,0,5,0,0
104607,-83.3333333333333,4,2,0,40,0,0
105017,-83.3333333333333,4,2,0,5,0,0

[Colours]
Combo1 : 252,82,82
Combo2 : 117,134,204
Combo3 : 247,133,64
Combo4 : 231,239,67

[HitObjects]
289,239,1951,5,0,0:0:0:0:
266,73,3826,5,0,0:0:0:0:
125,8,3943,2,0,P|152:7|178:15,1,55
4,106,4177,2,0,P|17:82|37:63,1,55
30,259,4411,2,0,P|16:235|9:208,1,55
195,200,4646,1,0,0:0:0:0:
121,145,4763,6,0,P|102:191|114:243,1,55
281,186,4997,2,0,P|248:129|237:122,1,55
171,297,5232,2,0,B|237:285|237:285|274:298|274:298|357:281,1,165
331,286,5701,6,0,P|276:280|225:240,1,110
410,361,6169,2,0,P|454:329|508:324,1,110
320,384,6638,1,0,0:0:0:0:
430,257,6872,2,0,L|435:132,1,110
418,267,7341,6,0,B|420:189|420:189|451:149|451:149|443:55,1,220
359,133,7576,1,0,0:0:0:0:
268,46,8044,6,0,P|339:56|377:31,1,110
369,38,8396,1,0,0:0:0:0:
268,46,8513,2,0,P|197:36|159:61,1,110
14,10,8865,1,0,0:0:0:0:
92,149,8982,6,0,B|68:73|98:-1|98:-1|87:76|16:103,1,247.500009441376
15,243,9451,6,0,L|97:234,1,65.9999979858399
248,144,9685,2,0,L|171:141,1,65.9999979858399
80,235,9919,2,0,B|124:231|124:231|155:253|155:253|222:256|274:207,1,187.000003566742
80,235,10388,5,0,0:0:0:0:
182,141,10505,1,0,0:0:0:0:
80,235,10622,1,0,0:0:0:0:
182,141,10740,1,0,0:0:0:0:
81,236,10857,2,0,B|106:272|106:272|102:309|102:309|133:369|202:390,1,187.000003566742
269,287,11326,6,0,L|206:280,1,60.5000018463135
301,204,11560,1,0,0:0:0:0:
357,275,11677,1,0,0:0:0:0:
254,298,11794,6,0,L|191:291,1,60.5000018463135
398,178,12029,2,0,L|461:171,1,60.5000018463135
376,353,12263,6,0,P|377:293|418:357,1,165.000006294251
432,342,12497,1,0,0:0:0:0:
376,353,12732,6,0,B|412:289|437:204|379:127|303:194|339:267|384:287,1,280.500005350113
296,378,13201,6,0,P|237:385|167:338,1,110
41,309,13669,2,0,P|100:316|170:269,1,110
184,199,14138,1,0,0:0:0:0:
351,279,14372,2,0,L|217:268,1,110
362,293,14841,6,0,B|288:286|288:286|264:235|282:171|322:142,1,220
412,242,15544,1,0,0:0:0:0:
376,73,15779,1,0,0:0:0:0:
311,150,16013,6,0,B|356:139|394:159|394:159|420:125|466:120,1,165
290,141,16482,2,0,B|474:110|474:110|393:205,1,280.500005350113
322,272,16951,5,0,0:0:0:0:
206,256,17068,1,0,0:0:0:0:
322,272,17185,1,0,0:0:0:0:
206,256,17302,1,0,0:0:0:0:
322,272,17419,2,0,B|359:273|385:284|385:284|439:287|483:248,1,165.000006294251
329,337,17888,6,0,L|320:261,1,65.9999979858399
213,190,18122,2,0,L|204:266,1,65.9999979858399
321,271,18357,2,0,B|340:239|362:222|362:222|392:177|380:119,1,165.000006294251
228,84,18826,6,0,P|303:91|332:75,1,96.2500009179115
128,64,19060,2,0,P|216:75|229:91,1,82.5000031471254
68,140,19294,2,0,P|111:72|130:65,1,68.75
87,222,19529,2,0,P|66:157|73:133,1,55
171,252,19763,1,0,0:0:0:0:
156,261,19997,6,0,L|54:259,1,93.500001783371
215,157,20232,2,0,B|271:134|322:162|322:162|353:148|353:148|385:157|385:157|443:118|525:158,1,280.500005350113
443,219,20701,5,0,0:0:0:0:
458,61,20818,1,0,0:0:0:0:
443,219,21052,5,0,0:0:0:0:
458,61,21169,1,0,0:0:0:0:
428,377,21638,5,0,0:0:0:0:
443,219,21755,1,0,0:0:0:0:
428,377,21990,5,0,0:0:0:0:
443,219,22107,1,0,0:0:0:0:
428,377,22576,5,0,0:0:0:0:
443,219,22693,1,0,0:0:0:0:
428,377,22927,5,0,0:0:0:0:
443,219,23044,1,0,0:0:0:0:
458,61,23279,1,0,0:0:0:0:
259,135,23513,5,0,0:0:0:0:
281,124,23982,2,0,L|376:115,1,82.5000031471254
146,188,24451,5,0,0:0:0:0:
25,182,24568,1,0,0:0:0:0:
146,188,24802,5,0,0:0:0:0:
25,182,24919,1,0,0:0:0:0:
267,194,25388,5,0,0:0:0:0:
146,188,25505,1,0,0:0:0:0:
267,194,25740,5,0,0:0:0:0:
146,188,25857,1,0,0:0:0:0:
267,194,26326,5,0,0:0:0:0:
146,188,26443,1,0,0:0:0:0:
267,194,26677,5,0,0:0:0:0:
146,188,26794,1,0,0:0:0:0:
25,182,27029,1,0,0:0:0:0:
388,200,27263,5,0,0:0:0:0:
196,303,27497,1,0,0:0:0:0:
443,259,27732,6,0,P|450:146|317:157,1,247.500009441376
339,132,28201,6,0,L|343:71,1,55
182,40,28435,2,0,L|178:94,1,55
256,175,28669,2,0,L|262:-3,1,165
178,297,29138,6,0,L|174:235,1,55
335,204,29372,2,0,L|338:258,1,55
261,339,29607,2,0,L|255:161,1,165
175,92,30076,6,0,P|160:110|146:138,1,55
355,193,30310,2,0,P|356:169|350:138,1,55
150,217,30544,2,0,P|162:236|185:258,1,55
302,77,30779,2,0,P|280:68|248:64,1,55
261,279,31013,2,0,P|283:273|349:198,1,110
146,158,31482,6,0,B|192:136|237:150|258:191|258:191|211:187,1,165
84,217,31951,6,0,B|55:140|55:140|123:69,1,165
236,139,32419,2,0,P|142:126|129:52,1,165
183,21,32888,2,0,P|197:57|192:98,1,55
76,181,33122,2,0,P|100:150|138:134,1,55
269,194,33357,2,0,P|230:188|197:163,1,55
183,21,33591,2,0,P|197:57|192:98,1,55
79,203,33826,6,0,L|163:197,1,55
330,192,34060,2,0,L|246:186,1,55
103,280,34294,2,0,L|187:274,1,55
325,115,34529,2,0,L|241:109,1,55
127,357,34763,1,0,0:0:0:0:
127,346,34997,6,0,P|185:315|239:327,1,104.499997209549
346,348,35232,6,0,P|268:355|241:229,1,220
72,361,43201,6,0,L|159:353,1,55
251,211,43435,2,0,L|196:214,1,55
80,282,43669,2,0,B|145:276|145:276|178:291|178:291|246:288,1,165
420,283,44138,6,0,L|333:275,1,55
241,133,44372,2,0,L|296:136,1,55
412,204,44606,2,0,B|347:198|347:198|314:213|314:213|246:210,1,165
121,190,45076,6,0,P|186:170|201:152,1,55
299,131,45310,2,0,P|234:111|219:93,1,55
134,105,45544,2,0,P|144:50|138:23,1,55
225,40,45779,2,0,P|215:-15|221:-42,1,55
50,166,46013,6,0,B|107:168|132:122|132:122|158:162|214:171,1,165
299,131,46482,2,0,B|255:177|199:167|199:167|232:181|245:218,1,165
379,114,46951,6,0,P|345:68|224:95,1,165
273,215,47419,2,0,B|311:246|311:246|298:129,1,165
192,221,47888,6,0,L|201:148,1,55
388,249,48122,2,0,L|379:176,1,55
174,358,48357,2,0,L|183:285,1,55
403,383,48591,2,0,L|394:310,1,55
116,195,48826,6,0,L|97:322,1,110
323,349,49294,2,0,L|304:222,1,110
81,384,49763,1,0,0:0:0:0:
88,363,49997,6,0,P|138:335|223:373,1,104.499997209549
285,307,50232,6,0,P|191:302|156:342,1,110
364,353,50701,6,0,L|384:171,1,165
373,178,51169,2,0,L|362:264,1,55
290,171,51404,1,0,0:0:0:0:
435,121,51521,6,0,P|363:96|301:129,1,110
277,191,51872,2,0,P|249:188|221:171,1,55
141,166,52107,2,0,P|143:193|154:219,1,55
68,127,52341,2,0,P|84:105|114:87,1,55
159,10,52576,6,0,L|74:18,1,55
250,24,52810,2,0,L|165:32,1,55
341,38,53044,2,0,L|256:46,1,55
159,10,53279,5,0,0:0:0:0:
250,24,53396,1,0,0:0:0:0:
341,38,53513,2,0,L|222:49,1,110
165,115,53982,5,0,0:0:0:0:
208,198,54216,1,0,0:0:0:0:
300,182,54451,1,0,0:0:0:0:
315,90,54685,1,0,0:0:0:0:
231,48,54920,1,0,0:0:0:0:
274,280,55154,5,0,0:0:0:0:
421,346,55271,2,0,P|347:354|299:317,1,110
370,218,55622,2,0,L|374:284,1,55
247,347,55857,2,0,L|251:281,1,55
359,85,56091,2,0,L|363:151,1,55
255,210,56326,5,0,0:0:0:0:
272,224,56560,2,0,P|323:228|349:218,1,55
177,152,56794,6,0,L|166:280,1,110
67,345,57263,1,0,0:0:0:0:
177,152,57497,6,0,L|171:224,1,55
67,345,57732,1,0,0:0:0:0:
177,152,57966,5,0,0:0:0:0:
116,284,58201,6,0,P|141:297|168:301,1,55
267,221,58435,2,0,P|259:247|244:270,1,55
0,237,58669,2,0,P|27:234|54:239,1,55
302,95,58904,2,0,P|282:114|269:138,1,55
356,172,59138,1,0,0:0:0:0:
179,119,59372,6,0,B|194:77|220:46|273:12,1,110
269,138,59841,1,0,0:0:0:0:
133,41,60076,5,0,0:0:0:0:
244,32,60310,1,0,0:0:0:0:
355,23,60544,1,0,0:0:0:0:
179,119,60779,1,0,0:0:0:0:
299,110,60896,2,0,P|252:137|197:134,1,110
126,228,61247,6,0,P|209:211|225:217,1,55
294,258,61482,2,0,P|278:235|257:217,1,55
237,88,61716,2,0,P|210:168|197:179,1,55
135,339,61951,5,0,0:0:0:0:
126,228,62185,1,0,0:0:0:0:
117,117,62419,1,0,0:0:0:0:
213,293,62654,1,0,0:0:0:0:
204,173,62771,2,0,P|231:219|228:274,1,110
322,346,63122,6,0,P|305:263|311:247,1,55
352,178,63357,2,0,P|329:193|311:214,1,55
182,235,63591,2,0,P|262:261|273:274,1,55
433,284,63826,6,0,L|437:209,1,55
445,296,64060,6,0,L|449:221,1,55
271,192,64177,2,0,L|275:267,1,55
383,158,64294,2,0,L|389:62,1,82.5
224,59,64529,6,0,L|228:134,1,55
388,75,64763,2,0,L|394:1,1,55
133,101,64997,6,0,L|144:278,1,165
372,322,65232,6,0,L|388:69,1,247.500009441376
33,25,65466,6,0,L|55:359,1,330
301,178,65701,6,0,L|212:172,1,82.5000031471254
294,164,65935,6,0,L|205:158,1,82.5000031471254
259,341,66052,2,0,L|348:335,1,82.5000031471254
426,171,66169,6,0,L|348:166,1,41.2500015735627
271,262,66286,2,0,L|349:257,1,41.2500015735627
254,71,66404,6,0,B|189:68|189:68|149:88|149:88|81:85,1,165.000006294251
54,354,66638,2,0,L|183:346,1,110
506,325,66872,6,0,L|258:340,1,247.500009441376
32,100,67107,6,0,L|451:79,1,330
470,203,67341,6,0,L|56:226,1,412.5
58,225,67576,6,0,B|123:108|123:108|206:226,1,268.124987726212
123,108,68044,1,0,0:0:0:0:
200,217,68513,6,0,P|155:257|146:283,1,65.9999979858399
299,316,68747,2,0,P|242:296|215:301,1,65.9999979858399
334,188,68982,2,0,P|342:136|326:97,1,65.9999979858399
415,72,69216,2,0,P|373:39|332:33,1,65.9999979858399
152,127,69451,6,0,B|166:155|166:155|272:147,1,125.124994272232
260,147,69919,2,0,P|222:50|152:127,1,247.500009441376
335,185,70388,6,0,P|352:98|295:-9,1,197.99999395752
87,34,70857,2,0,P|70:121|127:228,1,197.99999395752
269,273,71326,6,0,B|334:263|334:263|363:276|363:276|428:268,1,154
208,343,71794,2,0,P|185:238|220:193,1,154
318,162,72263,6,0,B|356:160|385:178|385:178|415:166|464:171,1,131.99999597168
206,204,72732,2,0,P|213:171|211:139,1,65.9999979858399
100,256,72966,2,0,P|98:288|109:328,1,65.9999979858399
194,286,73201,5,0,0:0:0:0:
121,161,73318,1,0,0:0:0:0:
194,286,73552,5,0,0:0:0:0:
121,161,73669,2,0,P|118:94|126:75,1,65.9999979858399
303,108,73904,5,0,0:0:0:0:
211,139,74021,1,0,0:0:0:0:
117,96,74138,2,0,B|14:52|14:52|55:54|79:38,1,165.000006294251
225,126,74490,5,0,0:0:0:0:
126,200,74607,2,0,B|36:267|36:267|58:232|56:203,1,165.000006294251
239,113,74958,5,0,0:0:0:0:
322,233,75076,2,0,L|317:316,1,71.4999967269899
225,347,75427,1,0,0:0:0:0:
417,374,75544,2,0,B|341:352|362:397|283:378,1,121.000003692627
47,375,76013,6,0,P|84:346|99:311,1,65.9999979858399
76,126,76247,2,0,P|82:173|104:203,1,65.9999979858399
224,141,76482,2,0,P|186:170|171:204,1,65.9999979858399
276,276,76716,2,0,P|231:257|194:261,1,65.9999979858399
225,347,76951,6,0,B|258:365|284:362|284:362|319:331|385:328|432:378,1,197.99999395752
485,335,77419,2,0,P|475:281|438:367,1,230.99999295044
304,333,77888,6,0,P|317:256|421:187,1,197.99999395752
410,112,78357,2,0,P|326:134|240:236,1,197.99999395752
233,369,78826,6,0,B|118:376,1,107.249995090485
28,285,79294,2,0,B|103:292|103:292|136:272,1,107.249995090485
77,144,79763,6,0,P|75:198|95:234,1,65.9999979858399
248,196,79997,2,0,P|250:142|230:106,1,65.9999979858399
77,144,80232,6,0,P|75:198|95:234,1,65.9999979858399
248,196,80466,2,0,P|250:142|230:106,1,65.9999979858399
95,29,80701,6,0,B|143:72|143:72|314:30,1,214.49999018097
359,139,81169,2,0,B|333:102|333:102|476:131|476:131|426:165,1,230.99999295044
378,331,81638,6,0,P|337:245|441:270,1,247.500009441376
281,344,82107,2,0,B|228:355|183:333|183:333|157:341|135:357|135:357|86:314|-14:348,1,247.500009441376
92,191,82576,6,0,B|128:143|128:143|137:277,1,181.500005538941
13,213,83044,2,0,P|27:141|161:149,1,197.99999395752
262,157,83513,6,0,B|226:205|226:205|217:71,1,181.500005538941
341,135,83982,2,0,P|327:207|193:199,1,197.99999395752
308,55,84451,6,0,L|418:59,1,88
505,143,84802,6,0,L|309:133,1,165.000006294251
380,217,85154,6,0,L|508:225,1,110
332,354,85388,6,0,P|286:229|328:174,1,165
294,209,85857,2,0,B|310:257|310:257|171:248,1,165
132,179,86326,6,0,P|104:227|102:281,1,110
102,281,86560,2,0,P|104:226|132:179,1,110
197,102,86794,6,0,P|146:82|91:89,1,110
91,89,87029,2,0,P|145:82|196:101,1,110
274,186,87263,6,0,P|344:122|449:162,1,197.99999395752
435,146,87732,6,0,P|400:133|331:147,1,76.9999976501466
457,66,88083,1,0,0:0:0:0:
382,212,88201,6,0,P|328:210|281:148,1,110
262,72,88552,1,0,0:0:0:0:
282,250,88669,6,0,P|293:197|268:149,1,110
268,149,89138,6,0,L|189:153,1,55
75,161,89372,1,0,0:0:0:0:
151,201,89490,1,0,0:0:0:0:
145,118,89607,2,0,P|94:120|47:163,1,110
157,303,90076,6,0,B|173:251|173:251|144:186,1,110
88,360,90544,2,0,B|65:309|65:309|81:257,1,110
3,228,91013,1,0,0:0:0:0:
157,303,91247,2,0,P|218:284|290:289,1,110
512,349,91716,6,0,P|382:373|290:344,1,220
209,211,92419,6,0,B|200:156|200:156|225:108,1,110
283,169,92771,1,0,0:0:0:0:
131,197,92888,2,0,B|122:142|122:142|147:94,1,110
203,156,93240,1,0,0:0:0:0:
43,55,93357,6,0,B|75:8|142:0|192:31|192:31|237:42|283:10,1,247.500009441376
386,125,93826,5,0,0:0:0:0:
278,115,93943,1,0,0:0:0:0:
386,125,94060,1,0,0:0:0:0:
278,115,94177,1,0,0:0:0:0:
386,125,94294,2,0,B|450:131|450:131|294:231,1,187.000003566742
371,61,94763,6,0,P|381:88|383:147,1,65.9999979858399
214,129,94997,2,0,P|241:118|300:117,1,65.9999979858399
396,267,95232,2,0,B|343:305|284:271|271:236|271:236|271:258|261:276,1,187.000003566742
32,185,95701,6,0,L|39:122,1,60.5000018463135
115,217,95935,1,0,0:0:0:0:
44,273,96052,1,0,0:0:0:0:
21,170,96169,6,0,L|28:107,1,60.5000018463135
141,314,96404,2,0,L|148:377,1,60.5000018463135
208,155,96638,2,0,L|215:92,1,60.5000018463135
115,217,96872,5,0,0:0:0:0:
382,212,97107,2,0,B|209:151|275:284|105:213,1,280.500005350113
114,216,97576,6,0,P|154:268|157:341,1,110
180,151,98044,2,0,P|199:100|239:63,1,110
382,45,98513,1,0,0:0:0:0:
345,230,98747,2,0,L|472:221,1,110
327,232,99216,6,0,B|286:186|286:186|363:249|484:212,1,220
397,324,99919,2,0,P|332:336|285:386,1,110
179,372,100388,2,0,P|123:363|66:320,1,110
168,178,100857,6,0,P|193:180|118:241,1,247.500009441376
96,128,101326,6,0,P|127:99|188:94,1,65.9999979858399
342,182,101560,2,0,P|301:169|266:119,1,65.9999979858399
148,91,101794,2,0,B|207:98|207:98|271:74|271:74|363:85,1,187.000003566742
148,91,102263,5,0,0:0:0:0:
284,154,102380,1,0,0:0:0:0:
148,91,102497,1,0,0:0:0:0:
284,154,102614,1,0,0:0:0:0:
148,91,102732,2,0,B|171:145|171:145|224:189|224:189|260:274,1,187.000003566742
63,183,103201,6,0,L|69:132,2,36.6666666666667
135,319,103435,2,0,L|141:370,2,36.6666666666667
226,204,103669,6,0,P|234:154|242:136,2,36.6666666666667
230,297,103904,2,0,P|248:343|264:358,2,36.6666666666667
306,249,104138,5,0,0:0:0:0:
319,263,104372,6,0,P|378:251|337:178,1,165
180,136,104607,6,0,P|154:234|226:200,1,230.99999295044
