osu file format v14

[General]
AudioFilename: audio2.mp3
AudioLeadIn: 0
PreviewTime: 51149
Countdown: 0
SampleSet: Normal
StackLeniency: 0.3
Mode: 0
LetterboxInBreaks: 0
WidescreenStoryboard: 1

[Editor]
Bookmarks: 4496,6264,6543,15473,18264,18822,23287,25520,26822,27752,31101,32217,34450,38915,60124,64589,65148,66822,67380,69055,71287,75752,89279,97651,99791,192961,200868,204124,205241,213613,215845
DistanceSpacing: 0.5
BeatDivisor: 3
GridSize: 32
TimelineZoom: 2.5

[Metadata]
Title:Goka! Gokai!? Phantom Thief!
TitleUnicode:ゴーカ!ごーかい!?ファントムシーフ!
Artist:Hello, Happy World!
ArtistUnicode:ハロー、ハッピーワールド!
Creator:Antares-
Version:Insane!
Source:バンドリ!ガールズバンドパーティ!
Tags:BanG Dream! Girls Band Party game cut ver version Tsurumaki Kokoro 弦巻こころ Itou Miku 伊藤美来 ハロハピ bandori garupa halohapi
BeatmapID:1802219
BeatmapSetID:858565

[Difficulty]
HPDrainRate:5
CircleSize:3
OverallDifficulty:7.5
ApproachRate:9
SliderMultiplier:1.7
SliderTickRate:1

[Events]
//Background and Video events
0,0,"kokorohappyworld.png",0,0
//Break Periods
//Storyboard Layer 0 (Background)
//Storyboard Layer 1 (Fail)
//Storyboard Layer 2 (Pass)
//Storyboard Layer 3 (Foreground)
//Storyboard Sound Samples

[TimingPoints]
1010,279.06976744186,4,1,1,55,1,0
1010,-100,4,1,1,55,0,0
1754,-100,4,1,1,55,0,0
1940,-100,4,1,1,35,0,0
2033,-100,4,1,1,55,0,0
2219,-100,4,1,1,35,0,0
2312,-100,4,1,1,55,0,0
2498,-100,4,1,1,35,0,0
2591,-100,4,1,1,55,0,0
4544,-333.333333333333,4,1,1,45,0,0
5382,-100,4,1,1,15,0,0
5475,-100,4,1,1,50,0,0
5568,-100,4,1,1,30,0,0
5661,-100,4,1,1,50,0,0
6312,-200,4,1,1,60,0,0
6591,-66.6666666666667,4,1,1,70,0,0
6870,-83.3333333333333,4,1,1,70,0,0
6963,-83.3333333333333,4,1,1,40,0,0
7056,-83.3333333333333,4,1,1,70,0,0
7521,-83.3333333333333,4,1,1,40,0,0
7614,-83.3333333333333,4,1,1,70,0,0
7707,-66.6666666666667,4,1,1,70,0,0
7800,-66.6666666666667,4,1,1,40,0,0
7893,-66.6666666666667,4,1,1,70,0,0
8079,-66.6666666666667,4,1,1,40,0,0
8172,-66.6666666666667,4,1,1,70,0,0
8358,-66.6666666666667,4,1,1,40,0,0
8451,-83.3333333333333,4,1,1,70,0,0
9009,-200,4,1,1,70,0,0
9382,-100,4,1,1,70,0,0
9661,-83.3333333333333,4,1,1,70,0,0
9940,-66.6666666666667,4,1,1,70,0,0
10033,-66.6666666666667,4,1,1,40,0,0
10126,-66.6666666666667,4,1,1,70,0,0
10312,-66.6666666666667,4,1,1,40,0,0
10405,-66.6666666666667,4,1,1,70,0,0
10591,-66.6666666666667,4,1,1,40,0,0
10777,-83.3333333333333,4,1,1,70,0,0
10870,-100,4,1,1,40,0,0
10963,-133.333333333333,4,1,1,70,0,0
11242,-133.333333333333,4,1,1,70,0,0
11521,-100,4,1,1,70,0,0
11614,-100,4,1,1,70,0,0
11893,-100,4,1,1,70,0,0
12172,-66.6666666666667,4,1,1,70,0,0
12265,-66.6666666666667,4,1,1,40,0,0
12358,-66.6666666666667,4,1,1,70,0,0
12544,-66.6666666666667,4,1,1,40,0,0
12637,-66.6666666666667,4,1,1,70,0,0
12823,-66.6666666666667,4,1,1,40,0,0
12916,-100,4,1,1,70,0,0
13103,-100,4,1,1,40,0,0
13196,-100,4,1,1,70,0,0
13475,-66.6666666666667,4,1,1,70,0,0
15428,-100,4,1,1,70,0,0
15800,-100,4,1,1,70,0,0
16823,-83.3333333333333,4,1,1,70,0,0
18219,-133.333333333333,4,1,1,70,0,0
18870,-100,4,2,1,55,0,0
23335,-100,4,1,1,70,0,0
24916,-100,4,1,1,70,0,0
26963,-100,4,1,1,70,0,0
27800,-100,4,2,1,55,0,0
32265,-100,4,1,1,60,0,0
32823,-100,4,1,1,60,0,0
33289,-100,4,1,1,30,0,0
33382,-100,4,1,1,60,0,0
33940,-100,4,1,1,60,0,0
34405,-100,4,1,1,30,0,0
34498,-100,4,1,1,60,0,0
35614,-100,4,1,1,60,0,0
36730,-100,4,1,1,70,0,0
37847,-100,4,1,1,70,0,0
38963,-100,4,1,1,70,0,0
40079,-100,4,1,1,70,0,0
40358,-100,4,1,1,70,0,0
41196,-100,4,1,1,70,0,0
41475,-100,4,1,1,70,0,0
42312,-100,4,1,1,70,0,0
42591,-100,4,1,1,70,0,0
43428,-100,4,1,1,70,0,0
45661,-100,4,1,1,70,0,0
46591,-100,4,1,1,70,0,0
46777,-100,4,1,1,70,0,0
47056,-100,4,1,1,75,0,0
48172,-100,4,1,1,75,0,0
49009,-100,4,1,1,75,0,0
49289,-100,4,1,1,75,0,0
49847,-100,4,1,1,80,0,0
50126,-100,4,1,1,70,0,0
50405,-100,4,1,1,70,0,0
50591,-100,4,1,1,80,0,0
50963,-100,4,1,1,70,0,0
51242,-100,4,1,1,80,0,1
51800,-100,4,1,1,80,0,1
52079,-100,4,1,1,80,0,1
52358,-100,4,1,1,80,0,1
52637,-100,4,1,1,80,0,1
52916,-100,4,1,1,80,0,1
53196,-100,4,1,1,80,0,1
53475,-100,4,1,1,80,0,1
54033,-100,4,1,1,80,0,1
54312,-100,4,1,1,80,0,1
55428,-100,4,1,1,80,0,1
55707,-100,4,1,1,80,0,1
56265,-100,4,1,1,80,0,1
56544,-100,4,1,1,80,0,1
56823,-100,4,1,1,80,0,1
57103,-100,4,1,1,80,0,1
57382,-100,4,1,1,80,0,1
57662,-100,4,1,1,80,0,1
57940,-100,4,1,1,80,0,1
58219,-100,4,1,1,80,0,1
58777,-100,4,1,1,80,0,1
59056,-100,4,1,1,80,0,1
59242,-100,4,3,11,80,0,1
59335,-100,4,1,1,80,0,1
59614,-100,4,3,10,80,0,1
59707,-100,4,1,1,80,0,1
60730,-100,4,1,1,80,0,1
61009,-100,4,1,1,80,0,1
61289,-100,4,1,1,80,0,1
61568,-100,4,1,1,80,0,1
61847,-100,4,1,1,80,0,1
62126,-100,4,1,1,80,0,1
62405,-100,4,1,1,80,0,1
62963,-100,4,1,1,80,0,1
63242,-100,4,1,1,80,0,1
63521,-100,4,1,1,80,0,1
64358,-100,4,3,11,80,0,1
64451,-100,4,1,1,80,0,1
64544,-100,4,3,10,80,0,1
64637,-100,4,1,1,80,0,1
64823,-100,4,1,1,45,0,1
64916,-100,4,1,1,80,0,1
65103,-100,4,1,1,45,0,1
65196,-100,4,1,1,80,0,0
66870,-100,4,1,1,80,0,1
67056,-100,4,1,1,45,0,1
67149,-100,4,1,1,80,0,1
67335,-100,4,1,1,45,0,1
67428,-100,4,1,1,80,0,0
69103,-100,4,1,1,80,0,0
70498,-100,4,3,12,80,0,0
70684,-100,4,1,1,80,0,0
70777,-100,4,3,11,80,0,0
70963,-100,4,1,1,80,0,0
71056,-100,4,3,10,80,0,0
71335,-100,4,1,1,80,0,0
72730,-100,4,1,1,80,0,0
73568,-100,4,1,1,80,0,0
74684,-100,4,1,1,80,0,0
75800,-100,4,1,1,70,0,0
76172,-100,4,1,1,40,0,0
76265,-100,4,1,1,70,0,0
76730,-100,4,1,1,40,0,0
76823,-100,4,1,1,70,0,0
76916,-100,4,1,1,70,0,0
77009,-100,4,1,1,40,0,0
77102,-100,4,1,1,70,0,0
77289,-100,4,1,1,40,0,0
77382,-100,4,1,1,70,0,0
77568,-100,4,1,1,40,0,0
77661,-100,4,1,1,70,0,0
78218,-100,4,1,1,70,0,0
78591,-100,4,1,1,70,0,0
78870,-100,4,1,1,70,0,0
79149,-100,4,1,1,70,0,0
79242,-100,4,1,1,40,0,0
79335,-100,4,1,1,70,0,0
79521,-100,4,1,1,40,0,0
79614,-100,4,1,1,70,0,0
79800,-100,4,1,1,40,0,0
79893,-100,4,1,1,70,0,0
80079,-100,4,1,1,40,0,0
80172,-100,4,1,1,70,0,0
80451,-100,4,1,1,70,0,0
80823,-100,4,1,1,70,0,0
81103,-100,4,1,1,70,0,0
81381,-100,4,1,1,70,0,0
81475,-100,4,1,1,40,0,0
81568,-100,4,1,1,70,0,0
81754,-100,4,1,1,40,0,0
81847,-100,4,1,1,70,0,0
82033,-100,4,1,1,40,0,0
82126,-100,4,1,1,70,0,0
82312,-100,4,1,1,40,0,0
82405,-100,4,1,1,70,0,0
82684,-100,4,1,1,70,0,0
83614,-100,4,1,1,70,0,0
84637,-100,4,1,1,70,0,0
85754,-100,4,1,1,70,0,0
87242,-100,4,1,1,70,0,0
87707,-100,4,3,11,70,0,0
87893,-100,4,3,10,70,0,0
88079,-100,4,1,1,70,0,0
88637,-100,4,2,1,40,0,0
91428,-100,4,2,1,40,0,0
92544,-100,4,2,1,40,0,0
95893,-100,4,1,1,60,0,0
96451,-100,4,1,1,70,0,0

[Colours]
Combo1 : 255,0,255
Combo2 : 255,128,128
Combo3 : 255,255,0
Combo4 : 0,128,255
Combo5 : 128,255,255
Combo6 : 128,255,128
Combo7 : 128,128,255
Combo8 : 128,0,255

[HitObjects]
87,116,1010,6,0,P|134:76|129:174,1,215.999993408203
157,62,1475,1,0,0:0:0:0:
337,28,1754,6,0,P|308:34|283:50,2,60
345,119,2033,2,0,P|374:123|401:135,2,60
359,216,2312,6,0,P|391:270|384:347,1,107.999996704102
281,299,2591,1,0,0:0:0:0:
291,301,2684,5,0,0:0:0:0:
188,351,2870,1,0,0:0:0:0:
178,353,2963,5,0,0:0:0:0:
84,284,3149,1,0,0:0:0:0:
94,286,3242,6,0,P|56:226|26:320,1,215.999993408203
64,201,3707,1,0,0:0:0:0:
331,67,3986,1,0,0:0:0:0:
336,59,4079,5,0,0:0:0:0:
243,104,4265,1,0,0:0:0:0:
246,114,4358,5,0,0:0:0:0:
249,8,4544,2,0,P|167:26|89:5,1,152.999995330811
70,2,5475,6,0,P|96:80|76:150,1,113.333333333333
33,220,5754,2,0,P|93:167|154:163,1,113.333333333333
248,274,6033,2,0,L|136:262,1,113.333333333333
215,187,6312,6,0,L|290:195,1,56.6666666666667
289,196,6591,6,0,P|271:139|358:165,1,170.000006484986
368,245,6870,6,0,P|315:284|244:272,1,135.99999584961
289,196,7149,2,0,P|351:154|439:185,1,135.99999584961
429,172,7428,5,0,0:0:0:0:
184,266,7614,1,0,0:0:0:0:
184,266,7707,6,0,P|234:291|290:273,1,85.0000032424928
92,346,7893,1,0,0:0:0:0:
92,346,7986,6,0,P|151:235|140:194,1,170.000006484986
14,169,8265,6,0,P|40:202|45:243,1,85.0000032424928
185,140,8451,6,0,B|110:186|22:137|22:137|9:187,1,203.999993774414
65,242,8823,1,0,0:0:0:0:
185,140,9009,6,0,P|238:126|279:139,1,85
266,132,9382,6,0,P|326:147|384:127,1,113.333333333333
450,76,9661,6,0,P|414:151|444:231,1,135.99999584961
405,280,9940,6,0,P|358:249|345:191,1,90.0000034332277
266,132,10126,1,0,0:0:0:0:
266,132,10219,6,0,P|262:188|218:228,1,90.0000034332277
193,310,10405,1,0,0:0:0:0:
193,310,10498,6,0,P|265:297|339:356,1,170.000006484986
405,280,10777,6,0,P|440:323|474:232,1,203.999993774414
474,232,11242,6,0,P|457:190|477:130,1,85.0000032424928
486,115,11521,6,0,P|419:139|306:107,1,170
225,37,11893,6,0,P|150:17|81:41,1,113.333333333333
0,175,12172,6,0,P|68:185|161:122,1,170.000006484986
162,111,12451,1,0,0:0:0:0:
152,258,12637,1,0,0:0:0:0:
152,258,12730,6,0,P|209:210|325:210,1,170.000006484986
363,128,13009,6,0,P|376:201|301:202,1,170
326,42,13475,1,0,0:0:0:0:
326,42,13568,6,0,P|386:34|432:60,1,85.0000032424928,0|0,0:0|0:0,0:0:0:0:
433,168,13754,1,0,0:0:0:0:
433,168,13847,6,0,P|385:131|332:130,1,85.0000032424928
195,207,14033,1,0,0:0:0:0:
195,207,14126,6,0,P|264:233|376:195,1,170.000006484986
326,42,14405,6,0,P|271:28|208:60,1,85.0000032424928
118,158,14591,6,0,P|107:197|116:239,2,85.0000032424928
243,115,14870,6,0,P|254:76|244:33,2,85.0000032424928
355,211,15149,6,0,P|426:184|378:285,1,255.000009727478
388,289,15800,6,0,P|311:270|268:298,1,113.333333333333
205,334,16079,2,0,P|128:353|85:325,1,113.333333333333
29,294,16358,1,0,0:0:0:0:
29,294,16823,6,0,B|72:323|72:323|2:226|43:150,1,203.999993774414
89,101,17196,6,0,P|128:175|112:240,1,135.99999584961
72,323,17475,1,0,0:0:0:0:
218,235,17661,6,0,P|278:196|366:203,1,135.99999584961
437,280,17940,2,0,P|373:247|335:167,1,135.99999584961
476,69,18219,6,0,L|460:153,1,85.0000032424928
458,167,18498,1,0,0:0:0:0:
440,155,18591,5,0,0:0:0:0:
419,148,18684,1,0,0:0:0:0:
397,150,18777,1,0,0:0:0:0:
376,157,18870,6,0,P|302:159|255:117,1,113.333333333333
