osu file format v14

[General]
AudioFilename: audio.mp3
AudioLeadIn: 0
PreviewTime: 67080
Countdown: 0
SampleSet: None
StackLeniency: 0.7
Mode: 1
LetterboxInBreaks: 0
WidescreenStoryboard: 0

[Editor]
DistanceSpacing: 0.5
BeatDivisor: 4
GridSize: 32
TimelineZoom: 3.699999

[Metadata]
Title:GO! GO! MANIAC (Game Size Ver.)
TitleUnicode:GO! GO! MANIAC (Game Size Ver.)
Artist:Hello, Happy World!
ArtistUnicode:ハロー、ハッピーワールド!, ハロハピ
Creator:SuperJSpectrixV
Version:K-ONI!
Source:バンドリ! ガールズバンドパーティ!
Tags:bandori girls band party harohapi bang dream bangdream 弦巻 こころ Kokoro Tsurumaki 伊藤美来 Itou Miku Seta Kaoru 瀬田 薫 田所 あずさ Tadokoro Azusa Kitazawa Hagumi 北沢 はぐみ 吉田有里 Yoshida Yuri Matsubara Kanon 松原 花音 豊田萌絵 Toyota Moe Okusawa Misaki 奥沢 美咲 黒沢ともよ Kurosawa Tomoyo ミッシェル Michelle version Ho-kago Tea Time 放課後ティータイム After-school tea time htt Tom-H@ck Shouko Ohmori Yui Hirasawa 平沢 唯 Aki Toyosaki 豊崎 愛生
BeatmapID:1944515
BeatmapSetID:931222

[Difficulty]
HPDrainRate:6
CircleSize:5
OverallDifficulty:6.5
ApproachRate:9.8
SliderMultiplier:1.4
SliderTickRate:1

[Events]
//Background and Video events
0,0,"image (10).png",0,0
//Break Periods
//Storyboard Layer 0 (Background)
//Storyboard Layer 1 (Fail)
//Storyboard Layer 2 (Pass)
//Storyboard Layer 3 (Foreground)
//Storyboard Sound Samples

[TimingPoints]
1920,240,4,1,0,40,1,0
2400,-100,4,1,0,40,0,0
2880,-100,4,1,0,50,0,0
8640,-100,4,1,0,65,0,0
10560,-100,4,1,0,80,0,1
24480,-100,4,1,0,65,0,1
24960,-100,4,1,0,80,0,1
25440,-100,4,1,0,65,0,1
25920,-100,4,1,0,80,0,1
26400,-100,4,1,0,65,0,1
26880,-100,4,1,0,80,0,1
27360,-100,4,1,0,65,0,1
27540,-100,4,1,0,80,0,1
27840,-100,4,1,0,70,0,0
29760,-100,4,1,0,75,0,0
30720,-100,4,1,0,80,0,0
31680,-100,4,1,0,65,0,0
38400,-100,4,1,0,70,0,0
40320,-100,4,1,0,60,0,0
46560,-100,4,1,0,70,0,0
48000,-100,4,1,0,60,0,0
55680,-100,4,1,0,55,0,0
61440,-100,4,1,0,65,0,0
63360,-100,4,1,0,70,0,0
65280,-100,4,1,0,75,0,0
67200,-100,4,1,0,80,0,1
81120,-100,4,1,0,65,0,1
81600,-100,4,1,0,80,0,1
82080,-100,4,1,0,65,0,1
82560,-100,4,1,0,80,0,1
83040,-100,4,1,0,65,0,1
83520,-100,4,1,0,80,0,1
84000,-100,4,1,0,65,0,1
84180,-100,4,1,0,80,0,1
84480,-100,4,1,0,70,0,0
86400,-100,4,1,0,75,0,0
87360,-100,4,1,0,80,0,0
88320,-100,4,1,0,65,0,0
95040,-100,4,1,0,70,0,0
96120,-100,4,1,0,75,0,0
96960,-100,4,1,0,65,0,0
97800,-100,4,1,0,75,0,0
98040,-100,4,1,0,65,0,0
99720,-100,4,1,0,75,0,0
100440,-100,4,1,0,80,0,0
100560,-100,4,1,0,25,0,0
101280,-100,4,1,0,40,0,0

[HitObjects]
224,192,2400,5,0,0:0:0:0:
224,192,2460,1,0,0:0:0:0:
224,192,2520,1,8,0:0:0:0:
224,192,2640,1,0,0:0:0:0:
224,192,2760,1,0,0:0:0:0:
224,192,2880,1,8,0:0:0:0:
224,192,3000,1,0,0:0:0:0:
224,192,3120,1,0,0:0:0:0:
224,192,3240,1,8,0:0:0:0:
224,192,3480,1,8,0:0:0:0:
224,192,3720,1,8,0:0:0:0:
224,192,3840,1,0,0:0:0:0:
224,192,4080,1,8,0:0:0:0:
224,192,4200,1,0,0:0:0:0:
224,192,4560,1,0,0:0:0:0:
224,192,4800,1,8,0:0:0:0:
224,192,5040,1,8,0:0:0:0:
224,192,5160,1,0,0:0:0:0:
224,192,5280,1,8,0:0:0:0:
224,192,5520,1,8,0:0:0:0:
224,192,5640,1,8,0:0:0:0:
224,192,5760,1,0,0:0:0:0:
224,192,6000,1,8,0:0:0:0:
224,192,6120,1,0,0:0:0:0:
288,192,6240,1,12,0:0:0:0:
224,192,6480,1,0,0:0:0:0:
224,192,6720,1,8,0:0:0:0:
224,192,6840,1,0,0:0:0:0:
224,192,6960,1,8,0:0:0:0:
224,192,7080,1,0,0:0:0:0:
224,192,7320,1,8,0:0:0:0:
224,192,7560,1,0,0:0:0:0:
224,192,7680,1,0,0:0:0:0:
224,192,7920,1,0,0:0:0:0:
224,192,8040,1,8,0:0:0:0:
224,192,8160,1,0,0:0:0:0:
224,192,8280,1,0,0:0:0:0:
224,192,8340,1,0,0:0:0:0:
224,192,8400,1,0,0:0:0:0:
288,192,8640,1,12,0:0:0:0:
288,192,8880,1,12,0:0:0:0:
288,192,9120,1,4,0:0:0:0:
288,192,9360,1,4,0:0:0:0:
288,192,9600,1,12,0:0:0:0:
224,192,9960,1,0,0:0:0:0:
288,192,10080,1,12,0:0:0:0:
288,192,10560,1,4,0:0:0:0:
224,192,10680,1,8,0:0:0:0:
224,192,10740,1,8,0:0:0:0:
224,192,10800,1,0,0:0:0:0:
224,192,10920,1,0,0:0:0:0:
224,192,11040,1,8,0:0:0:0:
224,192,11100,1,8,0:0:0:0:
224,192,11160,1,8,0:0:0:0:
224,192,11280,1,0,0:0:0:0:
224,192,11400,1,8,0:0:0:0:
224,192,11520,1,0,0:0:0:0:
224,192,11580,1,0,0:0:0:0:
224,192,11640,1,8,0:0:0:0:
224,192,11760,1,0,0:0:0:0:
224,192,11880,1,8,0:0:0:0:
224,192,11940,1,0,0:0:0:0:
224,192,12000,1,8,0:0:0:0:
224,192,12120,1,0,0:0:0:0:
224,192,12240,1,0,0:0:0:0:
224,192,12300,1,8,0:0:0:0:
224,192,12360,1,8,0:0:0:0:
224,192,12420,1,0,0:0:0:0:
224,192,12480,1,8,0:0:0:0:
224,192,12600,1,0,0:0:0:0:
224,192,12720,1,8,0:0:0:0:
224,192,12840,1,0,0:0:0:0:
224,192,12900,1,8,0:0:0:0:
224,192,12960,1,0,0:0:0:0:
224,192,13080,1,8,0:0:0:0:
224,192,13200,1,0,0:0:0:0:
224,192,13320,1,8,0:0:0:0:
224,192,13440,1,0,0:0:0:0:
224,192,13560,1,8,0:0:0:0:
224,192,13620,1,0,0:0:0:0:
224,192,13680,1,8,0:0:0:0:
224,192,13800,1,8,0:0:0:0:
224,192,13860,1,8,0:0:0:0:
224,192,13920,1,8,0:0:0:0:
224,192,13980,1,0,0:0:0:0:
224,192,14040,1,8,0:0:0:0:
224,192,14160,1,0,0:0:0:0:
224,192,14220,1,8,0:0:0:0:
224,192,14280,1,8,0:0:0:0:
224,192,14340,1,0,0:0:0:0:
224,192,14400,1,8,0:0:0:0:
224,192,14520,1,0,0:0:0:0:
224,192,14640,1,8,0:0:0:0:
224,192,14760,1,0,0:0:0:0:
224,192,14820,1,8,0:0:0:0:
224,192,14880,1,8,0:0:0:0:
224,192,15000,1,0,0:0:0:0:
224,192,15120,1,8,0:0:0:0:
224,192,15240,1,0,0:0:0:0:
224,192,15300,1,0,0:0:0:0:
224,192,15360,1,8,0:0:0:0:
224,192,15480,1,8,0:0:0:0:
224,192,15600,1,0,0:0:0:0:
224,192,15660,1,8,0:0:0:0:
224,192,15720,1,0,0:0:0:0:
224,192,15840,1,8,0:0:0:0:
224,192,15960,1,0,0:0:0:0:
224,192,16020,1,0,0:0:0:0:
224,192,16080,1,8,0:0:0:0:
224,192,16200,1,0,0:0:0:0:
288,192,16320,1,12,0:0:0:0:
224,192,16500,1,0,0:0:0:0:
224,192,16560,1,0,0:0:0:0:
288,192,16680,1,12,0:0:0:0:
224,192,16860,1,0,0:0:0:0:
224,192,16920,1,0,0:0:0:0:
288,192,17040,1,12,0:0:0:0:
224,192,17220,1,0,0:0:0:0:
224,192,17280,1,0,0:0:0:0:
288,192,17400,1,12,0:0:0:0:
224,192,17520,1,8,0:0:0:0:
224,192,17640,1,0,0:0:0:0:
224,192,17760,1,8,0:0:0:0:
224,192,17820,1,0,0:0:0:0:
224,192,17880,1,8,0:0:0:0:
224,192,17940,1,8,0:0:0:0:
224,192,18000,1,0,0:0:0:0:
224,192,18060,1,8,0:0:0:0:
224,192,18120,1,0,0:0:0:0:
288,192,18240,1,12,0:0:0:0:
224,192,18360,1,0,0:0:0:0:
224,192,18420,1,8,0:0:0:0:
224,192,18480,1,8,0:0:0:0:
224,192,18600,1,0,0:0:0:0:
224,192,18720,1,8,0:0:0:0:
224,192,18780,1,0,0:0:0:0:
224,192,18840,1,0,0:0:0:0:
224,192,18960,1,8,0:0:0:0:
224,192,19080,1,0,0:0:0:0:
224,192,19200,1,8,0:0:0:0:
224,192,19260,1,8,0:0:0:0:
224,192,19320,1,0,0:0:0:0:
224,192,19440,1,8,0:0:0:0:
224,192,19560,1,0,0:0:0:0:
224,192,19620,1,8,0:0:0:0:
224,192,19680,1,0,0:0:0:0:
224,192,19800,1,8,0:0:0:0:
224,192,19920,1,0,0:0:0:0:
224,192,19980,1,8,0:0:0:0:
224,192,20040,1,8,0:0:0:0:
224,192,20100,1,8,0:0:0:0:
224,192,20160,1,0,0:0:0:0:
224,192,20280,1,8,0:0:0:0:
224,192,20400,1,0,0:0:0:0:
224,192,20520,1,8,0:0:0:0:
224,192,20580,1,8,0:0:0:0:
224,192,20640,1,8,0:0:0:0:
224,192,20760,1,0,0:0:0:0:
224,192,20880,1,8,0:0:0:0:
224,192,21000,1,0,0:0:0:0:
224,192,21120,1,8,0:0:0:0:
224,192,21240,1,0,0:0:0:0:
224,192,21300,1,8,0:0:0:0:
224,192,21360,1,8,0:0:0:0:
224,192,21480,1,8,0:0:0:0:
224,192,21540,1,0,0:0:0:0:
224,192,21600,1,8,0:0:0:0:
224,192,21660,1,8,0:0:0:0:
224,192,21720,1,0,0:0:0:0:
224,192,21840,1,8,0:0:0:0:
224,192,21900,1,8,0:0:0:0:
224,192,21960,1,0,0:0:0:0:
224,192,22020,1,0,0:0:0:0:
224,192,22080,1,8,0:0:0:0:
224,192,22200,1,0,0:0:0:0:
224,192,22260,1,0,0:0:0:0:
224,192,22320,1,8,0:0:0:0:
224,192,22440,1,0,0:0:0:0:
224,192,22560,1,8,0:0:0:0:
224,192,22680,1,0,0:0:0:0:
224,192,22740,1,0,0:0:0:0:
224,192,22800,1,8,0:0:0:0:
224,192,22920,1,0,0:0:0:0:
224,192,23040,1,8,0:0:0:0:
224,192,23100,1,8,0:0:0:0:
224,192,23160,1,0,0:0:0:0:
224,192,23280,1,8,0:0:0:0:
224,192,23400,1,0,0:0:0:0:
224,192,23460,1,0,0:0:0:0:
224,192,23520,1,8,0:0:0:0:
224,192,23640,1,8,0:0:0:0:
224,192,23760,1,0,0:0:0:0:
224,192,23820,1,8,0:0:0:0:
224,192,23880,1,0,0:0:0:0:
288,192,24000,1,12,0:0:0:0:
288,192,24240,1,12,0:0:0:0:
224,192,24480,1,0,0:0:0:0:
224,192,24660,1,0,0:0:0:0:
224,192,24720,1,0,0:0:0:0:
224,192,24840,1,0,0:0:0:0:
288,192,24960,1,12,0:0:0:0:
288,192,25200,1,12,0:0:0:0:
224,192,25440,1,0,0:0:0:0:
224,192,25620,1,0,0:0:0:0:
224,192,25680,1,0,0:0:0:0:
224,192,25800,1,0,0:0:0:0:
288,192,25920,1,12,0:0:0:0:
288,192,26160,1,12,0:0:0:0:
224,192,26400,1,0,0:0:0:0:
224,192,26580,1,0,0:0:0:0:
224,192,26640,1,0,0:0:0:0:
224,192,26760,1,0,0:0:0:0:
288,192,26880,1,12,0:0:0:0:
288,192,27120,1,12,0:0:0:0:
224,192,27360,1,0,0:0:0:0:
224,192,27540,1,0,0:0:0:0:
224,192,27600,1,8,0:0:0:0:
224,192,27660,1,0,0:0:0:0:
224,192,27720,1,8,0:0:0:0:
224,192,27780,1,8,0:0:0:0:
224,192,27840,1,0,0:0:0:0:
224,192,28320,1,0,0:0:0:0:
224,192,28800,1,8,0:0:0:0:
224,192,28860,1,0,0:0:0:0:
224,192,28920,1,8,0:0:0:0:
224,192,29040,1,0,0:0:0:0:
224,192,29160,1,8,0:0:0:0:
224,192,29220,1,8,0:0:0:0:
224,192,29280,1,0,0:0:0:0:
224,192,29340,1,0,0:0:0:0:
224,192,29400,1,8,0:0:0:0:
224,192,29520,1,0,0:0:0:0:
224,192,29580,1,0,0:0:0:0:
224,192,29640,1,8,0:0:0:0:
224,192,29760,1,8,0:0:0:0:
224,192,29880,1,0,0:0:0:0:
224,192,29940,1,0,0:0:0:0:
224,192,30000,1,8,0:0:0:0:
224,192,30120,1,8,0:0:0:0:
224,192,30240,1,8,0:0:0:0:
224,192,30300,1,0,0:0:0:0:
224,192,30360,1,8,0:0:0:0:
224,192,30420,1,8,0:0:0:0:
224,192,30480,1,0,0:0:0:0:
224,192,30600,1,0,0:0:0:0:
288,192,30720,1,12,0:0:0:0:
288,192,30960,1,12,0:0:0:0:
288,192,31200,1,12,0:0:0:0:
224,192,31680,1,0,0:0:0:0:
224,192,31800,1,0,0:0:0:0:
224,192,31860,1,8,0:0:0:0:
224,192,31920,1,0,0:0:0:0:
224,192,32040,1,8,0:0:0:0:
224,192,32100,1,0,0:0:0:0:
224,192,32160,1,8,0:0:0:0:
224,192,32220,1,8,0:0:0:0:
224,192,32280,1,0,0:0:0:0:
224,192,32400,1,0,0:0:0:0:
224,192,32460,1,8,0:0:0:0:
224,192,32520,1,8,0:0:0:0:
288,192,32640,1,4,0:0:0:0:
224,192,32880,1,8,0:0:0:0:
224,192,33120,1,8,0:0:0:0:
224,192,33240,1,8,0:0:0:0:
224,192,33480,1,0,0:0:0:0:
224,192,33600,1,8,0:0:0:0:
224,192,33720,1,0,0:0:0:0:
224,192,33840,1,8,0:0:0:0:
224,192,33960,1,0,0:0:0:0:
224,192,34200,1,8,0:0:0:0:
224,192,34320,1,0,0:0:0:0:
224,192,34560,1,8,0:0:0:0:
224,192,34800,1,8,0:0:0:0:
224,192,35040,1,8,0:0:0:0:
224,192,35160,1,0,0:0:0:0:
224,192,35400,1,0,0:0:0:0:
224,192,35520,1,8,0:0:0:0:
224,192,35640,1,0,0:0:0:0:
224,192,35760,1,8,0:0:0:0:
224,192,35880,1,8,0:0:0:0:
224,192,36120,1,8,0:0:0:0:
224,192,36240,1,0,0:0:0:0:
224,192,36480,1,0,0:0:0:0:
224,192,36720,1,0,0:0:0:0:
224,192,36960,1,8,0:0:0:0:
224,192,37080,1,0,0:0:0:0:
224,192,37320,1,8,0:0:0:0:
224,192,37440,1,0,0:0:0:0:
224,192,37560,1,0,0:0:0:0:
224,192,37680,1,8,0:0:0:0:
224,192,37800,1,8,0:0:0:0:
224,192,38040,1,8,0:0:0:0:
224,192,38160,1,0,0:0:0:0:
224,192,38400,1,8,0:0:0:0:
224,192,38520,1,0,0:0:0:0:
224,192,38580,1,0,0:0:0:0:
224,192,38640,1,8,0:0:0:0:
224,192,38760,1,0,0:0:0:0:
224,192,38880,1,8,0:0:0:0:
224,192,38940,1,0,0:0:0:0:
224,192,39000,1,0,0:0:0:0:
224,192,39120,1,8,0:0:0:0:
224,192,39240,1,0,0:0:0:0:
224,192,39360,1,0,0:0:0:0:
288,192,39480,1,12,0:0:0:0:
224,192,39840,1,8,0:0:0:0:
224,192,39960,1,0,0:0:0:0:
224,192,40080,1,8,0:0:0:0:
224,192,40320,1,8,0:0:0:0:
224,192,40440,1,0,0:0:0:0:
224,192,40560,1,8,0:0:0:0:
224,192,40680,1,0,0:0:0:0:
224,192,40740,1,8,0:0:0:0:
224,192,40800,1,8,0:0:0:0:
224,192,40920,1,8,0:0:0:0:
224,192,41040,1,0,0:0:0:0:
224,192,41160,1,0,0:0:0:0:
224,192,41220,1,0,0:0:0:0:
224,192,41280,1,8,0:0:0:0:
224,192,41400,1,0,0:0:0:0:
224,192,41520,1,8,0:0:0:0:
224,192,41640,1,0,0:0:0:0:
224,192,41700,1,8,0:0:0:0:
224,192,41760,1,8,0:0:0:0:
224,192,41880,1,8,0:0:0:0:
224,192,42000,1,0,0:0:0:0:
224,192,42240,1,0,0:0:0:0:
224,192,42360,1,0,0:0:0:0:
224,192,42480,1,8,0:0:0:0:
224,192,42600,1,0,0:0:0:0:
224,192,42660,1,8,0:0:0:0:
224,192,42720,1,0,0:0:0:0:
224,192,42840,1,8,0:0:0:0:
224,192,43080,1,8,0:0:0:0:
224,192,43200,1,0,0:0:0:0:
224,192,43320,1,0,0:0:0:0:
224,192,43440,1,8,0:0:0:0:
224,192,43560,1,8,0:0:0:0:
224,192,43800,1,8,0:0:0:0:
224,192,43860,1,0,0:0:0:0:
224,192,43920,1,0,0:0:0:0:
224,192,44040,1,8,0:0:0:0:
224,192,44160,1,8,0:0:0:0:
224,192,44280,1,0,0:0:0:0:
224,192,44400,1,0,0:0:0:0:
224,192,44520,1,8,0:0:0:0:
224,192,44580,1,8,0:0:0:0:
224,192,44640,1,0,0:0:0:0:
224,192,44760,1,8,0:0:0:0:
224,192,44880,1,0,0:0:0:0:
224,192,45000,1,0,0:0:0:0:
224,192,45060,1,0,0:0:0:0:
224,192,45120,1,8,0:0:0:0:
224,192,45240,1,0,0:0:0:0:
224,192,45360,1,8,0:0:0:0:
224,192,45480,1,8,0:0:0:0:
224,192,45540,1,0,0:0:0:0:
224,192,45600,1,8,0:0:0:0:
224,192,45720,1,0,0:0:0:0:
224,192,45840,1,8,0:0:0:0:
224,192,46080,1,8,0:0:0:0:
224,192,46200,1,0,0:0:0:0:
224,192,46320,1,0,0:0:0:0:
224,192,46440,1,8,0:0:0:0:
224,192,46500,1,8,0:0:0:0:
288,192,46560,1,4,0:0:0:0:
224,192,46680,1,8,0:0:0:0:
288,192,46800,1,4,0:0:0:0:
224,192,47040,1,0,0:0:0:0:
288,192,47160,1,12,0:0:0:0:
224,192,47400,1,8,0:0:0:0:
224,192,47520,1,0,0:0:0:0:
224,192,47640,1,0,0:0:0:0:
224,192,47760,1,8,0:0:0:0:
224,192,47820,1,0,0:0:0:0:
224,192,47880,1,0,0:0:0:0:
224,192,48000,1,8,0:0:0:0:
224,192,48120,1,0,0:0:0:0:
224,192,48240,1,8,0:0:0:0:
224,192,48360,1,8,0:0:0:0:
224,192,48420,1,8,0:0:0:0:
224,192,48480,1,0,0:0:0:0:
224,192,48600,1,0,0:0:0:0:
224,192,48720,1,8,0:0:0:0:
224,192,48840,1,8,0:0:0:0:
224,192,48900,1,0,0:0:0:0:
224,192,48960,1,8,0:0:0:0:
224,192,49080,1,0,0:0:0:0:
224,192,49200,1,8,0:0:0:0:
224,192,49320,1,8,0:0:0:0:
224,192,49380,1,8,0:0:0:0:
224,192,49440,1,0,0:0:0:0:
224,192,49560,1,8,0:0:0:0:
224,192,49680,1,0,0:0:0:0:
224,192,49920,1,8,0:0:0:0:
224,192,50040,1,0,0:0:0:0:
224,192,50160,1,8,0:0:0:0:
224,192,50280,1,0,0:0:0:0:
224,192,50340,1,0,0:0:0:0:
224,192,50400,1,8,0:0:0:0:
224,192,50520,1,0,0:0:0:0:
224,192,50760,1,0,0:0:0:0:
224,192,50880,1,8,0:0:0:0:
224,192,51000,1,8,0:0:0:0:
224,192,51120,1,0,0:0:0:0:
224,192,51240,1,8,0:0:0:0:
224,192,51480,1,0,0:0:0:0:
224,192,51540,1,8,0:0:0:0:
224,192,51600,1,0,0:0:0:0:
224,192,51720,1,8,0:0:0:0:
224,192,51840,1,0,0:0:0:0:
224,192,51960,1,8,0:0:0:0:
224,192,52080,1,0,0:0:0:0:
224,192,52200,1,8,0:0:0:0:
224,192,52260,1,0,0:0:0:0:
224,192,52320,1,8,0:0:0:0:
224,192,52440,1,0,0:0:0:0:
224,192,52560,1,8,0:0:0:0:
224,192,52680,1,8,0:0:0:0:
224,192,52740,1,8,0:0:0:0:
224,192,52800,1,0,0:0:0:0:
224,192,52920,1,0,0:0:0:0:
224,192,53040,1,8,0:0:0:0:
224,192,53160,1,0,0:0:0:0:
224,192,53220,1,0,0:0:0:0:
224,192,53280,1,8,0:0:0:0:
224,192,53400,1,8,0:0:0:0:
224,192,53520,1,0,0:0:0:0:
224,192,53760,1,8,0:0:0:0:
224,192,53880,1,0,0:0:0:0:
224,192,54000,1,0,0:0:0:0:
224,192,54060,1,8,0:0:0:0:
224,192,54120,1,0,0:0:0:0:
224,192,54240,1,8,0:0:0:0:
224,192,54360,1,0,0:0:0:0:
288,192,54480,1,8,0:0:0:0:
224,192,54720,1,0,0:0:0:0:
288,192,54840,1,12,0:0:0:0:
224,192,55080,1,0,0:0:0:0:
224,192,55200,1,8,0:0:0:0:
224,192,55320,1,0,0:0:0:0:
224,192,55440,1,8,0:0:0:0:
224,192,55500,1,0,0:0:0:0:
224,192,55560,1,0,0:0:0:0:
224,192,55620,1,8,0:0:0:0:
224,192,55680,1,8,0:0:0:0:
224,192,55920,1,8,0:0:0:0:
224,192,56040,1,0,0:0:0:0:
224,192,56160,1,8,0:0:0:0:
224,192,56280,1,0,0:0:0:0:
224,192,56340,1,0,0:0:0:0:
224,192,56400,1,0,0:0:0:0:
224,192,56520,1,8,0:0:0:0:
224,192,56640,1,8,0:0:0:0:
224,192,56880,1,8,0:0:0:0:
224,192,57000,1,0,0:0:0:0:
224,192,57240,1,8,0:0:0:0:
224,192,57300,1,0,0:0:0:0:
224,192,57360,1,8,0:0:0:0:
224,192,57480,1,0,0:0:0:0:
224,192,57600,1,8,0:0:0:0:
224,192,57840,1,0,0:0:0:0:
224,192,57960,1,8,0:0:0:0:
224,192,58080,1,0,0:0:0:0:
224,192,58200,1,8,0:0:0:0:
224,192,58260,1,8,0:0:0:0:
224,192,58320,1,8,0:0:0:0:
224,192,58440,1,0,0:0:0:0:
224,192,58560,1,8,0:0:0:0:
224,192,58800,1,8,0:0:0:0:
224,192,58920,1,0,0:0:0:0:
224,192,59520,1,8,0:0:0:0:
224,192,59640,1,0,0:0:0:0:
224,192,59760,1,8,0:0:0:0:
224,192,59880,1,8,0:0:0:0:
224,192,59940,1,8,0:0:0:0:
224,192,60000,1,0,0:0:0:0:
224,192,60120,1,8,0:0:0:0:
224,192,60240,1,0,0:0:0:0:
224,192,60360,1,8,0:0:0:0:
224,192,60480,1,8,0:0:0:0:
224,192,60720,1,8,0:0:0:0:
224,192,60840,1,0,0:0:0:0:
224,192,61080,1,8,0:0:0:0:
224,192,61140,1,8,0:0:0:0:
224,192,61200,1,0,0:0:0:0:
224,192,61320,1,0,0:0:0:0:
224,192,61440,1,8,0:0:0:0:
224,192,61680,1,0,0:0:0:0:
224,192,61800,1,8,0:0:0:0:
224,192,62040,1,0,0:0:0:0:
224,192,62160,1,8,0:0:0:0:
224,192,62280,1,0,0:0:0:0:
288,192,62400,1,12,0:0:0:0:
224,192,62640,1,8,0:0:0:0:
288,192,62760,1,4,0:0:0:0:
224,192,63000,1,8,0:0:0:0:
224,192,63120,1,0,0:0:0:0:
224,192,63240,1,0,0:0:0:0:
224,192,63360,1,8,0:0:0:0:
224,192,63480,1,0,0:0:0:0:
224,192,63540,1,0,0:0:0:0:
224,192,63600,1,0,0:0:0:0:
224,192,63720,1,8,0:0:0:0:
224,192,63840,1,8,0:0:0:0:
224,192,63900,1,0,0:0:0:0:
224,192,63960,1,8,0:0:0:0:
224,192,64080,1,0,0:0:0:0:
224,192,64200,1,8,0:0:0:0:
224,192,64260,1,8,0:0:0:0:
224,192,64320,1,0,0:0:0:0:
224,192,64440,1,8,0:0:0:0:
224,192,64560,1,0,0:0:0:0:
224,192,64620,1,0,0:0:0:0:
224,192,64680,1,8,0:0:0:0:
224,192,64800,1,8,0:0:0:0:
224,192,64920,1,0,0:0:0:0:
224,192,64980,1,0,0:0:0:0:
224,192,65040,1,8,0:0:0:0:
224,192,65160,1,0,0:0:0:0:
288,192,65280,1,12,0:0:0:0:
288,192,65520,1,12,0:0:0:0:
224,192,65760,1,8,0:0:0:0:
224,192,65940,1,0,0:0:0:0:
224,192,66000,1,8,0:0:0:0:
224,192,66120,1,0,0:0:0:0:
224,192,66240,1,12,0:0:0:0:
224,192,66600,1,0,0:0:0:0:
224,192,66660,1,8,0:0:0:0:
224,192,66720,1,0,0:0:0:0:
224,192,66840,1,0,0:0:0:0:
224,192,66900,1,8,0:0:0:0:
224,192,66960,1,8,0:0:0:0:
224,192,67020,1,0,0:0:0:0:
224,192,67080,1,8,0:0:0:0:
224,192,67140,1,0,0:0:0:0:
288,192,67200,1,12,0:0:0:0:
224,192,67320,1,0,0:0:0:0:
224,192,67380,1,0,0:0:0:0:
224,192,67440,1,8,0:0:0:0:
224,192,67560,1,0,0:0:0:0:
224,192,67680,1,8,0:0:0:0:
224,192,67740,1,8,0:0:0:0:
224,192,67800,1,0,0:0:0:0:
224,192,67860,1,0,0:0:0:0:
224,192,67920,1,8,0:0:0:0:
224,192,68040,1,0,0:0:0:0:
224,192,68100,1,8,0:0:0:0:
224,192,68160,1,8,0:0:0:0:
224,192,68280,1,0,0:0:0:0:
224,192,68340,1,8,0:0:0:0:
224,192,68400,1,0,0:0:0:0:
224,192,68460,1,8,0:0:0:0:
224,192,68520,1,0,0:0:0:0:
224,192,68640,1,0,0:0:0:0:
224,192,68760,1,0,0:0:0:0:
224,192,68820,1,8,0:0:0:0:
224,192,68880,1,8,0:0:0:0:
224,192,68940,1,8,0:0:0:0:
224,192,69000,1,0,0:0:0:0:
224,192,69060,1,8,0:0:0:0:
224,192,69120,1,0,0:0:0:0:
224,192,69240,1,0,0:0:0:0:
224,192,69360,1,8,0:0:0:0:
224,192,69420,1,8,0:0:0:0:
224,192,69480,1,0,0:0:0:0:
224,192,69600,1,8,0:0:0:0:
224,192,69720,1,0,0:0:0:0:
224,192,69780,1,0,0:0:0:0:
224,192,69840,1,8,0:0:0:0:
224,192,69900,1,0,0:0:0:0:
224,192,69960,1,8,0:0:0:0:
224,192,70080,1,0,0:0:0:0:
224,192,70200,1,0,0:0:0:0:
224,192,70260,1,0,0:0:0:0:
224,192,70320,1,8,0:0:0:0:
224,192,70440,1,0,0:0:0:0:
224,192,70560,1,8,0:0:0:0:
224,192,70620,1,8,0:0:0:0:
224,192,70680,1,8,0:0:0:0:
224,192,70740,1,0,0:0:0:0:
224,192,70800,1,8,0:0:0:0:
224,192,70860,1,8,0:0:0:0:
224,192,70920,1,0,0:0:0:0:
224,192,70980,1,8,0:0:0:0:
224,192,71040,1,0,0:0:0:0:
224,192,71160,1,8,0:0:0:0:
224,192,71220,1,0,0:0:0:0:
224,192,71280,1,8,0:0:0:0:
224,192,71340,1,8,0:0:0:0:
224,192,71400,1,0,0:0:0:0:
224,192,71520,1,8,0:0:0:0:
224,192,71640,1,0,0:0:0:0:
224,192,71700,1,8,0:0:0:0:
224,192,71760,1,0,0:0:0:0:
224,192,71820,1,0,0:0:0:0:
224,192,71880,1,0,0:0:0:0:
224,192,72000,1,8,0:0:0:0:
224,192,72120,1,0,0:0:0:0:
224,192,72180,1,8,0:0:0:0:
224,192,72240,1,8,0:0:0:0:
224,192,72300,1,8,0:0:0:0:
224,192,72360,1,0,0:0:0:0:
224,192,72480,1,8,0:0:0:0:
224,192,72600,1,0,0:0:0:0:
224,192,72660,1,8,0:0:0:0:
224,192,72720,1,0,0:0:0:0:
224,192,72780,1,8,0:0:0:0:
224,192,72840,1,0,0:0:0:0:
288,192,72960,1,12,0:0:0:0:
224,192,73140,1,0,0:0:0:0:
224,192,73200,1,0,0:0:0:0:
288,192,73320,1,12,0:0:0:0:
224,192,73500,1,0,0:0:0:0:
224,192,73560,1,0,0:0:0:0:
288,192,73680,1,12,0:0:0:0:
224,192,73860,1,0,0:0:0:0:
224,192,73920,1,0,0:0:0:0:
288,192,74040,1,12,0:0:0:0:
224,192,74220,1,0,0:0:0:0:
224,192,74280,1,0,0:0:0:0:
224,192,74400,1,8,0:0:0:0:
224,192,74460,1,0,0:0:0:0:
224,192,74520,1,8,0:0:0:0:
224,192,74580,1,8,0:0:0:0:
224,192,74640,1,0,0:0:0:0:
224,192,74700,1,8,0:0:0:0:
224,192,74760,1,0,0:0:0:0:
224,192,74820,1,8,0:0:0:0:
288,192,74880,1,4,0:0:0:0:
224,192,75000,1,0,0:0:0:0:
224,192,75060,1,8,0:0:0:0:
224,192,75120,1,8,0:0:0:0:
224,192,75240,1,0,0:0:0:0:
224,192,75360,1,8,0:0:0:0:
224,192,75420,1,0,0:0:0:0:
224,192,75480,1,8,0:0:0:0:
224,192,75540,1,8,0:0:0:0:
224,192,75600,1,8,0:0:0:0:
224,192,75720,1,0,0:0:0:0:
224,192,75780,1,0,0:0:0:0:
224,192,75840,1,8,0:0:0:0:
224,192,75960,1,8,0:0:0:0:
224,192,76020,1,8,0:0:0:0:
224,192,76080,1,0,0:0:0:0:
224,192,76140,1,8,0:0:0:0:
224,192,76200,1,0,0:0:0:0:
224,192,76320,1,0,0:0:0:0:
224,192,76440,1,8,0:0:0:0:
224,192,76500,1,8,0:0:0:0:
224,192,76560,1,0,0:0:0:0:
224,192,76620,1,8,0:0:0:0:
224,192,76680,1,8,0:0:0:0:
224,192,76740,1,0,0:0:0:0:
224,192,76800,1,8,0:0:0:0:
224,192,76920,1,0,0:0:0:0:
224,192,77040,1,0,0:0:0:0:
224,192,77100,1,8,0:0:0:0:
224,192,77160,1,0,0:0:0:0:
224,192,77280,1,8,0:0:0:0:
224,192,77400,1,0,0:0:0:0:
224,192,77460,1,8,0:0:0:0:
224,192,77520,1,8,0:0:0:0:
224,192,77580,1,8,0:0:0:0:
224,192,77640,1,0,0:0:0:0:
224,192,77760,1,8,0:0:0:0:
224,192,77880,1,0,0:0:0:0:
224,192,77940,1,8,0:0:0:0:
224,192,78000,1,8,0:0:0:0:
224,192,78120,1,0,0:0:0:0:
224,192,78240,1,8,0:0:0:0:
224,192,78300,1,0,0:0:0:0:
224,192,78360,1,8,0:0:0:0:
224,192,78420,1,8,0:0:0:0:
224,192,78480,1,0,0:0:0:0:
224,192,78540,1,0,0:0:0:0:
224,192,78600,1,8,0:0:0:0:
224,192,78660,1,8,0:0:0:0:
224,192,78720,1,0,0:0:0:0:
224,192,78840,1,8,0:0:0:0:
224,192,78900,1,8,0:0:0:0:
224,192,78960,1,8,0:0:0:0:
224,192,79020,1,0,0:0:0:0:
224,192,79080,1,0,0:0:0:0:
224,192,79200,1,8,0:0:0:0:
224,192,79320,1,8,0:0:0:0:
224,192,79380,1,8,0:0:0:0:
224,192,79440,1,0,0:0:0:0:
224,192,79500,1,8,0:0:0:0:
224,192,79560,1,0,0:0:0:0:
224,192,79680,1,8,0:0:0:0:
224,192,79800,1,0,0:0:0:0:
224,192,79860,1,0,0:0:0:0:
224,192,79920,1,0,0:0:0:0:
224,192,79980,1,8,0:0:0:0:
224,192,80040,1,8,0:0:0:0:
224,192,80160,1,8,0:0:0:0:
224,192,80280,1,8,0:0:0:0:
224,192,80340,1,0,0:0:0:0:
224,192,80400,1,8,0:0:0:0:
224,192,80460,1,0,0:0:0:0:
224,192,80520,1,0,0:0:0:0:
288,192,80640,1,12,0:0:0:0:
288,192,80880,1,12,0:0:0:0:
224,192,81120,1,0,0:0:0:0:
224,192,81300,1,0,0:0:0:0:
224,192,81360,1,0,0:0:0:0:
224,192,81480,1,0,0:0:0:0:
288,192,81600,1,12,0:0:0:0:
288,192,81840,1,12,0:0:0:0:
224,192,82080,1,0,0:0:0:0:
224,192,82260,1,0,0:0:0:0:
224,192,82320,1,0,0:0:0:0:
224,192,82440,1,0,0:0:0:0:
288,192,82560,1,12,0:0:0:0:
288,192,82800,1,12,0:0:0:0:
224,192,83040,1,0,0:0:0:0:
224,192,83220,1,0,0:0:0:0:
224,192,83280,1,0,0:0:0:0:
224,192,83400,1,0,0:0:0:0:
288,192,83520,1,12,0:0:0:0:
288,192,83760,1,12,0:0:0:0:
224,192,84000,1,0,0:0:0:0:
224,192,84180,1,0,0:0:0:0:
224,192,84240,1,0,0:0:0:0:
224,192,84300,1,8,0:0:0:0:
224,192,84360,1,8,0:0:0:0:
224,192,84420,1,8,0:0:0:0:
288,192,84480,1,4,0:0:0:0:
224,192,84960,1,0,0:0:0:0:
224,192,85440,1,8,0:0:0:0:
224,192,85500,1,0,0:0:0:0:
224,192,85560,1,8,0:0:0:0:
224,192,85620,1,8,0:0:0:0:
224,192,85680,1,0,0:0:0:0:
224,192,85800,1,8,0:0:0:0:
224,192,85860,1,8,0:0:0:0:
224,192,85920,1,0,0:0:0:0:
224,192,85980,1,8,0:0:0:0:
224,192,86040,1,0,0:0:0:0:
224,192,86160,1,8,0:0:0:0:
224,192,86220,1,0,0:0:0:0:
224,192,86280,1,8,0:0:0:0:
224,192,86400,1,0,0:0:0:0:
224,192,86460,1,8,0:0:0:0:
224,192,86520,1,0,0:0:0:0:
224,192,86580,1,8,0:0:0:0:
224,192,86640,1,8,0:0:0:0:
224,192,86700,1,0,0:0:0:0:
224,192,86760,1,8,0:0:0:0:
224,192,86880,1,8,0:0:0:0:
224,192,86940,1,0,0:0:0:0:
224,192,87000,1,8,0:0:0:0:
224,192,87060,1,8,0:0:0:0:
224,192,87120,1,8,0:0:0:0:
224,192,87180,1,0,0:0:0:0:
224,192,87240,1,0,0:0:0:0:
288,192,87360,1,12,0:0:0:0:
288,192,87600,1,12,0:0:0:0:
288,192,87840,1,12,0:0:0:0:
224,192,88320,1,8,0:0:0:0:
224,192,88380,1,8,0:0:0:0:
224,192,88440,1,0,0:0:0:0:
224,192,88500,1,8,0:0:0:0:
224,192,88560,1,8,0:0:0:0:
224,192,88620,1,0,0:0:0:0:
224,192,88680,1,8,0:0:0:0:
224,192,88740,1,8,0:0:0:0:
224,192,88800,1,8,0:0:0:0:
224,192,88860,1,0,0:0:0:0:
224,192,88920,1,8,0:0:0:0:
224,192,88980,1,0,0:0:0:0:
224,192,89040,1,8,0:0:0:0:
224,192,89100,1,8,0:0:0:0:
224,192,89160,1,0,0:0:0:0:
224,192,89220,1,0,0:0:0:0:
288,192,89280,1,12,0:0:0:0:
224,192,89520,1,8,0:0:0:0:
224,192,89760,1,8,0:0:0:0:
224,192,89880,1,0,0:0:0:0:
224,192,90120,1,0,0:0:0:0:
224,192,90240,1,8,0:0:0:0:
224,192,90360,1,8,0:0:0:0:
224,192,90480,1,0,0:0:0:0:
224,192,90600,1,8,0:0:0:0:
224,192,90840,1,8,0:0:0:0:
224,192,90960,1,0,0:0:0:0:
224,192,91200,1,0,0:0:0:0:
224,192,91440,1,0,0:0:0:0:
224,192,91680,1,8,0:0:0:0:
224,192,91800,1,0,0:0:0:0:
224,192,92040,1,8,0:0:0:0:
224,192,92160,1,0,0:0:0:0:
224,192,92280,1,0,0:0:0:0:
224,192,92400,1,8,0:0:0:0:
224,192,92520,1,8,0:0:0:0:
224,192,92760,1,0,0:0:0:0:
224,192,92880,1,0,0:0:0:0:
224,192,93120,1,8,0:0:0:0:
224,192,93360,1,8,0:0:0:0:
224,192,93600,1,8,0:0:0:0:
224,192,93720,1,0,0:0:0:0:
224,192,93960,1,0,0:0:0:0:
224,192,94080,1,8,0:0:0:0:
224,192,94200,1,0,0:0:0:0:
224,192,94320,1,8,0:0:0:0:
224,192,94440,1,0,0:0:0:0:
224,192,94680,1,8,0:0:0:0:
224,192,94800,1,8,0:0:0:0:
288,192,95040,1,4,0:0:0:0:
224,192,95220,1,0,0:0:0:0:
224,192,95280,1,8,0:0:0:0:
288,192,95460,1,12,0:0:0:0:
224,192,95640,1,0,0:0:0:0:
224,192,95760,1,8,0:0:0:0:
224,192,96000,1,0,0:0:0:0:
288,192,96120,1,12,0:0:0:0:
224,192,96360,1,8,0:0:0:0:
224,192,96420,1,0,0:0:0:0:
224,192,96480,1,0,0:0:0:0:
224,192,96540,1,8,0:0:0:0:
224,192,96600,1,8,0:0:0:0:
224,192,96660,1,0,0:0:0:0:
224,192,96720,1,8,0:0:0:0:
224,192,96780,1,8,0:0:0:0:
224,192,96840,1,0,0:0:0:0:
224,192,96960,1,8,0:0:0:0:
224,192,97080,1,0,0:0:0:0:
224,192,97320,1,8,0:0:0:0:
224,192,97560,1,0,0:0:0:0:
288,192,97800,1,12,0:0:0:0:
224,192,98040,1,0,0:0:0:0:
224,192,98100,1,0,0:0:0:0:
224,192,98160,1,8,0:0:0:0:
224,192,98280,1,0,0:0:0:0:
224,192,98340,1,8,0:0:0:0:
224,192,98400,1,8,0:0:0:0:
224,192,98460,1,0,0:0:0:0:
224,192,98520,1,8,0:0:0:0:
224,192,98640,1,0,0:0:0:0:
224,192,98700,1,0,0:0:0:0:
224,192,98760,1,0,0:0:0:0:
288,192,98880,1,12,0:0:0:0:
224,192,99000,1,0,0:0:0:0:
224,192,99240,1,8,0:0:0:0:
224,192,99480,1,0,0:0:0:0:
288,192,99720,1,12,0:0:0:0:
224,192,99960,1,0,0:0:0:0:
288,192,100080,1,12,0:0:0:0:
224,192,100320,1,0,0:0:0:0:
288,192,100440,1,12,0:0:0:0:
256,192,100560,12,0,101160,0:0:0:0:
224,192,101280,5,8,0:0:0:0:
224,192,101340,1,0,0:0:0:0:
224,192,101400,1,0,0:0:0:0:
224,192,101520,1,0,0:0:0:0:
224,192,101640,1,8,0:0:0:0:
224,192,101760,1,0,0:0:0:0:
