osu file format v14

[General]
AudioFilename: audio.mp3
AudioLeadIn: 0
PreviewTime: 70440
Countdown: 0
SampleSet: Soft
StackLeniency: 0.4
Mode: 2
LetterboxInBreaks: 0
WidescreenStoryboard: 0

[Editor]
DistanceSpacing: 0.8
BeatDivisor: 4
GridSize: 32
TimelineZoom: 1.7

[Metadata]
Title:Alien Alien
TitleUnicode:エイリアンエイリアン
Artist:Hello, Happy World!
ArtistUnicode:ハロー、ハッピーワールド!
Creator:Xetopia
Version:cute diff name
Source:バンドリ!ガールズバンドパーティ!
Tags:初音ミク Hatsune Miku bang dream bandori girls band party garupa game size cover song harohapi tsurumaki kokoro 弦巻こころ itou miku 伊藤美来 seta kaoru 瀬田薫 tadokoro azusa 田所あずさ kitagawa hagumi 北沢はぐみ yoshida yuri 吉田有里 matsubara kanon 松原花音 toyota moe 豊田萌絵 michelle ミッシェル okusawa misaki 奥沢美咲 kurosawa tomoyo 黒沢ともよ
BeatmapID:1805083
BeatmapSetID:862976

[Difficulty]
HPDrainRate:7
CircleSize:6
OverallDifficulty:9.4
ApproachRate:9.4
SliderMultiplier:2.1
SliderTickRate:2

[Events]
//Background and Video events
0,0,"kokoro.jpg",0,0
//Break Periods
2,57713,63683
//Storyboard Layer 0 (Background)
//Storyboard Layer 1 (Fail)
//Storyboard Layer 2 (Pass)
//Storyboard Layer 3 (Foreground)
//Storyboard Sound Samples

[TimingPoints]
1066,394.736842105263,4,2,0,40,1,0
7381,-100,4,2,0,60,0,0
20013,-100,4,2,0,50,0,0
32644,-100,4,2,0,60,0,0
51592,-100,4,2,0,70,0,0
57908,-125,4,2,0,30,0,0
69158,-100,4,2,0,60,0,0
70539,-100,4,2,0,75,0,0
95802,-100,4,2,0,70,0,0

[Colours]
Combo1 : 255,255,255
Combo2 : 235,243,82
Combo3 : 221,60,96

[HitObjects]
256,192,1066,12,0,6789,0:0:0:0:
382,252,6987,5,0,0:0:0:0:
416,245,7052,1,0,0:0:0:0:
445,227,7118,1,0,0:0:0:0:
467,199,7184,1,0,0:0:0:0:
478,166,7250,1,0,0:0:0:0:
242,31,7381,6,0,L|135:36,1,105
307,121,7776,2,0,L|415:129,1,105
157,281,8171,2,0,L|218:280,2,52.5
330,222,8565,2,0,L|359:122,1,105
116,36,8960,6,0,L|224:31,1,105
411,128,9355,2,0,L|301:120,1,105
63,72,9750,2,0,L|117:68,1,52.5
192,62,9946,1,0,0:0:0:0:
39,133,10144,2,0,L|16:242,1,105
302,34,10539,6,0,L|365:120,1,105
181,35,10934,2,0,L|118:121,1,105
368,237,11329,2,0,L|316:235,2,52.5
183,198,11723,2,0,L|75:203,1,105
318,40,12118,6,0,L|427:46,1,105
247,39,12513,2,0,L|142:45,1,105
312,139,12908,2,0,L|369:143,1,52.5
189,134,13105,1,0,0:0:0:0:
291,200,13302,2,0,L|310:249,1,52.5
135,54,13500,2,0,L|116:103,1,52.5
445,329,13697,6,0,L|339:332,1,105
97,187,14092,2,0,L|203:192,1,105
477,40,14487,2,0,L|422:41,2,52.5
223,37,14881,2,0,L|114:35,1,105
385,39,15276,6,0,L|493:38,1,105
244,106,15671,2,0,L|197:203,1,105
439,289,16065,2,0,L|382:291,1,52.5
299,294,16261,1,0,0:0:0:0:
450,243,16460,2,0,L|475:139,1,105
201,78,16855,6,0,L|94:82,1,105
338,76,17250,2,0,L|379:175,1,105
137,306,17644,2,0,L|81:309,2,52.5
319,174,18039,2,0,L|215:172,1,105
72,167,18335,1,0,0:0:0:0:
319,174,18434,6,0,L|362:271,1,105
83,28,18829,2,0,L|40:125,1,105
326,40,19223,2,0,L|389:42,1,52.5
273,39,19421,2,0,L|269:95,1,52.5
108,210,19618,2,0,L|45:212,1,52.5
161,209,19816,2,0,L|165:265,1,52.5
437,37,20013,6,0,P|417:81|316:135,1,157.5
225,213,20408,2,0,L|336:217,1,105
161,209,20802,1,0,0:0:0:0:
111,193,20900,1,0,0:0:0:0:
78,153,20999,1,0,0:0:0:0:
230,73,21197,1,0,0:0:0:0:
78,153,21394,1,0,0:0:0:0:
327,337,21592,6,0,L|381:240,1,105
201,333,21987,2,0,L|147:236,1,105
328,204,22381,1,0,0:0:0:0:
378,188,22479,1,0,0:0:0:0:
411,148,22578,1,0,0:0:0:0:
259,68,22776,1,0,0:0:0:0:
411,148,22973,2,0,L|421:96,1,52.5
201,69,23171,6,0,P|151:114|207:157,1,157.5
311,161,23565,2,0,P|351:175|384:239,1,105
207,303,23960,2,0,L|153:307,2,52.5
326,297,24355,1,0,0:0:0:0:
207,303,24552,1,0,0:0:0:0:
457,117,24750,6,0,L|350:119,1,105
176,36,25144,2,0,L|291:40,1,105
27,169,25539,2,0,L|83:170,2,52.5
188,172,25934,1,0,0:0:0:0:
27,169,26131,1,0,0:0:0:0:
307,332,26329,6,0,P|370:308|403:229,1,157.5
298,199,26723,2,0,L|268:98,1,105
106,31,27118,2,0,L|159:35,2,52.5
284,36,27513,2,0,L|391:30,1,105
145,111,27908,6,0,L|102:213,1,105
272,203,28302,2,0,L|312:299,1,105
123,329,28697,2,0,L|65:330,2,52.5
264,325,29092,1,0,0:0:0:0:
122,329,29289,1,0,0:0:0:0:
369,45,29487,6,0,P|443:70|497:136,1,157.5
275,43,29881,2,0,P|201:68|147:134,1,157.5
376,269,30276,2,0,L|431:273,2,52.5
83,344,30671,1,0,0:0:0:0:
224,295,30868,2,0,L|233:189,1,105
375,154,31263,1,0,0:0:0:0:
117,33,31460,6,0,L|78:135,1,105
333,30,31855,1,0,0:0:0:0:
383,46,31953,1,0,0:0:0:0:
416,86,32052,1,0,0:0:0:0:
264,166,32250,1,0,0:0:0:0:
416,86,32447,1,0,0:0:0:0:
148,331,32644,6,0,L|41:338,1,105
230,209,33039,2,0,L|338:214,1,105
86,97,33434,2,0,L|142:99,2,52.5
247,105,33829,1,0,0:0:0:0:
87,95,34026,1,0,0:0:0:0:
368,40,34223,6,0,L|415:136,1,105
232,160,34618,2,0,L|185:256,1,105
431,290,35013,2,0,L|374:285,1,52.5
299,277,35210,1,0,0:0:0:0:
458,204,35408,2,0,L|484:102,1,105
197,35,35802,6,0,L|93:39,1,105
275,33,36197,2,0,L|379:37,1,105
130,161,36592,2,0,L|185:162,2,52.5
293,166,36987,1,0,0:0:0:0:
130,161,37184,1,0,0:0:0:0:
407,315,37381,6,0,L|303:310,1,105
120,312,37776,2,0,L|227:309,2,105
380,234,38368,2,0,L|384:197,1,35
267,120,38565,2,0,L|230:123,1,35
380,36,38763,2,0,L|415:39,1,35
197,280,38960,6,0,P|151:253|196:182,1,157.5
301,175,39355,2,0,L|337:73,1,105
160,30,39750,1,0,0:0:0:0:
110,46,39848,1,0,0:0:0:0:
77,86,39947,1,0,0:0:0:0:
229,166,40145,1,0,0:0:0:0:
77,86,40342,1,0,0:0:0:0:
340,322,40539,6,0,P|321:282|267:261,1,105
96,210,40934,2,0,L|83:103,1,105
328,77,41329,1,0,0:0:0:0:
287,45,41427,1,0,0:0:0:0:
236,34,41526,1,0,0:0:0:0:
108,32,41723,1,0,0:0:0:0:
236,34,41921,1,0,0:0:0:0:
480,231,42118,6,0,P|470:211|355:137,1,157.5
257,136,42513,2,0,L|241:241,1,105
418,343,42908,2,0,L|474:348,2,52.5
290,330,43302,1,0,0:0:0:0:
418,343,43500,1,0,0:0:0:0:
171,267,43697,6,0,L|277:263,1,105
102,194,44092,2,0,L|87:89,1,105
333,30,44487,1,0,0:0:0:0:
383,46,44585,1,0,0:0:0:0:
416,86,44684,1,0,0:0:0:0:
264,166,44882,1,0,0:0:0:0:
416,86,45079,1,0,0:0:0:0:
135,322,45276,6,0,B|74:318|74:318|176:303,1,157.5
279,254,45671,2,0,L|293:149,1,105
51,88,46065,1,0,0:0:0:0:
91,53,46163,1,0,0:0:0:0:
141,42,46262,1,0,0:0:0:0:
258,42,46460,1,0,0:0:0:0:
141,42,46657,1,0,0:0:0:0:
437,128,46855,6,0,L|327:132,1,105
87,280,47250,2,0,L|193:286,1,105
478,39,47644,2,0,L|424:43,2,52.5
341,50,48039,1,0,0:0:0:0:
478,39,48237,1,0,0:0:0:0:
166,300,48434,6,0,P|193:247|281:199,1,157.5
481,144,48829,2,0,P|454:91|366:43,1,157.5
138,148,49223,2,0,L|77:152,2,52.5
430,338,49618,1,0,0:0:0:0:
289,289,49815,2,0,L|280:183,1,105
138,148,50210,1,0,0:0:0:0:
382,34,50408,6,0,L|426:134,1,105
181,246,50802,2,0,L|76:252,1,105
326,248,51197,2,0,L|431:254,1,105
95,125,51592,6,0,P|60:65|123:35,1,157.5
338,134,51987,2,0,P|405:117|447:44,1,157.5
265,134,52381,2,0,P|198:117|156:44,1,157.5
445,282,52776,2,0,B|498:284|498:284|377:287,1,157.5
165,286,53171,6,0,P|75:253|38:207,1,157.5
253,162,53565,2,0,P|343:129|380:83,1,157.5
98,29,53960,2,0,P|51:75|114:107,1,157.5
414,29,54355,2,0,P|461:75|398:107,1,157.5
134,211,54750,6,0,L|243:207,1,105
378,211,55144,2,0,L|273:207,1,105
24,184,55539,2,0,L|70:90,1,105
488,184,55934,2,0,L|442:90,1,105
107,41,56329,5,0,0:0:0:0:
68,40,56427,1,0,0:0:0:0:
110,50,56526,1,0,0:0:0:0:
63,51,56624,1,0,0:0:0:0:
114,62,56723,1,0,0:0:0:0:
60,62,56821,1,0,0:0:0:0:
118,75,56921,1,0,0:0:0:0:
56,75,57019,1,0,0:0:0:0:
389,289,57118,6,0,P|446:261|482:194,1,140
486,170,57447,1,0,0:0:0:0:
256,32,57513,1,0,0:0:0:0:
198,33,64223,6,0,L|174:118,1,84
321,128,64618,2,0,L|345:213,1,84
186,293,65013,2,0,L|96:298,1,84
258,294,65408,2,0,L|385:300,1,126
137,202,65802,6,0,L|111:121,1,84
252,77,66197,2,0,L|337:79,1,84
163,76,66592,1,0,0:0:0:0:
121,76,66690,1,0,0:0:0:0:
79,77,66789,1,0,0:0:0:0:
121,76,66888,1,0,0:0:0:0:
308,73,67184,1,0,0:0:0:0:
65,191,67381,6,0,L|152:193,1,84
273,241,67776,2,0,L|279:158,1,84
447,191,68171,2,0,L|360:193,1,84
239,241,68565,1,0,0:0:0:0:
350,246,68763,1,0,0:0:0:0:
109,67,69158,1,0,0:0:0:0:
350,73,69355,5,0,0:0:0:0:
400,85,69453,1,0,0:0:0:0:
441,116,69552,1,0,0:0:0:0:
466,162,69651,1,0,0:0:0:0:
274,39,69750,2,0,L|256:93,1,52.5
350,135,69947,2,0,L|368:189,1,52.5
177,302,70144,2,0,P|106:288|44:224,1,157.5
335,302,70539,6,0,P|406:288|468:224,1,157.5
258,185,70934,1,0,0:0:0:0:
389,153,71131,1,0,0:0:0:0:
392,100,71229,1,0,0:0:0:0:
395,48,71328,1,0,0:0:0:0:
100,116,71526,1,0,0:0:0:0:
235,112,71723,1,0,0:0:0:0:
100,116,71921,1,0,0:0:0:0:
371,323,72118,6,0,B|422:322|422:322|310:307,1,157.5
95,277,72513,2,0,L|78:174,1,105
320,33,72908,2,0,L|211:31,1,105
384,125,73302,2,0,L|491:122,1,105
205,323,73697,6,0,L|149:232,1,105
328,214,74092,2,0,L|384:123,1,105
135,36,74487,2,0,L|82:37,2,52.5
290,33,74881,1,0,0:0:0:0:
135,36,75079,1,0,0:0:0:0:
414,134,75276,6,0,L|386:239,1,105
98,134,75671,2,0,L|126:239,1,105
441,351,76065,1,0,0:0:0:0:
400,317,76163,1,0,0:0:0:0:
351,301,76262,1,0,0:0:0:0:
108,273,76460,1,0,0:0:0:0:
351,301,76658,1,0,0:0:0:0:
49,103,76855,6,0,L|158:96,1,105
463,103,77250,2,0,L|354:96,1,105
107,203,77644,2,0,L|216:207,2,105
384,217,78237,1,0,0:0:0:0:
35,325,78434,6,0,P|68:288|172:240,1,157.5
477,325,78829,2,0,L|369:318,1,105
62,113,79223,6,0,L|114:112,2,52.5
224,111,79618,1,0,0:0:0:0:
60,112,79815,2,0,L|56:60,1,52.5
285,53,80013,6,0,L|393:57,1,105
227,53,80408,2,0,L|119:57,1,105
395,251,80802,1,0,0:0:0:0:
236,248,81000,1,0,0:0:0:0:
395,251,81197,1,0,0:0:0:0:
113,219,81394,6,0,L|105:167,1,52.5
309,80,81789,1,0,0:0:0:0:
63,78,81987,5,0,0:0:0:0:
192,151,82184,2,0,L|195:204,1,52.5
450,164,82381,1,0,0:0:0:0:
315,159,82579,6,0,P|270:120|329:52,1,157.5
389,50,82973,1,0,0:0:0:0:
317,51,83072,1,0,0:0:0:0:
47,264,83171,6,0,L|159:268,1,105
430,278,83565,1,0,0:0:0:0:
175,132,83763,1,0,0:0:0:0:
329,132,83960,1,0,0:0:0:0:
175,132,84158,2,0,L|172:75,1,52.5
351,28,84355,2,0,L|460:33,1,105
161,28,84750,6,0,L|52:33,1,105
303,158,85144,2,0,L|363:248,1,105
66,187,85539,2,0,L|124:188,2,52.5
307,316,85934,2,0,L|197:314,1,105
487,183,86329,6,0,L|457:80,1,105
25,183,86723,2,0,L|55:80,1,105
435,51,87118,2,0,L|322:29,1,105
77,51,87513,2,0,L|190:29,1,105
435,51,87908,1,0,0:0:0:0:
121,202,88105,5,0,0:0:0:0:
290,202,88302,1,0,0:0:0:0:
121,202,88500,1,0,0:0:0:0:
412,313,88697,2,0,L|353:313,2,52.5
145,313,89092,1,0,0:0:0:0:
415,315,89289,1,0,0:0:0:0:
64,113,89487,6,0,L|175:104,1,105
448,113,89881,2,0,L|337:104,1,105
51,30,90276,1,0,0:0:0:0:
45,82,90374,1,0,0:0:0:0:
39,134,90473,1,0,0:0:0:0:
285,250,90671,2,0,L|392:255,1,105
133,141,91065,6,0,L|19:145,1,105
379,141,91460,2,0,L|493:145,1,105
133,257,91855,6,0,L|19:261,2,105
289,251,92447,2,0,L|307:202,1,52.5
104,167,92644,6,0,L|67:69,1,105
408,167,93039,2,0,L|445:69,1,105
112,37,93434,1,0,0:0:0:0:
269,36,93631,1,0,0:0:0:0:
112,37,93829,1,0,0:0:0:0:
387,126,94026,2,0,L|440:130,2,52.5
269,213,94421,1,0,0:0:0:0:
25,292,94618,5,0,0:0:0:0:
50,246,94716,1,0,0:0:0:0:
91,213,94815,1,0,0:0:0:0:
141,197,94914,1,0,0:0:0:0:
293,147,95013,2,0,L|300:88,1,52.5
479,30,95210,6,0,L|424:31,1,52.5
325,88,95408,2,0,L|318:147,1,52.5
106,350,95605,2,0,L|49:354,1,52.5
319,169,95802,6,0,L|430:173,1,105
180,44,96197,2,0,L|69:48,1,105
356,291,96592,1,0,0:0:0:0:
198,288,96789,1,0,0:0:0:0:
377,245,96987,2,0,L|383:137,1,105
66,77,97381,6,0,L|171:73,1,105
446,77,97776,2,0,L|484:183,1,105
199,311,98171,2,0,L|260:307,1,52.5
440,298,98368,1,0,0:0:0:0:
199,311,98565,1,0,0:0:0:0:
440,298,98763,1,0,0:0:0:0:
140,48,98960,6,0,L|85:140,1,105
372,48,99355,2,0,L|427:140,1,105
56,227,99750,1,0,0:0:0:0:
128,226,99848,1,0,0:0:0:0:
56,227,99947,1,0,0:0:0:0:
297,219,100144,1,0,0:0:0:0:
139,225,100342,1,0,0:0:0:0:
392,28,100539,6,0,L|500:24,1,105
120,28,100934,2,0,L|12:24,1,105
392,28,101329,1,0,0:0:0:0:
319,29,101427,1,0,0:0:0:0:
392,28,101526,1,0,0:0:0:0:
150,28,101723,1,0,0:0:0:0:
308,27,101921,1,0,0:0:0:0:
26,98,102118,6,0,L|76:196,1,105
486,98,102513,2,0,L|436:196,1,105
53,254,102908,2,0,L|161:257,1,105
459,254,103302,2,0,L|351:257,1,105
68,338,103697,6,0,L|31:236,1,105
444,338,104092,2,0,L|481:236,1,105
161,50,104487,2,0,L|222:46,1,52.5
402,37,104684,1,0,0:0:0:0:
161,50,104881,1,0,0:0:0:0:
402,37,105079,2,0,L|431:87,1,52.5
163,188,105276,6,0,L|57:197,1,105
349,188,105671,2,0,L|455:197,1,105
109,326,106065,1,0,0:0:0:0:
267,326,106263,1,0,0:0:0:0:
109,326,106460,1,0,0:0:0:0:
380,295,106658,2,0,L|319:289,1,52.5
29,93,106855,6,0,L|136:87,1,105
483,93,107250,2,0,L|376:87,1,105
60,217,107644,2,0,L|116:212,1,52.5
220,175,107842,2,0,L|231:118,1,52.5
452,217,108039,2,0,L|396:212,1,52.5
292,175,108237,2,0,L|281:118,1,52.5
