osu file format v14

[General]
AudioFilename: audio.mp3
AudioLeadIn: 0
PreviewTime: 70440
Countdown: 0
SampleSet: None
StackLeniency: 0.4
Mode: 2
LetterboxInBreaks: 0
WidescreenStoryboard: 1

[Editor]
DistanceSpacing: 0.8
BeatDivisor: 4
GridSize: 32
TimelineZoom: 1.7

[Metadata]
Title:Alien Alien
TitleUnicode:エイリアンエイリアン
Artist:Hello, Happy World!
ArtistUnicode:ハロー、ハッピーワールド!
Creator:Xetopia
Version:Platter
Source:バンドリ!ガールズバンドパーティ!
Tags:初音ミク Hatsune Miku bang dream bandori girls band party garupa game size cover song harohapi tsurumaki kokoro 弦巻こころ itou miku 伊藤美来 seta kaoru 瀬田薫 tadokoro azusa 田所あずさ kitagawa hagumi 北沢はぐみ yoshida yuri 吉田有里 matsubara kanon 松原花音 toyota moe 豊田萌絵 michelle ミッシェル okusawa misaki 奥沢美咲 kurosawa tomoyo 黒沢ともよ
BeatmapID:1806463
BeatmapSetID:862976

[Difficulty]
HPDrainRate:5
CircleSize:3.5
OverallDifficulty:8
ApproachRate:8
SliderMultiplier:1.4
SliderTickRate:2

[Events]
//Background and Video events
0,0,"kokoro.jpg",0,0
//Break Periods
2,57713,63473
//Storyboard Layer 0 (Background)
//Storyboard Layer 1 (Fail)
//Storyboard Layer 2 (Pass)
//Storyboard Layer 3 (Foreground)
//Storyboard Sound Samples

[TimingPoints]
1066,394.736842105263,4,2,0,40,1,0
7184,-100,4,2,0,10,0,0
7381,-100,4,2,0,60,0,0
20013,-100,4,2,0,50,0,0
32644,-100,4,2,0,60,0,0
51592,-100,4,2,0,70,0,0
57908,-125,4,2,0,30,0,0
69158,-100,4,2,0,60,0,0
70539,-100,4,2,0,75,0,0
95802,-100,4,2,0,70,0,0

[Colours]
Combo1 : 255,255,255
Combo2 : 235,243,82
Combo3 : 221,60,96

[HitObjects]
256,192,1066,12,0,7184,0:0:0:0:
205,48,7381,6,0,L|129:50,1,70
316,143,7776,2,0,L|387:147,1,70
201,246,8171,2,0,L|147:248,2,35
312,321,8565,2,0,L|326:249,1,70
55,145,8960,6,0,L|41:76,1,70
219,150,9355,2,0,L|298:154,1,70
115,38,9750,2,0,L|76:37,2,35
208,41,10144,1,0,0:0:0:0:
115,38,10342,1,0,0:0:0:0:
377,135,10539,6,0,L|431:183,1,70
249,53,10934,2,0,L|195:101,1,70
374,227,11329,1,0,0:0:0:0:
408,233,11427,1,0,0:0:0:0:
436,253,11526,1,0,0:0:0:0:
349,309,11723,1,0,0:0:0:0:
436,253,11921,1,0,0:0:0:0:
165,293,12118,6,0,L|159:222,1,70
324,143,12513,2,0,L|395:147,1,70
224,49,12908,1,0,0:0:0:0:
189,55,13006,1,0,0:0:0:0:
161,75,13105,1,0,0:0:0:0:
285,160,13302,2,0,L|354:166,1,70
94,301,13697,6,0,L|10:307,1,70
195,201,14092,2,0,L|279:207,1,70
94,78,14487,1,0,0:0:0:0:
59,84,14585,1,0,0:0:0:0:
31,104,14684,1,0,0:0:0:0:
149,187,14881,2,0,L|155:261,1,70
421,336,15276,6,0,L|472:288,1,70
303,227,15671,2,0,L|252:179,1,70
428,60,16065,2,0,L|477:62,2,35
340,57,16460,1,0,0:0:0:0:
428,60,16658,1,0,0:0:0:0:
166,101,16855,6,0,L|98:132,1,70
272,194,17250,2,0,L|340:225,1,70
160,284,17644,1,0,0:0:0:0:
157,249,17742,1,0,0:0:0:0:
154,214,17841,1,0,0:0:0:0:
285,314,18039,2,0,L|366:319,1,70
90,105,18434,6,0,L|33:149,1,70
211,215,18829,2,0,L|268:259,1,70
82,339,19223,1,0,0:0:0:0:
51,322,19321,1,0,0:0:0:0:
39,290,19420,1,0,0:0:0:0:
51,258,19519,1,0,0:0:0:0:
81,242,19617,1,0,0:0:0:0:
154,228,19815,1,0,0:0:0:0:
416,233,20013,6,0,P|412:220|310:135,1,140
246,127,20605,1,0,0:0:0:0:
69,51,20802,2,0,L|21:54,2,35
157,49,21197,1,0,0:0:0:0:
69,51,21394,1,0,0:0:0:0:
247,101,21592,6,0,L|271:167,1,70
99,198,21987,2,0,L|75:264,1,70
250,301,22381,2,0,L|296:299,2,35
121,313,22776,2,0,L|51:319,1,70
230,226,23171,6,0,P|286:207|341:146,1,140
267,105,23763,1,0,0:0:0:0:
444,40,23960,2,0,L|483:42,2,35
354,35,24355,1,0,0:0:0:0:
443,39,24552,1,0,0:0:0:0:
258,105,24750,6,0,L|201:148,1,70
379,216,25144,2,0,L|402:287,1,70
225,217,25539,1,0,0:0:0:0:
214,250,25637,1,0,0:0:0:0:
203,283,25736,1,0,0:0:0:0:
284,292,25934,1,0,0:0:0:0:
364,294,26131,1,0,0:0:0:0:
93,286,26329,6,0,P|58:276|99:208,1,140
162,202,26921,1,0,0:0:0:0:
337,73,27118,2,0,L|383:74,2,35
198,73,27513,2,0,L|190:143,1,70
367,267,27908,6,0,L|289:273,1,70
117,268,28302,2,0,L|196:272,1,70
376,337,28697,1,0,0:0:0:0:
409,327,28795,1,0,0:0:0:0:
434,303,28894,1,0,0:0:0:0:
346,262,29092,1,0,0:0:0:0:
434,303,29289,1,0,0:0:0:0:
168,44,29487,6,0,L|151:112,1,70
284,43,29881,2,0,L|301:111,1,70
123,193,30276,2,0,L|61:234,1,70
340,295,30671,2,0,L|413:298,1,70
305,294,31065,2,0,L|234:290,1,70
416,208,31460,6,0,L|460:154,1,70
283,95,31855,1,0,0:0:0:0:
250,85,31953,1,0,0:0:0:0:
225,61,32052,1,0,0:0:0:0:
306,55,32250,1,0,0:0:0:0:
386,56,32447,1,0,0:0:0:0:
125,213,32644,6,0,L|51:207,1,70
232,296,33039,2,0,L|306:290,1,70
124,113,33434,2,0,L|73:113,2,35
212,113,33829,1,0,0:0:0:0:
124,112,34026,1,0,0:0:0:0:
388,42,34223,6,0,L|451:84,1,70
269,146,34618,2,0,L|259:217,1,70
446,253,35013,1,0,0:0:0:0:
450,287,35111,1,0,0:0:0:0:
455,322,35210,1,0,0:0:0:0:
369,287,35408,1,0,0:0:0:0:
455,322,35605,1,0,0:0:0:0:
184,329,35802,6,0,L|155:263,1,70
333,225,36197,2,0,L|362:159,1,70
181,140,36592,1,0,0:0:0:0:
147,134,36690,1,0,0:0:0:0:
119,114,36789,1,0,0:0:0:0:
206,58,36986,1,0,0:0:0:0:
119,114,37184,1,0,0:0:0:0:
394,35,37381,6,0,L|412:103,1,70
233,183,37776,2,0,L|159:193,1,70
345,319,38171,1,0,0:0:0:0:
378,309,38269,1,0,0:0:0:0:
407,289,38368,1,0,0:0:0:0:
427,261,38467,1,0,0:0:0:0:
437,228,38565,1,0,0:0:0:0:
364,147,38763,1,0,0:0:0:0:
96,46,38960,6,0,P|54:73|101:136,1,140
170,148,39552,1,0,0:0:0:0:
347,264,39750,2,0,L|389:265,2,35
221,323,40144,2,0,L|139:325,1,70
335,247,40539,6,0,L|360:176,1,70
177,247,40934,2,0,L|152:176,1,70
330,72,41329,1,0,0:0:0:0:
364,78,41427,1,0,0:0:0:0:
395,94,41526,1,0,0:0:0:0:
306,152,41723,1,0,0:0:0:0:
395,94,41921,1,0,0:0:0:0:
214,216,42118,6,0,P|156:225|93:286,1,140
168,321,42710,1,0,0:0:0:0:
346,335,42908,1,0,0:0:0:0:
351,300,43006,1,0,0:0:0:0:
356,265,43105,1,0,0:0:0:0:
239,203,43302,2,0,L|157:205,1,70
347,90,43697,6,0,L|423:95,1,70
236,37,44092,2,0,L|215:110,1,70
397,191,44487,1,0,0:0:0:0:
406,224,44585,1,0,0:0:0:0:
416,258,44684,1,0,0:0:0:0:
329,253,44881,1,0,0:0:0:0:
416,258,45079,1,0,0:0:0:0:
149,328,45276,6,0,P|176:290|264:243,1,140
330,236,45868,1,0,0:0:0:0:
151,113,46065,2,0,L|104:117,2,35
239,101,46460,1,0,0:0:0:0:
327,86,46658,1,0,0:0:0:0:
151,38,46855,6,0,L|105:97,1,70
285,167,47250,2,0,L|331:226,1,70
150,227,47644,1,0,0:0:0:0:
116,233,47742,1,0,0:0:0:0:
85,249,47841,1,0,0:0:0:0:
174,307,48038,1,0,0:0:0:0:
85,249,48236,1,0,0:0:0:0:
380,245,48434,6,0,L|461:241,1,70
271,151,48829,2,0,L|192:149,1,70
383,146,49223,1,0,0:0:0:0:
417,140,49321,1,0,0:0:0:0:
448,124,49420,1,0,0:0:0:0:
177,62,49618,2,0,L|140:129,1,70
252,189,50013,2,0,L|289:256,1,70
101,326,50408,6,0,L|25:323,1,70
210,226,50802,2,0,L|285:224,1,70
94,117,51197,2,0,L|16:115,1,70
309,36,51592,6,0,L|393:34,1,70
253,36,51987,2,0,L|178:33,1,70
358,199,52381,2,0,L|389:265,1,70
209,267,52776,2,0,L|178:333,1,70
452,219,53171,6,0,L|471:148,1,70
346,154,53565,2,0,L|327:83,1,70
152,52,53960,2,0,L|223:54,1,70
402,48,54355,2,0,L|331:50,1,70
53,312,54750,6,0,L|37:243,1,70
178,247,55144,2,0,L|194:178,1,70
336,177,55539,2,0,L|320:108,1,70
462,96,55934,2,0,L|487:17,1,70
221,41,56329,5,0,0:0:0:0:
190,56,56427,1,0,0:0:0:0:
178,88,56526,1,0,0:0:0:0:
191,119,56625,1,0,0:0:0:0:
222,133,56723,2,0,L|270:135,2,35
53,124,57118,2,0,L|46:230,1,105
119,227,57513,1,0,0:0:0:0:
253,68,64223,6,0,L|310:71,1,56
208,162,64618,2,0,L|146:166,1,56
341,267,65013,1,0,0:0:0:0:
396,268,65210,1,0,0:0:0:0:
452,270,65407,1,0,0:0:0:0:
396,268,65605,1,0,0:0:0:0:
202,327,65802,6,0,L|184:267,1,56
304,213,66197,2,0,L|322:153,1,56
121,39,66592,2,0,P|83:71|127:107,1,112
177,113,67184,1,0,0:0:0:0:
370,190,67381,6,0,L|482:195,3,112
233,63,69158,1,0,0:0:0:0:
140,125,69355,1,0,0:0:0:0:
136,159,69453,1,0,0:0:0:0:
133,194,69552,1,0,0:0:0:0:
311,317,69750,1,0,0:0:0:0:
345,316,69848,1,0,0:0:0:0:
377,302,69947,1,0,0:0:0:0:
403,279,70046,1,0,0:0:0:0:
417,247,70144,1,0,0:0:0:0:
153,69,70539,6,0,L|82:72,2,70
326,105,71131,2,0,P|329:123|241:200,1,140
75,297,71723,2,0,L|152:296,1,70
419,334,72118,6,0,L|452:272,1,70
276,240,72513,2,0,L|243:178,1,70
423,51,72908,2,0,P|466:87|416:143,1,140
351,152,73500,1,0,0:0:0:0:
89,286,73697,6,0,L|37:234,1,70
218,179,74092,2,0,L|267:129,1,70
91,35,74487,2,0,L|19:38,3,70
298,295,75276,6,0,L|377:283,1,70
190,189,75671,2,0,L|111:177,1,70
296,135,76065,2,0,L|315:63,1,70
181,105,76460,2,0,L|162:33,1,70
424,60,76855,6,0,L|481:113,1,70
298,191,77250,2,0,L|241:244,1,70
424,331,77644,1,0,0:0:0:0:
457,271,77841,1,0,0:0:0:0:
433,208,78038,1,0,0:0:0:0:
370,184,78236,1,0,0:0:0:0:
96,45,78434,6,0,P|116:78|215:111,1,140
279,105,79026,1,0,0:0:0:0:
99,190,79223,2,0,L|79:268,1,70
169,247,79618,1,0,0:0:0:0:
81,257,79815,1,0,0:0:0:0:
345,340,80013,6,0,L|419:344,1,70
238,203,80408,2,0,L|168:206,1,70
349,62,80802,2,0,L|426:65,2,70
78,54,81394,6,0,L|74:100,1,35
284,205,81789,1,0,0:0:0:0:
354,205,81987,2,0,L|392:206,2,35
179,83,82381,1,0,0:0:0:0:
105,90,82579,2,0,P|64:129|112:192,1,140
368,334,83171,6,0,L|441:330,2,70
191,251,83763,2,0,P|150:228|195:159,1,140
362,176,84355,2,0,L|375:102,1,70
111,42,84750,6,0,L|38:48,1,70
217,149,85144,2,0,L|287:154,1,70
155,232,85539,2,0,L|111:232,2,35
325,319,85934,2,0,L|341:247,1,70
78,158,86329,6,0,L|42:98,1,70
220,268,86723,2,0,L|256:208,1,70
77,39,87118,1,0,0:0:0:0:
47,99,87315,1,0,0:0:0:0:
73,162,87512,1,0,0:0:0:0:
138,182,87710,1,0,0:0:0:0:
405,333,87908,6,0,L|477:330,1,70
295,220,88302,2,0,L|268:152,1,70
446,145,88697,1,0,0:0:0:0:
458,112,88795,1,0,0:0:0:0:
471,79,88894,1,0,0:0:0:0:
384,79,89092,1,0,0:0:0:0:
471,79,89289,1,0,0:0:0:0:
199,41,89487,6,0,L|161:108,1,70
341,187,89881,2,0,L|379:254,1,70
194,288,90276,1,0,0:0:0:0:
159,281,90374,1,0,0:0:0:0:
132,260,90473,1,0,0:0:0:0:
220,201,90671,1,0,0:0:0:0:
132,260,90868,1,0,0:0:0:0:
403,101,91065,6,0,L|481:104,1,70
295,40,91460,2,0,L|225:42,1,70
403,207,91855,2,0,L|450:209,2,35
316,205,92250,1,0,0:0:0:0:
403,207,92447,1,0,0:0:0:0:
133,104,92644,6,0,L|56:106,1,70
244,35,93039,2,0,L|316:39,1,70
137,178,93434,1,0,0:0:0:0:
102,185,93532,1,0,0:0:0:0:
75,206,93631,1,0,0:0:0:0:
163,273,93829,1,0,0:0:0:0:
339,286,94026,1,0,0:0:0:0:
374,293,94124,1,0,0:0:0:0:
401,314,94223,1,0,0:0:0:0:
133,346,94421,5,0,0:0:0:0:
40,298,94618,1,0,0:0:0:0:
38,263,94716,1,0,0:0:0:0:
37,228,94815,1,0,0:0:0:0:
292,188,95013,5,0,0:0:0:0:
376,185,95210,1,0,0:0:0:0:
408,173,95308,1,0,0:0:0:0:
421,142,95407,1,0,0:0:0:0:
407,111,95506,1,0,0:0:0:0:
375,101,95604,1,0,0:0:0:0:
101,42,95802,6,0,L|12:47,1,70
209,109,96197,2,0,L|298:114,1,70
102,261,96592,2,0,L|13:266,3,70
297,343,97381,6,0,L|355:298,1,70
173,233,97776,2,0,L|115:188,1,70
391,142,98171,1,0,0:0:0:0:
425,136,98269,1,0,0:0:0:0:
453,116,98368,1,0,0:0:0:0:
366,60,98565,1,0,0:0:0:0:
453,116,98763,1,0,0:0:0:0:
185,48,98960,6,0,L|96:49,1,70
293,151,99355,2,0,L|334:215,1,70
150,254,99750,1,0,0:0:0:0:
131,283,99848,1,0,0:0:0:0:
112,312,99947,1,0,0:0:0:0:
200,327,100144,1,0,0:0:0:0:
112,312,100342,1,0,0:0:0:0:
377,291,100539,6,0,L|403:221,1,70
224,197,100934,2,0,L|198:127,1,70
375,142,101329,1,0,0:0:0:0:
409,136,101427,1,0,0:0:0:0:
437,116,101526,1,0,0:0:0:0:
350,60,101723,1,0,0:0:0:0:
437,116,101921,1,0,0:0:0:0:
171,47,102118,6,0,L|86:52,1,70
281,147,102513,2,0,L|311:212,1,70
134,302,102908,2,0,L|93:304,2,35
221,299,103302,1,0,0:0:0:0:
134,302,103500,1,0,0:0:0:0:
405,239,103697,6,0,L|429:165,1,70
300,93,104092,2,0,L|377:94,1,70
102,143,104487,1,0,0:0:0:0:
68,137,104585,1,0,0:0:0:0:
40,117,104684,1,0,0:0:0:0:
127,61,104881,1,0,0:0:0:0:
40,117,105079,1,0,0:0:0:0:
312,177,105276,6,0,L|374:232,1,70
189,253,105671,2,0,L|127:308,1,70
313,343,106065,2,0,L|356:345,2,35
221,334,106460,1,0,0:0:0:0:
313,343,106658,1,0,0:0:0:0:
49,254,106855,6,0,L|31:184,1,70
211,115,107250,2,0,L|284:119,1,70
105,44,107644,1,0,0:0:0:0:
70,45,107742,1,0,0:0:0:0:
35,47,107841,1,0,0:0:0:0:
211,149,108039,2,0,L|216:190,1,35
147,194,108237,2,0,L|140:237,1,35
