osu file format v14

[General]
AudioFilename: audio.mp3
AudioLeadIn: 0
PreviewTime: -1
Countdown: 1
SampleSet: None
StackLeniency: 0.7
Mode: 0
LetterboxInBreaks: 0
WidescreenStoryboard: 1

[Editor]
Bookmarks: 8975,46839,74217,97518,103925,116159
DistanceSpacing: 1
BeatDivisor: 4
GridSize: 8
TimelineZoom: 1

[Metadata]
Title:Mysterious
TitleUnicode:Mysterious
Artist:Hello Venus
ArtistUnicode:헬로비너스
Creator:Juiceys
Version:Normal
Source:
Tags:K-Pop Fantiago Entertainment Mystery of Tricell Media
BeatmapID:1501559
BeatmapSetID:707881

[Difficulty]
HPDrainRate:4
CircleSize:3.5
OverallDifficulty:4
ApproachRate:6
SliderMultiplier:1.6
SliderTickRate:1

[Events]
//Background and Video events
0,0,"Mysterious.jpg",0,0
//Break Periods
2,68591,72002
2,147815,155886
//Storyboard Layer 0 (Background)
//Storyboard Layer 1 (Fail)
//Storyboard Layer 2 (Pass)
//Storyboard Layer 3 (Foreground)
//Storyboard Sound Samples

[TimingPoints]
819,582.52427184466,4,1,0,50,1,0
19460,-100,4,3,0,50,0,0
49751,-100,4,3,0,50,0,1
68392,-100,4,3,0,50,0,0
110334,-100,4,3,0,50,0,1
128975,-100,4,3,0,50,0,0
161596,-100,4,3,0,50,0,1
177907,-100,4,3,0,50,0,0
180237,-100,4,3,0,50,0,1
198149,-100,4,3,0,50,0,0

[Colours]
Combo1 : 255,0,128
Combo2 : 255,0,0
Combo3 : 0,255,0
Combo4 : 0,0,255

[HitObjects]
225,249,10140,6,0,P|231:316|140:334,1,160,0|0,0:0|0:0,0:0:0:0:
157,182,11305,2,0,P|151:115|242:97,1,160,0|0,0:0|0:0,0:0:0:0:
317,221,12470,6,0,L|494:225,1,160,0|0,0:0|0:0,0:0:0:0:
348,128,13635,2,0,L|171:124,1,160,0|0,0:0|0:0,0:0:0:0:
286,253,14800,6,0,L|227:335,1,80,0|8,0:0|1:0,0:0:0:0:
174,271,15382,2,0,L|233:189,1,80,0|8,0:0|1:0,0:0:0:0:
155,158,15965,2,0,L|96:240,1,80,0|8,0:0|1:0,0:0:0:0:
42,177,16547,2,0,L|101:95,1,80,0|8,0:0|1:0,0:0:0:0:
150,61,17130,6,0,P|206:77|251:61,1,80,0|8,0:0|1:0,0:0:0:0:
304,56,17712,2,0,P|343:53|380:68,1,80,0|8,0:0|1:0,0:0:0:0:
411,93,18149,2,0,L|391:165,1,40,0|0,0:0|0:0,0:0:0:0:
376,208,18586,2,0,P|413:239|456:244,2,80,8|0|8,1:0|0:0|1:0,0:0:0:0:
318,151,19460,5,0,0:0:0:0:
318,151,19751,1,0,0:0:0:0:
242,178,20043,2,0,P|183:204|117:164,1,120,0|0,0:0|0:0,0:0:0:0:
104,157,20625,2,0,L|64:249,1,80,0|0,0:0|0:0,0:0:0:0:
42,304,21208,2,0,P|92:307|146:330,1,80,0|0,0:0|0:0,0:0:0:0:
191,352,21790,5,0,0:0:0:0:
265,323,22081,1,0,0:0:0:0:
333,365,22373,2,0,L|364:271,1,80,0|0,0:0|0:0,0:0:0:0:
435,269,22955,2,0,P|374:283|331:208,1,160,0|0,0:0|0:0,0:0:0:0:
213,100,24120,5,0,0:0:0:0:
213,100,24411,1,0,0:0:0:0:
285,65,24703,2,0,P|291:125|253:163,1,80
221,192,25285,2,0,L|312:225,1,80
290,299,25868,2,0,L|199:266,1,80,0|0,0:0|0:0,0:0:0:0:
136,289,26450,5,0,0:0:0:0:
70,242,26742,1,0,0:0:0:0:
107,171,27033,2,0,P|118:132|103:80,1,80,0|0,0:0|0:0,0:0:0:0:
30,90,27615,2,0,L|183:35,1,160,0|0,0:0|0:0,0:0:0:0:
248,78,28489,2,0,L|244:134,1,40,8|8,0:0|0:0,0:0:0:0:
242,157,28780,6,0,P|290:155|340:193,2,80,0|8|0,0:0|1:0|0:0,0:0:0:0:
269,232,29654,1,8,1:0:0:0:
325,288,29945,2,0,L|399:307,1,40,0|0,0:0|0:0,0:0:0:0:
439,323,30382,1,8,0:0:0:0:
466,247,30674,2,0,L|540:266,2,40,8|8|0,0:0|1:0|0:0,0:0:0:0:
428,232,31111,6,0,L|434:141,1,80,0|8,0:0|1:0,0:0:0:0:
366,108,31693,2,0,P|306:125|240:97,1,120,0|0,0:0|0:0,0:0:0:0:
216,90,32276,2,0,L|221:39,2,40,0|0|8,0:0|0:0|1:0,0:0:0:0:
178,104,32712,2,0,P|118:121|52:93,1,120,0|8,0:0|1:0,0:0:0:0:
26,174,33441,5,0,0:0:0:0:
75,236,33732,1,8,1:0:0:0:
23,297,34023,2,0,P|15:340|40:380,1,80,0|8,0:0|1:0,0:0:0:0:
97,326,34606,1,0,0:0:0:0:
168,361,34897,1,8,1:0:0:0:
231,312,35188,2,0,P|274:303|335:327,1,80,0|8,0:0|1:0,0:0:0:0:
365,253,35771,6,0,L|381:149,1,80,0|8,0:0|1:0,0:0:0:0:
302,144,36353,2,0,L|286:248,1,80,0|8,0:0|1:0,0:0:0:0:
212,200,36936,2,0,P|153:180|82:240,1,160,0|0,0:0|0:0,0:0:0:0:
160,257,37810,1,8,1:0:0:0:
213,316,38101,6,0,L|186:363,2,40,0|0|8,0:0|0:0|1:0,0:0:0:0:
287,288,38683,2,0,L|314:241,2,40,0|0|8,0:0|0:0|1:0,0:0:0:0:
336,351,39266,2,0,P|379:345|436:355,1,80,0|8,0:0|1:0,0:0:0:0:
454,357,39703,1,8,0:0:0:0:
450,277,39994,2,0,L|445:222,1,40,8|8,0:0|1:0,0:0:0:0:
380,199,40431,6,0,P|312:215|281:200,1,80,0|8,0:0|1:0,0:0:0:0:
230,183,41013,2,0,P|190:180|154:196,1,80,0|8,0:0|1:0,0:0:0:0:
82,231,41596,2,0,L|74:127,1,80,0|8,0:0|1:0,0:0:0:0:
96,116,42033,2,0,L|230:86,1,120,0|8,0:0|1:0,0:0:0:0:
276,139,42761,6,0,L|263:176,2,40,0|0|8,0:0|0:0|1:0,0:0:0:0:
348,104,43344,2,0,L|360:66,2,40,0|0|8,0:0|0:0|1:0,0:0:0:0:
392,170,43926,2,0,P|367:219|376:278,1,80,0|8,0:0|1:0,0:0:0:0:
384,278,44363,1,8,0:0:0:0:
319,325,44654,2,0,L|264:333,1,40,8|8,0:0|1:0,0:0:0:0:
211,288,45091,6,0,P|214:243|183:187,2,80,0|8|0,0:0|1:0|0:0,0:0:0:0:
167,354,45964,1,8,1:0:0:0:
88,337,46255,2,0,P|48:340|10:328,2,80,0|8|0,0:0|1:0|0:0,0:0:0:0:
133,271,47129,1,8,1:0:0:0:
197,223,47420,5,8,0:0:0:0:
276,231,47712,1,2,0:0:0:0:
331,288,48003,2,0,L|331:352,2,40,8|8|0,0:0|0:0|0:0,0:0:0:0:
385,230,48585,2,0,L|390:134,1,80,0|2,0:0|0:0,0:0:0:0:
434,83,49169,2,0,L|487:89,2,40,2|2|2,0:0|0:0|0:0,0:0:0:0:
354,78,49751,5,4,1:0:0:0:
291,128,50043,2,0,P|226:147|197:141,1,80,8|0,1:0|0:0,0:0:0:0:
181,123,50479,2,0,L|183:81,1,40,0|8,0:0|1:0,0:0:0:0:
105,104,50916,2,0,L|98:220,1,80,0|8,0:0|1:0,0:0:0:0:
62,198,51353,2,0,L|205:231,1,120,0|8,0:0|1:0,0:0:0:0:
333,181,52373,6,0,P|334:141|352:106,1,80,8|0,1:0|0:0,0:0:0:0:
392,99,52810,2,0,L|458:131,1,40,0|8,0:0|1:0,0:0:0:0:
472,183,53246,2,0,L|470:273,1,80,0|8,0:0|1:0,0:0:0:0:
468,303,53683,2,0,P|414:318|361:286,1,120,0|8,0:0|1:0,0:0:0:0:
303,231,54411,6,0,P|265:207|222:218,1,80,0|8,0:0|1:0,0:0:0:0:
153,230,54994,2,0,L|115:216,1,40,0|0,0:0|0:0,0:0:0:0:
90,99,55577,2,0,L|192:135,1,80,0|8,0:0|1:0,0:0:0:0:
206,57,56159,2,0,L|168:43,1,40,0|0,0:0|0:0,0:0:0:0:
237,142,56742,6,0,L|274:155,2,40,0|0|8,0:0|0:0|1:0,0:0:0:0:
283,76,57324,2,0,L|385:112,1,80,0|8,0:0|1:0,0:0:0:0:
350,181,57907,2,0,L|247:144,1,80,0|8,0:0|1:0,0:0:0:0:
220,213,58489,2,0,L|181:201,1,40,0|0,0:0|0:0,0:0:0:0:
158,168,58780,2,0,L|126:253,1,80,8|4,1:0|1:0,0:0:0:0:
100,317,59363,6,0,P|148:336|197:322,1,80,8|0,1:0|0:0,0:0:0:0:
213,321,59800,2,0,L|257:334,1,40,0|8,0:0|1:0,0:0:0:0:
268,253,60237,2,0,L|180:227,1,80,0|8,0:0|1:0,0:0:0:0:
151,232,60674,2,0,P|180:171|172:112,1,120,0|8,0:0|1:0,0:0:0:0:
218,52,61402,6,0,L|325:50,1,80,0|8,0:0|1:0,0:0:0:0:
373,77,61984,2,0,L|361:139,2,40,0|0|8,0:0|0:0|1:0,0:0:0:0:
453,72,62567,2,0,L|424:216,1,120,0|0,0:0|0:0,0:0:0:0:
400,219,63149,2,0,P|328:212|310:220,1,80,0|8,0:0|1:0,0:0:0:0:
250,248,63732,6,0,L|240:158,2,80,0|8|0,0:0|1:0|0:0,0:0:0:0:
190,301,64606,1,8,1:0:0:0:
116,269,64897,2,0,L|106:179,2,80,0|8|0,0:0|1:0|0:0,0:0:0:0:
251,355,66062,6,0,L|319:328,1,40,8|8,0:0|0:0,0:0:0:0:
346,285,66499,1,8,0:0:0:0:
399,225,66790,2,0,L|467:198,1,40,8|8,0:0|1:0,0:0:0:0:
473,194,67081,1,8,0:0:0:0:
444,119,67373,1,8,0:0:0:0:
415,44,67664,1,8,0:0:0:0:
415,44,68391,5,0,0:0:0:0:
200,232,73052,6,0,P|144:240|120:232,1,80,0|8,0:0|1:0,0:0:0:0:
123,152,73635,2,0,P|161:143|200:153,1,80,0|8,0:0|1:0,0:0:0:0:
279,162,74217,2,0,P|317:170|356:160,1,80,0|8,0:0|1:0,0:0:0:0:
355,80,74800,2,0,P|316:70|277:78,1,80,0|8,0:0|1:0,0:0:0:0:
206,115,75382,6,0,L|193:209,1,80,0|8,0:0|1:0,0:0:0:0:
115,205,75965,2,0,L|128:111,1,80,0|8,0:0|1:0,0:0:0:0:
132,86,76402,2,0,P|112:84|92:79,1,40
21,42,76839,1,8,1:0:0:0:
11,121,77130,2,0,L|-1:224,1,80,0|8,0:0|1:0,0:0:0:0:
36,283,77712,5,0,0:0:0:0:
36,283,78004,1,0,0:0:0:0:
36,283,78295,2,0,P|118:288|143:270,1,80,0|0,0:0|0:0,0:0:0:0:
193,260,78878,1,0,0:0:0:0:
193,260,79170,1,0,0:0:0:0:
193,260,79461,2,0,P|275:255|300:273,1,80,0|0,0:0|0:0,0:0:0:0:
348,268,80043,6,0,L|359:173,1,80,0|0,0:0|0:0,0:0:0:0:
313,121,80625,2,0,P|249:134|206:114,1,80,0|0,0:0|0:0,0:0:0:0:
157,116,81208,1,0,0:0:0:0:
298,42,81790,2,0,L|319:155,1,80,0|0,0:0|0:0,0:0:0:0:
335,205,82373,5,12,0:0:0:0:
335,205,82664,1,0,0:0:0:0:
335,205,82955,2,0,P|387:239|427:230,1,80,0|0,0:0|0:0,0:0:0:0:
399,158,83538,1,0,0:0:0:0:
399,158,83829,1,0,0:0:0:0:
399,158,84120,2,0,P|347:124|307:133,1,80,0|0,0:0|0:0,0:0:0:0:
248,140,84703,6,0,P|180:160|123:131,1,120,8|0,0:0|0:0,0:0:0:0:
101,122,85285,2,0,L|95:258,1,120,8|0,0:0|0:0,0:0:0:0:
77,278,85868,2,0,L|188:293,1,80,8|0,0:0|0:0,0:0:0:0:
236,284,86450,1,0,0:0:0:0:
269,263,86595,2,0,L|317:272,2,40
246,230,87033,6,0,L|248:140,1,80,0|8,0:0|1:0,0:0:0:0:
205,82,87615,2,0,P|165:84|128:70,1,80,0|8,0:0|1:0,0:0:0:0:
53,40,88198,2,0,L|46:100,1,40,0|0,0:0|0:0,0:0:0:0:
39,159,88635,1,8,0:0:0:0:
92,217,88926,2,0,L|151:238,2,40,8|8|0,0:0|1:0|0:0,0:0:0:0:
61,243,89363,6,0,L|64:339,1,80,0|8,0:0|1:0,0:0:0:0:
138,349,89945,2,0,P|202:353|235:332,1,80,0|8,0:0|1:0,0:0:0:0:
288,314,90528,2,0,L|351:320,2,40,0|0|8,0:0|0:0|1:0,0:0:0:0:
239,250,91111,2,0,L|247:147,1,80,0|8,0:0|1:0,0:0:0:0:
191,111,91692,5,8,0:0:0:0:
188,32,92857,1,8,0:0:0:0:
262,64,94023,5,8,0:0:0:0:
324,113,94314,1,0,0:0:0:0:
272,174,94606,2,0,P|269:251|282:267,1,80,8|0,0:0|0:0,0:0:0:0:
338,288,95188,2,0,L|199:312,1,120,8|0,0:0|0:0,0:0:0:0:
179,310,95771,2,0,P|182:259|157:215,1,80,0|0,0:0|0:0,0:0:0:0:
103,190,96353,6,0,L|44:213,2,40,0|0|8,0:0|0:0|1:0,0:0:0:0:
151,126,96936,2,0,L|210:103,2,40,0|0|8,0:0|0:0|1:0,0:0:0:0:
121,51,97518,2,0,L|195:21,1,80,0|8,0:0|1:0,0:0:0:0:
233,33,97955,1,8,0:0:0:0:
273,102,98246,2,0,L|291:157,1,40,8|8,0:0|1:0,0:0:0:0:
315,212,98683,6,0,P|369:215|418:191,2,80,0|8|0,0:0|1:0|0:0,0:0:0:0:
237,234,99557,1,8,1:0:0:0:
159,215,99848,2,0,P|120:224|44:192,1,120,0|0,0:0|0:0,0:0:0:0:
27,161,100431,2,0,L|41:61,1,80,0|8,0:0|1:0,0:0:0:0:
117,78,101013,6,0,L|108:136,2,40,0|0|8,0:0|0:0|1:0,0:0:0:0:
192,104,101596,2,0,L|183:162,2,40,0|0|8,0:0|0:0|1:0,0:0:0:0:
271,100,102178,2,0,P|313:113|373:101,1,80,0|8,0:0|1:0,0:0:0:0:
388,104,102615,1,8,0:0:0:0:
455,147,102907,2,0,L|464:214,1,40,8|8,0:0|1:0,0:0:0:0:
398,237,103343,6,0,L|303:221,1,80,0|8,0:0|1:0,0:0:0:0:
248,260,103925,2,0,L|153:276,1,80,0|8,0:0|1:0,0:0:0:0:
90,255,104509,2,0,L|74:165,1,80,0|8,0:0|1:0,0:0:0:0:
142,131,105090,2,0,L|158:41,1,80,0|8,0:0|1:0,0:0:0:0:
256,192,105674,12,8,109168,0:0:0:0:
256,98,110334,6,0,P|307:110|362:87,1,80,4|8,1:0|1:0,0:0:0:0:
411,87,110916,2,0,L|409:41,2,40,0|0|8,0:0|0:0|1:0,0:0:0:0:
453,155,111499,2,0,P|445:208|469:249,1,80,0|8,0:0|1:0,0:0:0:0:
488,251,111936,2,0,L|353:272,1,120,0|8,0:0|1:0,0:0:0:0:
292,245,112664,5,0,0:0:0:0:
220,276,112955,2,0,P|159:288|125:272,1,80,8|0,1:0|0:0,0:0:0:0:
121,249,113392,2,0,L|133:196,1,40,0|8,0:0|1:0,0:0:0:0:
131,129,113829,2,0,P|178:132|230:101,1,80,0|8,0:0|1:0,0:0:0:0:
228,85,114266,2,0,L|253:206,1,120,0|8,0:0|1:0,0:0:0:0:
313,254,114994,6,0,P|364:266|415:245,1,80,0|8,0:0|1:0,0:0:0:0:
448,205,115577,2,0,L|417:139,1,40,0|0,0:0|0:0,0:0:0:0:
333,99,116159,2,0,P|282:87|231:108,1,80,0|8,0:0|1:0,0:0:0:0:
198,148,116742,2,0,L|229:214,1,40,0|0,0:0|0:0,0:0:0:0:
323,235,117324,6,0,L|340:271,2,40,0|0|8,0:0|0:0|1:0,0:0:0:0:
356,162,117907,2,0,L|427:122,1,80,0|8,0:0|1:0,0:0:0:0:
372,63,118489,2,0,L|302:102,1,80,0|8,0:0|1:0,0:0:0:0:
224,81,119072,2,0,L|213:30,2,40,0|0|8,0:0|0:0|1:0,0:0:0:0:
186,151,119654,5,4,1:0:0:0:
129,207,119945,2,0,P|62:220|27:195,1,80,8|0,1:0|0:0,0:0:0:0:
25,188,120382,2,0,L|38:133,1,40,0|8,0:0|1:0,0:0:0:0:
30,68,120819,2,0,P|69:77|127:61,1,80,0|8,0:0|1:0,0:0:0:0:
140,46,121256,2,0,L|148:185,1,120,0|8,0:0|1:0,0:0:0:0:
111,237,121984,5,0,0:0:0:0:
149,307,122276,1,8,1:0:0:0:
223,335,122567,2,0,L|275:323,2,40,0|0|8,0:0|0:0|1:0,0:0:0:0:
149,307,123149,2,0,P|138:253|172:184,1,120,0|0,0:0|0:0,0:0:0:0:
201,187,123732,2,0,P|254:195|296:170,1,80,0|8,0:0|1:0,0:0:0:0:
238,116,124314,5,0,0:0:0:0:
309,78,124606,1,8,1:0:0:0:
385,99,124897,2,0,P|424:94|461:107,1,80,0|8,0:0|1:0,0:0:0:0:
499,177,125479,2,0,L|494:271,1,80,0|8,0:0|1:0,0:0:0:0:
489,336,126062,1,0,0:0:0:0:
383,215,126644,6,0,L|385:168,1,40,8|8,0:0|0:0,0:0:0:0:
388,94,127081,1,4,0:0:0:0:
313,64,127373,2,0,P|282:65|259:56,1,40,8|8,0:0|1:0,0:0:0:0:
234,52,127664,1,8,0:0:0:0:
198,123,127955,1,8,0:0:0:0:
162,194,128246,1,8,0:0:0:0:
126,265,128538,2,0,L|72:255,2,40,0|8|0,0:0|1:0|0:0,0:0:0:0:
161,284,128975,6,0,P|213:301|263:291,1,80,8|8,0:0|1:0,0:0:0:0:
315,280,129557,2,0,L|330:173,1,80,8|8,0:0|1:0,0:0:0:0:
338,121,130140,2,0,L|397:112,2,40,8|0|8,0:0|0:0|1:0,0:0:0:0:
263,91,130722,2,0,P|205:100|166:81,1,80,8|8,0:0|1:0,0:0:0:0:
133,32,131305,6,0,L|137:186,1,120,8|0,0:0|0:0,0:0:0:0:
138,191,131887,1,8,0:0:0:0:
138,191,132470,1,8,0:0:0:0:
243,248,132907,1,8,0:0:0:0:
273,273,133052,2,0,L|281:331,2,40,8|8|8,0:0|0:0|1:0,0:0:0:0:
337,225,133635,6,0,P|396:222|441:195,1,80,8|8,0:0|1:0,0:0:0:0:
365,151,134217,2,0,P|306:154|261:181,1,80,8|8,0:0|1:0,0:0:0:0:
227,215,134800,2,0,L|249:276,2,40,8|0|8,0:0|0:0|1:0,0:0:0:0:
156,177,135382,2,0,P|97:180|52:207,1,80,8|8,0:0|1:0,0:0:0:0:
49,262,135965,6,0,L|11:118,1,120,8|0,0:0|0:0,0:0:0:0:
29,107,136547,1,8,0:0:0:0:
29,107,137130,1,8,0:0:0:0:
136,54,137567,1,8,0:0:0:0:
173,41,137712,2,0,P|177:97|217:132,1,80,8|8,0:0|1:0,0:0:0:0:
229,121,138149,6,0,L|121:201,1,120,0|8,0:0|1:0,0:0:0:0:
53,180,138878,2,0,P|117:223|94:298,1,160,8|8,0:0|0:0,0:0:0:0:
158,347,139751,1,8,1:0:0:0:
192,326,139897,2,0,L|295:318,1,80,0|4,0:0|0:0,0:0:0:0:
337,275,140479,6,0,P|328:222|370:171,1,120,0|8,0:0|1:0,0:0:0:0:
426,118,141208,2,0,L|407:14,1,80,8|8,0:0|1:0,0:0:0:0:
333,55,141790,2,0,P|265:71|238:59,1,80,8|8,0:0|1:0,0:0:0:0:
219,55,142227,1,4,0:0:0:0:
167,116,142518,2,0,L|175:180,1,40,4|8,0:0|1:0,0:0:0:0:
182,235,142955,5,8,0:0:0:0:
261,227,143246,2,0,P|308:235|364:208,1,80,8|8,1:0|0:0,0:0:0:0:
440,163,143975,1,0,0:0:0:0:
470,137,144120,2,0,L|475:74,2,40,8|0|8,0:0|0:0|1:0,0:0:0:0:
507,208,144703,2,0,P|500:259|516:295,1,80,8|8,0:0|1:0,0:0:0:0:
453,342,145285,6,0,L|355:358,1,80,8|8,0:0|1:0,0:0:0:0:
295,337,145868,2,0,L|294:286,1,40,8|0,0:0|0:0,0:0:0:0:
255,286,146159,2,0,L|254:235,1,40,8|0,1:0|0:0,0:0:0:0:
212,177,146596,2,0,P|167:199|127:185,1,80,0|0,0:0|0:0,0:0:0:0:
100,185,147033,1,8,0:0:0:0:
222,82,147615,5,0,0:0:0:0:
256,192,156936,12,0,159266,0:0:0:0:
231,191,160577,6,0,L|289:187,1,40,0|0,0:0|0:0,0:0:0:0:
343,155,161013,1,0,0:0:0:0:
399,212,161305,2,0,L|404:267,1,40,0|0,0:0|0:0,0:0:0:0:
408,291,161596,5,4,1:0:0:0:
341,335,161887,2,0,P|285:345|242:323,1,80,8|0,1:0|0:0,0:0:0:0:
235,309,162324,2,0,L|239:263,1,40,0|8,0:0|1:0,0:0:0:0:
164,237,162761,2,0,L|154:350,1,80,0|8,0:0|1:0,0:0:0:0:
129,345,163198,1,0,0:0:0:0:
74,286,163489,1,0,0:0:0:0:
168,212,163926,6,0,P|224:210|265:168,1,80,0|8,0:0|1:0,0:0:0:0:
306,148,164509,2,0,L|333:195,2,40,0|0|8,0:0|0:0|1:0,0:0:0:0:
376,109,165091,2,0,L|415:178,1,80,0|8,0:0|1:0,0:0:0:0:
446,204,165528,2,0,P|400:243|431:322,1,120,0|8,0:0|1:0,0:0:0:0:
329,325,166256,6,0,L|232:345,1,80,0|8,0:0|1:0,0:0:0:0:
180,302,166839,2,0,L|167:229,1,40,0|0,0:0|0:0,0:0:0:0:
166,223,167130,1,8,1:0:0:0:
86,221,167421,2,0,L|106:337,1,80,0|8,0:0|1:0,0:0:0:0:
22,321,168004,2,0,L|9:248,1,40,0|0,0:0|0:0,0:0:0:0:
8,242,168295,1,8,1:0:0:0:
17,162,168586,6,0,L|63:151,1,40,0|0,0:0|0:0,0:0:0:0:
95,143,168878,1,8,1:0:0:0:
165,105,169169,2,0,P|203:115|267:90,1,80,0|8,0:0|1:0,0:0:0:0:
318,83,169751,2,0,L|325:183,1,80,0|8,0:0|1:0,0:0:0:0:
403,164,170334,2,0,L|399:114,1,40,0|0,0:0|0:0,0:0:0:0:
397,84,170625,1,8,1:0:0:0:
475,97,170916,6,0,L|483:187,1,80,4|8,1:0|1:0,0:0:0:0:
452,251,171499,2,0,L|500:285,2,40,0|0|8,0:0|0:0|1:0,0:0:0:0:
372,245,172081,2,0,P|327:259|280:247,1,80,0|8,0:0|1:0,0:0:0:0:
265,227,172518,2,0,L|279:352,1,120,0|8,0:0|1:0,0:0:0:0:
198,336,173246,6,0,P|136:348|95:332,1,80,0|8,0:0|1:0,0:0:0:0:
43,323,173829,2,0,L|28:368,2,40,0|0|8,0:0|0:0|1:0,0:0:0:0:
75,250,174411,2,0,P|139:240|183:257,1,80,0|8,0:0|1:0,0:0:0:0:
189,259,174848,2,0,L|192:136,1,120,0|8,0:0|1:0,0:0:0:0:
142,75,175577,6,0,P|78:93|45:84,1,80,0|8,0:0|1:0,0:0:0:0:
19,155,176159,2,0,L|23:244,1,80,0|8,0:0|1:0,0:0:0:0:
92,274,176742,2,0,P|156:256|189:265,1,80,0|8,0:0|1:0,0:0:0:0:
226,203,177324,2,0,L|222:114,1,80,0|8,0:0|1:0,0:0:0:0:
281,68,177907,6,0,L|347:60,1,40,8|8,0:0|0:0,0:0:0:0:
399,49,178344,1,8,0:0:0:0:
444,114,178635,2,0,L|447:178,1,40,8|8,0:0|1:0,0:0:0:0:
448,193,178926,1,8,0:0:0:0:
369,177,179217,1,8,0:0:0:0:
290,161,179509,1,8,0:0:0:0:
220,200,179800,2,0,L|212:264,2,40,0|8|0,0:0|1:0|0:0,0:0:0:0:
185,178,180237,6,0,P|134:182|101:162,1,80,12|8,0:0|1:0,0:0:0:0:
155,104,180819,2,0,L|166:61,2,40,0|0|8,0:0|0:0|1:0,0:0:0:0:
109,169,181402,2,0,L|89:246,1,80,0|8,0:0|1:0,0:0:0:0:
59,273,181839,2,0,P|121:262|176:276,1,120,0|8,0:0|1:0,0:0:0:0:
249,307,182567,6,0,P|316:315|350:302,1,80,0|8,0:0|1:0,0:0:0:0:
402,285,183149,2,0,L|426:337,2,40,0|0|8,0:0|0:0|1:0,0:0:0:0:
429,209,183732,2,0,P|418:163|432:117,1,80,0|8,0:0|1:0,0:0:0:0:
442,95,184169,1,0,0:0:0:0:
322,92,184606,2,0,L|255:113,1,40,8|0,1:0|0:0,0:0:0:0:
243,104,184897,6,0,P|272:156|271:207,1,80,0|8,0:0|1:0,0:0:0:0:
258,253,185479,2,0,L|308:279,2,40,0|0|8,0:0|0:0|1:0,0:0:0:0:
177,256,186062,2,0,P|116:256|76:277,1,80,0|8,0:0|1:0,0:0:0:0:
67,286,186499,2,0,P|78:226|46:162,1,120,0|8,0:0|1:0,0:0:0:0:
95,103,187227,6,0,L|203:85,1,80,0|8,0:0|1:0,0:0:0:0:
248,118,187810,2,0,L|254:163,2,40,0|0|8,0:0|0:0|1:0,0:0:0:0:
310,69,188392,2,0,P|349:82|400:69,1,80,0|8,0:0|1:0,0:0:0:0:
464,58,188975,2,0,L|477:3,2,40,0|0|8,0:0|0:0|1:0,0:0:0:0:
474,137,189557,6,0,P|453:187|461:222,1,80,4|8,1:0|1:0,0:0:0:0:
473,289,190140,2,0,L|511:278,2,40,0|0|8,0:0|0:0|1:0,0:0:0:0:
397,315,190722,2,0,P|329:311|306:323,1,80,0|8,0:0|1:0,0:0:0:0:
281,328,191159,2,0,P|289:266|265:211,1,120,0|8,0:0|1:0,0:0:0:0:
187,214,191887,6,0,P|143:227|97:207,1,80,0|8,0:0|1:0,0:0:0:0:
147,146,192470,2,0,L|159:90,2,40,0|0|8,0:0|0:0|1:0,0:0:0:0:
111,217,193052,2,0,P|97:265|106:308,1,80,0|8,0:0|1:0,0:0:0:0:
114,331,193489,2,0,L|258:343,1,120,0|8,0:0|1:0,0:0:0:0:
303,301,194217,6,0,L|389:308,2,80,0|8|0,0:0|1:0|0:0,0:0:0:0:
244,246,195091,1,8,1:0:0:0:
302,191,195382,2,0,L|388:198,2,80,0|8|0,0:0|1:0|0:0,0:0:0:0:
153,131,196547,6,0,L|145:79,1,40,8|8,0:0|0:0,0:0:0:0:
131,12,196984,1,8,1:0:0:0:
208,33,197276,2,0,P|243:39|266:34,1,40,8|8,0:0|1:0,0:0:0:0:
287,37,197567,1,0,0:0:0:0:
335,100,197858,1,8,0:0:0:0:
272,148,198149,1,8,0:0:0:0:
