osu file format v14

[General]
AudioFilename: audio.mp3
AudioLeadIn: 0
PreviewTime: 50043
Countdown: 1
SampleSet: None
StackLeniency: 0.7
Mode: 0
LetterboxInBreaks: 0
WidescreenStoryboard: 0

[Editor]
Bookmarks: 8975,46839
DistanceSpacing: 1.5
BeatDivisor: 4
GridSize: 8
TimelineZoom: 1

[Metadata]
Title:Mysterious
TitleUnicode:Mysterious
Artist:Hello Venus
ArtistUnicode:헬로비너스
Creator:Juiceys
Version:Hard
Source:
Tags:K-Pop Fantiago Entertainment Mystery of Tricell Media
BeatmapID:1496715
BeatmapSetID:707881

[Difficulty]
HPDrainRate:5
CircleSize:4
OverallDifficulty:5
ApproachRate:8
SliderMultiplier:1.5
SliderTickRate:1

[Events]
//Background and Video events
0,0,"Mysterious.jpg",0,0
//Break Periods
2,68592,72296
2,147815,156040
//Storyboard Layer 0 (Background)
//Storyboard Layer 1 (Fail)
//Storyboard Layer 2 (Pass)
//Storyboard Layer 3 (Foreground)
//Storyboard Sound Samples

[TimingPoints]
819,582.52427184466,4,1,0,50,1,0
19460,-100,4,3,0,50,0,0
49751,-80,4,3,0,50,0,1
68392,-80,4,3,0,50,0,0
110334,-80,4,3,0,50,0,1
128975,-80,4,3,0,50,0,0
161596,-80,4,3,0,50,0,1
177907,-80,4,3,0,50,0,0
180237,-80,4,3,0,50,0,1
198149,-80,4,3,0,50,0,0

[Colours]
Combo1 : 255,0,128
Combo2 : 255,0,0
Combo3 : 0,255,0
Combo4 : 0,0,255

[HitObjects]
161,176,8975,5,0,0:0:0:0:
336,214,9557,1,0,0:0:0:0:
373,189,9703,2,0,L|390:136,2,37.5,0|0|0,0:0|0:0|0:0,0:0:0:0:
336,214,10140,5,0,0:0:0:0:
196,269,10722,1,0,0:0:0:0:
51,226,11305,1,0,0:0:0:0:
12,81,11887,1,0,0:0:0:0:
51,226,12470,5,0,0:0:0:0:
187,163,13052,1,0,0:0:0:0:
304,256,13635,1,0,0:0:0:0:
440,193,14217,1,0,0:0:0:0:
304,128,14800,5,0,0:0:0:0:
247,176,15091,1,8,1:0:0:0:
366,81,15382,1,0,0:0:0:0:
414,138,15673,1,8,1:0:0:0:
313,24,15965,1,0,0:0:0:0:
256,71,16256,1,8,1:0:0:0:
393,22,16547,1,0,0:0:0:0:
441,79,16838,1,8,1:0:0:0:
309,169,17130,5,0,0:0:0:0:
235,157,17421,1,8,1:0:0:0:
385,184,17713,1,0,0:0:0:0:
409,254,18004,1,8,1:0:0:0:
409,254,18149,2,0,L|415:290,1,37.5,0|0,0:0|0:0,0:0:0:0:
431,364,18587,1,8,1:0:0:0:
315,326,18878,1,0,0:0:0:0:
484,262,19169,1,8,1:0:0:0:
345,148,19460,5,0,0:0:0:0:
268,88,19751,1,0,0:0:0:0:
190,147,20043,2,0,P|196:215|182:249,1,75,0|0,0:0|0:0,0:0:0:0:
153,308,20625,2,0,L|242:344,2,75,0|0|0,0:0|0:0|0:0,0:0:0:0:
64,265,21499,1,0,0:0:0:0:
203,220,21790,5,0,0:0:0:0:
164,127,22081,1,0,0:0:0:0:
115,216,22373,1,0,0:0:0:0:
153,308,22664,1,0,0:0:0:0:
243,146,22955,2,0,P|304:168|358:105,1,150,0|0,0:0|0:0,0:0:0:0:
201,289,24120,6,0,L|104:292,1,75,0|0,0:0|0:0,0:0:0:0:
126,193,24703,2,0,L|223:190,1,75,0|0,0:0|0:0,0:0:0:0:
298,187,25285,1,0,0:0:0:0:
378,242,25577,1,0,0:0:0:0:
298,187,25868,2,0,L|201:190,1,75,0|0,0:0|0:0,0:0:0:0:
154,95,26450,5,0,0:0:0:0:
70,145,26742,1,0,0:0:0:0:
154,95,27033,1,0,0:0:0:0:
238,145,27325,1,0,0:0:0:0:
70,145,27615,2,0,P|55:213|125:268,1,150,0|0,0:0|0:0,0:0:0:0:
152,285,28344,2,0,L|133:351,2,37.5,8|8|8,0:0|0:0|0:0,0:0:0:0:
170,231,28780,5,0,0:0:0:0:
278,310,29072,1,8,1:0:0:0:
343,154,29363,2,0,P|401:163|446:134,1,112.5,0|0,0:0|0:0,0:0:0:0:
385,93,29945,1,0,0:0:0:0:
385,93,30091,1,0,0:0:0:0:
272,146,30382,2,0,P|214:158|191:147,1,75,8|8,0:0|0:0,0:0:0:0:
231,86,30819,1,8,1:0:0:0:
163,235,31111,6,0,L|180:339,1,75,0|8,0:0|1:0,0:0:0:0:
68,273,31693,2,0,P|83:227|51:169,1,112.5,0|0,0:0|0:0,0:0:0:0:
9,229,32276,1,0,0:0:0:0:
9,229,32421,1,0,0:0:0:0:
55,172,32567,1,8,1:0:0:0:
55,172,32712,2,0,P|116:173|156:135,1,112.5,0|8,0:0|1:0,0:0:0:0:
325,273,33441,6,0,L|332:186,1,75,0|8,0:0|1:0,0:0:0:0:
441,178,34023,2,0,L|434:265,1,75,0|8,0:0|1:0,0:0:0:0:
331,198,34606,1,0,0:0:0:0:
434,252,34896,1,8,1:0:0:0:
325,273,35188,1,0,0:0:0:0:
441,178,35479,1,8,1:0:0:0:
316,76,35771,5,0,0:0:0:0:
233,67,36062,1,8,1:0:0:0:
347,168,36353,1,0,0:0:0:0:
430,177,36644,1,8,1:0:0:0:
265,227,36936,2,0,L|133:217,1,112.5,0|0,0:0|0:0,0:0:0:0:
96,215,37518,1,0,0:0:0:0:
299,64,37810,2,0,L|299:113,1,37.5,8|0,1:0|0:0,0:0:0:0:
340,140,38101,6,0,L|375:156,2,37.5,0|0|8,0:0|0:0|1:0,0:0:0:0:
340,252,38683,2,0,L|375:236,2,37.5,0|0|8,0:0|0:0|1:0,0:0:0:0:
236,296,39266,2,0,P|181:289|145:311,1,75,0|8,0:0|1:0,0:0:0:0:
96,344,39703,2,0,L|72:227,1,112.5,8|8,0:0|1:0,0:0:0:0:
37,108,40431,6,0,P|86:112|124:78,1,75,0|8,0:0|1:0,0:0:0:0:
213,62,41013,2,0,P|246:47|283:54,1,75,0|8,0:0|1:0,0:0:0:0:
384,104,41596,2,0,P|375:161|401:202,1,75,0|8,0:0|1:0,0:0:0:0:
445,143,42033,2,0,L|293:149,1,150,0|0,0:0|0:0,0:0:0:0:
238,152,42761,6,0,L|229:210,2,37.5,0|0|8,0:0|0:0|1:0,0:0:0:0:
316,70,43344,2,0,L|325:12,2,37.5,0|0|8,0:0|0:0|1:0,0:0:0:0:
369,168,43926,2,0,P|361:214|394:259,1,75,0|8,0:0|1:0,0:0:0:0:
429,201,44363,2,0,P|328:210|296:244,1,150,8|0,0:0|0:0,0:0:0:0:
265,288,45091,6,0,L|197:264,3,37.5,0|0|8|0,0:0|0:0|1:0|0:0,0:0:0:0:
174,216,45674,2,0,L|138:203,3,37.5,0|0|8|0,0:0|0:0|1:0|0:0,0:0:0:0:
100,133,46256,2,0,L|112:77,1,37.5,0|0,0:0|0:0,0:0:0:0:
191,79,46547,2,0,L|183:115,1,37.5,8|0,1:0|0:0,0:0:0:0:
267,90,46839,2,0,L|279:34,1,37.5,0|0,0:0|0:0,0:0:0:0:
361,33,47130,2,0,L|353:69,1,37.5,8|8,1:0|0:0,0:0:0:0:
364,148,47421,6,0,P|412:145|446:165,1,75,8|2,0:0|0:0,0:0:0:0:
502,247,48004,2,0,L|493:306,1,37.5,10|8,0:0|0:0,0:0:0:0:
395,333,48441,1,8,0:0:0:0:
289,295,48732,1,0,0:0:0:0:
289,295,48878,2,0,L|284:185,1,75,2|2,0:0|0:0,0:0:0:0:
211,256,49314,2,0,L|154:261,1,37.5,2|2,0:0|0:0,0:0:0:0:
128,263,49606,1,2,0:0:0:0:
71,183,49751,5,4,1:0:0:0:
150,101,50043,2,0,L|228:113,1,46.875,8|0,1:0|0:0,0:0:0:0:
255,69,50334,1,0,0:0:0:0:
255,69,50479,1,0,0:0:0:0:
255,69,50625,1,8,1:0:0:0:
269,213,50916,2,0,P|326:259|365:249,1,93.75,0|8,0:0|1:0,0:0:0:0:
336,187,51353,1,0,0:0:0:0:
193,237,51644,2,0,P|137:244|95:219,1,93.75,0|0,0:0|0:0,0:0:0:0:
154,172,52081,5,0,0:0:0:0:
232,304,52373,2,0,L|285:301,1,46.875,8|0,1:0|0:0,0:0:0:0:
328,250,52664,1,0,0:0:0:0:
328,250,52810,1,0,0:0:0:0:
328,250,52955,1,8,1:0:0:0:
290,114,53246,2,0,P|368:124|403:88,1,93.75,0|8,0:0|1:0,0:0:0:0:
337,60,53683,1,0,0:0:0:0:
328,200,53975,1,0,0:0:0:0:
127,136,54411,5,0,0:0:0:0:
48,228,54703,1,8,1:0:0:0:
118,61,54994,2,0,L|206:53,1,46.875,0|0,0:0|0:0,0:0:0:0:
234,46,55285,1,8,1:0:0:0:
332,146,55577,2,0,P|307:205|330:255,1,93.75,0|8,0:0|1:0,0:0:0:0:
404,124,56159,2,0,L|404:71,1,46.875
406,6,56450,1,8,1:0:0:0:
371,200,56742,5,0,0:0:0:0:
342,263,56887,1,0,0:0:0:0:
357,331,57033,1,8,1:0:0:0:
371,200,57324,2,0,L|280:157,1,93.75,0|8,0:0|1:0,0:0:0:0:
426,151,57907,2,0,L|432:264,1,93.75,0|8,0:0|1:0,0:0:0:0:
384,297,58344,1,0,0:0:0:0:
316,278,58489,2,0,L|241:285,2,46.875,0|0|8,0:0|0:0|1:0,0:0:0:0:
384,297,58926,6,0,L|389:361,1,46.875,0|4,0:0|1:0,0:0:0:0:
303,163,59363,2,0,P|253:167|212:139,1,93.75,8|0,1:0|0:0,0:0:0:0:
271,100,59800,1,0,0:0:0:0:
271,100,59945,1,8,1:0:0:0:
182,210,60237,2,0,L|196:310,1,93.75,0|8,0:0|1:0,0:0:0:0:
146,354,60674,1,0,0:0:0:0:
266,280,60965,2,0,L|369:267,1,93.75,0|0,0:0|0:0,0:0:0:0:
408,318,61402,6,0,P|377:242|396:177,1,140.625,0|0,0:0|0:0,0:0:0:0:
378,117,61984,2,0,L|321:99,1,46.875,0|0,0:0|0:0,0:0:0:0:
267,76,62276,1,8,1:0:0:0:
226,210,62567,1,0,0:0:0:0:
85,210,62858,2,0,L|69:131,1,46.875,8|0,1:0|0:0,0:0:0:0:
44,26,63295,1,0,0:0:0:0:
178,77,63586,6,0,P|235:88|275:69,1,93.75,0|0,0:0|0:0,0:0:0:0:
328,39,64023,1,8,1:0:0:0:
399,159,64314,2,0,L|393:275,1,93.75,0|8,0:0|1:0,0:0:0:0:
306,363,64897,1,0,0:0:0:0:
197,273,65188,1,8,1:0:0:0:
306,363,65479,1,0,0:0:0:0:
197,273,65771,1,8,1:0:0:0:
295,159,66062,6,0,L|342:155,1,46.875,8|8,0:0|0:0,0:0:0:0:
480,132,66499,1,8,0:0:0:0:
341,155,66790,2,0,L|294:159,1,46.875,8|8,0:0|1:0,0:0:0:0:
238,115,67081,2,0,L|247:245,1,93.75,8|8,0:0|0:0,0:0:0:0:
231,39,67664,1,8,0:0:0:0:
176,152,68392,1,0,0:0:0:0:
200,168,73052,5,0,0:0:0:0:
124,232,73344,1,8,1:0:0:0:
268,92,73635,1,0,0:0:0:0:
344,28,73925,1,8,1:0:0:0:
200,168,74217,1,0,0:0:0:0:
264,244,74509,1,8,1:0:0:0:
268,92,74799,1,0,0:0:0:0:
204,16,75091,1,8,1:0:0:0:
362,181,75382,6,0,P|375:234|417:254,1,93.75,0|8,0:0|1:0,0:0:0:0:
475,129,75965,2,0,P|467:83|430:57,1,93.75,0|8,0:0|1:0,0:0:0:0:
360,67,76402,1,0,0:0:0:0:
290,59,76547,2,0,P|226:73|192:57,1,93.75,0|8,0:0|1:0,0:0:0:0:
360,67,77130,2,0,L|361:177,1,93.75,0|8,0:0|1:0,0:0:0:0:
364,301,77712,5,0,0:0:0:0:
364,301,78004,1,0,0:0:0:0:
364,301,78295,2,0,P|291:289|250:318,1,93.75,0|0,0:0|0:0,0:0:0:0:
385,208,78878,1,0,0:0:0:0:
385,208,79170,1,0,0:0:0:0:
385,208,79461,2,0,P|458:220|499:191,1,93.75,0|0,0:0|0:0,0:0:0:0:
316,361,80043,6,0,P|302:293|323:268,1,93.75,0|0,0:0|0:0,0:0:0:0:
433,147,80625,2,0,P|447:215|426:240,1,93.75,0|0,0:0|0:0,0:0:0:0:
303,279,81208,2,0,P|214:242|159:285,1,140.625,0|0,0:0|0:0,0:0:0:0:
132,310,81790,2,0,L|120:161,1,140.625,0|0,0:0|0:0,0:0:0:0:
114,99,82373,5,12,0:0:0:0:
231,176,82664,1,0,0:0:0:0:
343,91,82955,2,0,L|369:198,1,93.75,0|0,0:0|0:0,0:0:0:0:
406,47,83538,2,0,P|325:15|293:27,1,93.75,0|0,0:0|0:0,0:0:0:0:
412,123,84120,2,0,L|438:230,1,93.75,0|0,0:0|0:0,0:0:0:0:
470,350,84703,5,8,0:0:0:0:
470,350,85285,1,8,0:0:0:0:
470,350,85868,1,8,0:0:0:0:
470,350,86450,1,2,0:0:0:0:
409,313,86596,2,0,L|362:325,2,46.875,0|0|0,0:0|0:0|0:0,0:0:0:0:
470,350,87033,6,0,L|449:222,1,93.75,0|8,0:0|1:0,0:0:0:0:
335,332,87615,2,0,P|278:333|239:289,1,93.75,0|8,0:0|1:0,0:0:0:0:
154,209,88198,2,0,L|104:240,1,46.875,0|0,0:0|0:0,0:0:0:0:
231,156,88635,1,8,0:0:0:0:
231,156,88925,2,0,L|226:102,2,46.875,8|8|0,0:0|1:0|0:0,0:0:0:0:
276,210,89363,6,0,B|314:231|314:231|369:216,1,93.75,0|8,0:0|1:0,0:0:0:0:
485,149,89945,2,0,L|498:251,1,93.75,0|8,0:0|1:0,0:0:0:0:
461,302,90382,1,0,0:0:0:0:
391,291,90528,2,0,L|302:301,1,46.875,0|0,0:0|0:0,0:0:0:0:
277,272,90819,1,8,1:0:0:0:
225,319,90965,2,0,P|233:264|122:246,1,187.5,0|0,0:0|0:0,0:0:0:0:
113,306,91693,6,0,L|55:218,3,93.75,8|0|0|0,0:0|0:0|0:0|0:0,0:0:0:0:
132,106,92858,2,0,L|190:194,3,93.75,8|0|0|0,0:0|0:0|0:0|0:0,0:0:0:0:
226,49,94023,6,0,P|276:70|334:42,1,93.75,8|0,0:0|0:0,0:0:0:0:
294,200,94606,2,0,P|244:179|186:207,1,93.75,8|0,0:0|0:0,0:0:0:0:
190,328,95188,2,0,P|240:349|342:313,1,140.625,8|0,0:0|0:0,0:0:0:0:
370,279,95771,1,0,0:0:0:0:
403,263,95916,1,0,0:0:0:0:
438,276,96062,1,0,0:0:0:0:
472,261,96208,1,0,0:0:0:0:
499,286,96353,6,0,L|494:339,2,46.875,0|0|8,0:0|0:0|1:0,0:0:0:0:
457,170,96936,2,0,L|462:117,1,46.875,0|0,0:0|0:0,0:0:0:0:
470,53,97227,1,8,1:0:0:0:
344,115,97518,2,0,P|273:149|239:131,1,93.75,0|8,0:0|1:0,0:0:0:0:
209,101,97955,2,0,L|263:243,1,140.625,8|8,0:0|1:0,0:0:0:0:
308,364,98683,5,0,0:0:0:0:
431,296,98975,1,8,1:0:0:0:
354,178,99266,1,0,0:0:0:0:
231,246,99558,1,8,1:0:0:0:
354,178,99848,2,0,P|379:90|397:78,1,93.75,0|8,0:0|1:0,0:0:0:0:
447,91,100285,2,0,L|282:44,1,140.625,0|8,0:0|1:0,0:0:0:0:
148,136,101013,6,0,L|91:104,2,46.875,0|0|8,0:0|0:0|1:0,0:0:0:0:
90,264,101596,2,0,L|147:296,2,46.875,0|0|8,0:0|0:0|1:0,0:0:0:0:
148,136,102178,2,0,P|193:95|243:108,1,93.75,0|8,0:0|1:0,0:0:0:0:
258,36,102615,2,0,L|255:180,1,140.625,8|8,0:0|1:0,0:0:0:0:
152,273,103344,6,0,L|106:244,3,46.875,0|0|8|0,0:0|0:0|1:0|0:0,0:0:0:0:
57,292,103926,2,0,L|62:185,1,93.75,0|8,0:0|1:0,0:0:0:0:
72,57,104509,2,0,L|130:67,3,46.875,0|0|8|0,0:0|0:0|1:0|0:0,0:0:0:0:
183,38,105091,2,0,P|155:93|180:129,1,93.75,0|8,0:0|1:0,0:0:0:0:
256,192,105674,12,0,107421,0:0:0:0:
186,192,107858,6,0,L|175:130,1,46.875,0|8,0:0|0:0,0:0:0:0:
131,278,108295,2,0,P|223:288|234:281,1,93.75,2|10,0:0|0:0,0:0:0:0:
271,337,108732,2,0,L|273:223,1,93.75,8|8,0:0|0:0,0:0:0:0:
274,172,109169,2,0,P|331:216|361:208,1,93.75,0|2,0:0|0:0,0:0:0:0:
485,187,109751,2,0,L|469:247,3,46.875,2|2|2|2,0:0|0:0|0:0|0:0,0:0:0:0:
453,300,110334,5,4,1:0:0:0:
442,115,110625,1,8,1:0:0:0:
442,115,110916,2,0,L|386:134,1,46.875,0|0,0:0|0:0,0:0:0:0:
326,157,111208,1,8,1:0:0:0:
176,151,111499,2,0,P|224:208|212:255,1,93.75,0|8,0:0|1:0,0:0:0:0:
154,252,111936,2,0,L|336:252,1,140.625,0|8,0:0|1:0,0:0:0:0:
444,244,112664,5,0,0:0:0:0:
369,83,112955,1,8,1:0:0:0:
268,194,113246,1,0,0:0:0:0:
268,194,113392,1,0,0:0:0:0:
268,194,113538,1,8,1:0:0:0:
369,83,113829,2,0,L|374:186,1,93.75,0|8,0:0|1:0,0:0:0:0:
359,250,114266,2,0,P|399:204|461:252,1,140.625,0|8,0:0|1:0,0:0:0:0:
299,144,114994,6,0,P|239:149|204:129,1,93.75,0|8,0:0|1:0,0:0:0:0:
345,69,115577,1,0,0:0:0:0:
345,69,115722,2,0,L|362:175,1,93.75,0|0,0:0|0:0,0:0:0:0:
340,234,116159,2,0,P|388:200|451:223,1,93.75,0|8,0:0|1:0,0:0:0:0:
489,231,116596,1,0,0:0:0:0:
457,299,116742,2,0,L|468:367,2,46.875,0|0|8,0:0|0:0|1:0,0:0:0:0:
379,109,117324,5,0,0:0:0:0:
313,145,117470,1,0,0:0:0:0:
242,119,117615,1,8,1:0:0:0:
427,56,117907,2,0,L|441:177,1,93.75,0|8,0:0|1:0,0:0:0:0:
374,190,118344,1,0,0:0:0:0:
313,145,118489,2,0,P|259:141|213:180,1,93.75,0|8,0:0|1:0,0:0:0:0:
281,212,118926,1,0,0:0:0:0:
233,270,119072,2,0,L|164:295,2,46.875,0|0|8,0:0|0:0|1:0,0:0:0:0:
281,212,119509,6,0,L|329:189,1,46.875,0|4,0:0|1:0,0:0:0:0:
164,102,119945,2,0,P|120:122|74:111,1,93.75,8|0,1:0|0:0,0:0:0:0:
114,47,120382,1,0,0:0:0:0:
114,47,120528,1,8,1:0:0:0:
44,179,120819,2,0,L|57:284,1,93.75,0|8,0:0|1:0,0:0:0:0:
13,334,121256,2,0,P|71:295|133:328,1,140.625,0|8,0:0|1:0,0:0:0:0:
152,173,121984,5,0,0:0:0:0:
278,253,122276,2,0,P|326:265|381:214,1,93.75,8|0,1:0|0:0,0:0:0:0:
317,187,122712,1,0,0:0:0:0:
317,187,122858,1,8,1:0:0:0:
186,113,123149,2,0,P|115:148|97:127,1,93.75,0|8,0:0|1:0,0:0:0:0:
75,84,123586,2,0,L|141:246,1,140.625,0|8,0:0|1:0,0:0:0:0:
176,37,124314,5,0,0:0:0:0:
294,55,124606,1,8,1:0:0:0:
180,183,124897,1,0,0:0:0:0:
233,290,125188,1,8,1:0:0:0:
85,264,125479,1,0,0:0:0:0:
180,183,125771,1,8,1:0:0:0:
350,306,126062,2,0,P|402:304|439:253,1,93.75,0|8,0:0|1:0,0:0:0:0:
436,98,126644,5,8,0:0:0:0:
436,98,126790,1,8,0:0:0:0:
312,182,127081,2,0,P|245:196|209:172,1,93.75,4|8,0:0|0:0,0:0:0:0:
266,123,127518,2,0,L|314:92,1,46.875,8|8,1:0|0:0,0:0:0:0:
184,186,127955,1,8,0:0:0:0:
42,41,128246,1,8,0:0:0:0:
42,193,128538,2,0,B|11:209,5,23.4375,0|0|8|0|0|0,0:0|0:0|1:0|0:0|0:0|0:0,0:0:0:0:
57,198,128975,6,0,L|159:226,1,93.75,8|8,0:0|1:0,0:0:0:0:
257,256,129557,1,8,0:0:0:0:
257,256,129848,1,8,1:0:0:0:
380,211,130140,2,0,P|373:241|379:270,1,46.875,8|0,0:0|0:0,0:0:0:0:
443,241,130431,2,0,P|450:211|444:182,1,46.875,8|8,1:0|0:0,0:0:0:0:
380,211,130722,2,0,P|326:190|278:120,1,140.625,8|0,0:0|0:0,0:0:0:0:
340,88,131305,6,0,L|187:80,1,140.625,8|0,0:0|0:0,0:0:0:0:
164,19,131887,2,0,L|151:197,1,140.625,8|0,0:0|0:0,0:0:0:0:
90,190,132470,2,0,L|230:197,1,140.625,8|8,0:0|0:0,0:0:0:0:
300,196,133052,1,8,0:0:0:0:
355,239,133198,2,0,L|374:293,1,46.875,8|8,0:0|1:0,0:0:0:0:
242,342,133635,5,8,0:0:0:0:
139,246,133926,2,0,L|130:191,1,46.875,8|0,1:0|0:0,0:0:0:0:
67,170,134217,2,0,L|245:168,1,140.625,8|0,0:0|0:0,0:0:0:0:
259,216,134800,2,0,P|220:168|269:79,1,140.625,8|4,0:0|0:0,0:0:0:0:
288,46,135382,1,8,0:0:0:0:
288,46,135528,1,6,0:0:0:0:
288,46,135674,1,8,1:0:0:0:
367,161,135964,6,0,P|409:222|340:302,2,187.5,8|8|8,0:0|0:0|0:0,0:0:0:0:
227,181,137421,1,8,1:0:0:0:
98,115,137712,1,8,0:0:0:0:
98,115,137858,1,4,0:0:0:0:
98,115,138004,1,8,1:0:0:0:
98,115,138149,6,0,P|140:159|257:118,1,187.5
308,169,138878,2,0,L|297:327,1,140.625,8|0,0:0|0:0,0:0:0:0:
237,345,139460,2,0,L|421:350,1,140.625,8|0,0:0|0:0,0:0:0:0:
429,300,140043,1,8,0:0:0:0:
429,300,140188,2,0,L|443:232,1,46.875,4|8,0:0|1:0,0:0:0:0:
398,119,140625,6,0,P|349:148|243:75,1,187.5,8|8,0:0|0:0,0:0:0:0:
171,208,141499,2,0,L|118:222,1,46.875,8|0,1:0|0:0,0:0:0:0:
70,175,141790,2,0,P|96:232|63:296,1,93.75,8|8,0:0|1:0,0:0:0:0:
29,296,142227,1,4,0:0:0:0:
167,320,142518,2,0,L|252:315,1,46.875,4|8,0:0|1:0,0:0:0:0:
210,176,142955,6,0,L|50:185,1,140.625,8|0,0:0|0:0,0:0:0:0:
20,132,143538,2,0,L|35:281,1,140.625,8|0,0:0|0:0,0:0:0:0:
39,348,144120,1,8,0:0:0:0:
39,348,144411,2,0,L|123:360,1,46.875,8|4,1:0|0:0,0:0:0:0:
160,352,144703,1,8,0:0:0:0:
247,246,144994,2,0,L|257:186,1,46.875,8|0,1:0|0:0,0:0:0:0:
220,138,145285,6,0,L|323:160,1,93.75,8|8,0:0|1:0,0:0:0:0:
379,137,145722,1,0,0:0:0:0:
428,187,145868,2,0,L|431:247,1,46.875,8|0,0:0|0:0,0:0:0:0:
384,287,146159,2,0,L|387:347,1,46.875,8|0,1:0|0:0,0:0:0:0:
292,229,146596,1,0,0:0:0:0:
236,271,146742,2,0,L|152:281,1,46.875,8|0,1:0|0:0,0:0:0:0:
169,344,147033,2,0,B|143:312|143:312|149:283|149:283|122:253|122:253|125:218,1,140.625,8|0,0:0|0:0,0:0:0:0:
131,153,147615,5,0,0:0:0:0:
61,118,156790,6,0,L|51:57,1,46.875,8|8,0:0|0:0,0:0:0:0:
76,210,157227,1,2,0:0:0:0:
203,164,157518,1,10,0:0:0:0:
203,164,157664,2,0,L|265:134,1,46.875,8|0,0:0|0:0,0:0:0:0:
292,91,157955,1,8,0:0:0:0:
351,129,158101,2,0,L|363:246,1,93.75,0|0,0:0|0:0,0:0:0:0:
308,352,158683,1,2,0:0:0:0:
247,316,158829,2,0,L|170:323,1,46.875,0|0,0:0|0:0,0:0:0:0:
134,295,159120,5,0,0:0:0:0:
366,137,160577,6,0,L|367:81,1,46.875
362,230,161013,2,0,L|361:286,1,46.875,0|0,0:0|0:0,0:0:0:0:
290,283,161305,2,0,L|257:267,3,23.4375,0|0|0|0,0:0|0:0|0:0|0:0,0:0:0:0:
237,256,161596,6,0,P|231:185|176:163,1,93.75,4|8,1:0|1:0,0:0:0:0:
155,319,162178,2,0,L|102:332,2,46.875,0|0|8,0:0|0:0|1:0,0:0:0:0:
310,281,162760,2,0,B|341:248|318:184,1,93.75,0|8,0:0|1:0,0:0:0:0:
296,116,163198,2,0,L|401:87,1,93.75,0|0,0:0|0:0,0:0:0:0:
461,65,163635,1,8,1:0:0:0:
205,143,163926,5,0,0:0:0:0:
123,280,164217,2,0,P|169:248|224:255,1,93.75,8|0,1:0|0:0,0:0:0:0:
189,326,164654,1,0,0:0:0:0:
189,326,164800,1,8,1:0:0:0:
78,183,165091,2,0,L|69:83,1,93.75,0|8,0:0|1:0,0:0:0:0:
128,143,165528,2,0,P|183:165|249:144,1,93.75,0|0,0:0|0:0,0:0:0:0:
291,135,165965,1,8,1:0:0:0:
434,331,166256,6,0,L|426:203,1,93.75,0|8,0:0|1:0,0:0:0:0:
371,181,166693,1,0,0:0:0:0:
303,223,166839,2,0,L|257:245,2,46.875,0|0|8,0:0|0:0|1:0,0:0:0:0:
161,296,167421,2,0,P|126:254|142:185,1,93.75,0|8,0:0|1:0,0:0:0:0:
74,154,167858,1,0,0:0:0:0:
126,93,168004,2,0,L|228:90,1,93.75,0|8,0:0|1:0,0:0:0:0:
59,247,168586,5,0,0:0:0:0:
134,220,168732,1,0,0:0:0:0:
177,152,168878,1,8,1:0:0:0:
53,252,169169,2,0,L|65:355,1,93.75,0|8,0:0|1:0,0:0:0:0:
137,315,169606,1,0,0:0:0:0:
214,332,169751,2,0,P|266:342|315:322,1,93.75,0|8,0:0|1:0,0:0:0:0:
372,288,170188,1,0,0:0:0:0:
449,307,170334,2,0,L|463:358,2,46.875,0|0|8,0:0|0:0|1:0,0:0:0:0:
371,167,170916,5,4,1:0:0:0:
211,156,171208,2,0,P|143:167|105:137,1,93.75,8|0,1:0|0:0,0:0:0:0:
167,90,171644,1,0,0:0:0:0:
241,60,171790,1,8,1:0:0:0:
193,211,172081,2,0,P|182:278|209:315,1,93.75,0|8,0:0|1:0,0:0:0:0:
259,254,172518,2,0,P|305:256|348:239,1,93.75,0|0,0:0|0:0,0:0:0:0:
420,203,172955,1,8,1:0:0:0:
184,144,173246,5,0,0:0:0:0:
39,76,173538,2,0,L|36:135,1,46.875,8|0,1:0|0:0,0:0:0:0:
39,202,173829,1,0,0:0:0:0:
39,202,173975,1,0,0:0:0:0:
39,202,174120,1,8,1:0:0:0:
196,246,174411,2,0,P|257:258|299:231,1,93.75,0|8,0:0|1:0,0:0:0:0:
240,178,174848,1,0,0:0:0:0:
371,87,175140,2,0,L|454:83,2,46.875,0|8|0,0:0|1:0|0:0,0:0:0:0:
303,44,175577,5,0,0:0:0:0:
205,31,175868,1,8,1:0:0:0:
314,146,176159,1,0,0:0:0:0:
276,237,176450,1,8,1:0:0:0:
403,52,176742,1,0,0:0:0:0:
441,143,177033,2,0,L|435:199,1,46.875,8|0,1:0|0:0,0:0:0:0:
387,273,177324,2,0,P|336:253|256:292,1,140.625,0|0,0:0|0:0,0:0:0:0:
201,339,177907,6,0,L|134:308,1,46.875,8|8,0:0|0:0,0:0:0:0:
24,232,178344,1,8,0:0:0:0:
237,131,178635,1,8,0:0:0:0:
237,131,178780,1,8,1:0:0:0:
237,131,178926,2,0,P|281:151|345:137,1,93.75,8|8,0:0|0:0,0:0:0:0:
144,74,179509,1,8,0:0:0:0:
169,231,179800,2,0,L|109:217,2,46.875,0|8|0,0:0|1:0|0:0,0:0:0:0:
240,195,180237,6,0,P|212:235|248:302,1,93.75,12|8,0:0|1:0,0:0:0:0:
289,133,180819,1,0,0:0:0:0:
362,164,180965,1,0,0:0:0:0:
439,144,181111,1,8,1:0:0:0:
280,127,181402,2,0,L|237:226,1,93.75,0|8,0:0|1:0,0:0:0:0:
188,271,181839,2,0,P|269:273|306:308,1,93.75,0|0,0:0|0:0,0:0:0:0:
343,323,182276,2,0,L|417:294,1,46.875,8|0,1:0|0:0,0:0:0:0:
443,362,182567,5,0,0:0:0:0:
419,150,182858,1,8,1:0:0:0:
314,270,183149,1,0,0:0:0:0:
240,238,183295,1,0,0:0:0:0:
170,277,183441,1,8,1:0:0:0:
329,275,183732,2,0,L|348:157,1,93.75,0|8,0:0|1:0,0:0:0:0:
336,102,184169,2,0,P|271:116|240:100,1,93.75,0|0,0:0|0:0,0:0:0:0:
290,38,184606,2,0,L|354:15,1,46.875,8|0,1:0|0:0,0:0:0:0:
411,43,184897,5,0,0:0:0:0:
343,182,185188,2,0,P|245:185|237:182,1,93.75,8|0,1:0|0:0,0:0:0:0:
174,163,185625,1,0,0:0:0:0:
174,163,185771,1,8,1:0:0:0:
329,195,186062,2,0,P|309:240|335:298,1,93.75,0|8,0:0|1:0,0:0:0:0:
353,354,186499,1,0,0:0:0:0:
210,283,186790,2,0,L|92:298,1,93.75,0|0,0:0|0:0,0:0:0:0:
55,345,187227,5,0,0:0:0:0:
117,198,187518,1,8,1:0:0:0:
295,331,187810,1,0,0:0:0:0:
355,279,187955,1,0,0:0:0:0:
415,331,188101,1,8,1:0:0:0:
321,202,188392,2,0,P|272:196|240:161,1,93.75,0|8,0:0|1:0,0:0:0:0:
207,93,188829,1,0,0:0:0:0:
139,136,188975,2,0,L|68:151,2,46.875,0|0|8,0:0|0:0|1:0,0:0:0:0:
207,93,189411,6,0,L|278:78,1,46.875,0|4,0:0|1:0,0:0:0:0:
171,220,189848,1,8,1:0:0:0:
321,167,190140,1,0,0:0:0:0:
394,196,190285,1,0,0:0:0:0:
461,154,190431,1,8,1:0:0:0:
303,178,190722,2,0,L|289:291,1,93.75,0|8,0:0|1:0,0:0:0:0:
238,330,191159,1,0,0:0:0:0:
384,267,191450,1,0,0:0:0:0:
205,108,191887,6,0,L|72:106,1,93.75,0|8,0:0|1:0,0:0:0:0:
261,51,192470,1,0,0:0:0:0:
286,126,192615,1,0,0:0:0:0:
364,109,192761,1,8,1:0:0:0:
222,181,193052,2,0,L|116:198,1,93.75,0|8,0:0|1:0,0:0:0:0:
118,274,193489,2,0,L|171:265,1,46.875,0|0,0:0|0:0,0:0:0:0:
236,301,193780,2,0,L|289:292,2,46.875,0|8|0,0:0|1:0|0:0,0:0:0:0:
169,346,194217,5,0,0:0:0:0:
97,229,194509,1,8,1:0:0:0:
343,346,194800,1,0,0:0:0:0:
415,229,195092,1,8,1:0:0:0:
256,315,195382,2,0,L|257:208,1,93.75,0|8,0:0|1:0,0:0:0:0:
202,70,195965,2,0,P|267:103|314:58,1,140.625,0|0,0:0|0:0,0:0:0:0:
375,112,196547,6,0,L|360:174,1,46.875,8|8,0:0|0:0,0:0:0:0:
404,2,196984,1,8,0:0:0:0:
434,158,197276,2,0,L|495:153,1,46.875,8|8,0:0|1:0,0:0:0:0:
510,228,197567,1,0,0:0:0:0:
341,338,197858,1,8,0:0:0:0:
434,78,198149,5,8,0:0:0:0:
