osu file format v14

[General]
AudioFilename: audio.mp3
AudioLeadIn: 0
PreviewTime: 180967
Countdown: 0
SampleSet: Normal
StackLeniency: 0.7
Mode: 1
LetterboxInBreaks: 0
WidescreenStoryboard: 1

[Editor]
DistanceSpacing: 1.5
BeatDivisor: 4
GridSize: 32
TimelineZoom: 3.199999

[Metadata]
Title:Shinwa Houkai
TitleUnicode:神話崩壊
Artist:Hello Sleepwalkers
ArtistUnicode:Hello Sleepwalkers
Creator:Capu
Version:Inner Oni
Source:
Tags:planless perfection japanese rock shuntarō narumi tasoko makoto yūki donguri buster spoes chotto matte
BeatmapID:1828391
BeatmapSetID:874856

[Difficulty]
HPDrainRate:5
CircleSize:2
OverallDifficulty:6.5
ApproachRate:8
SliderMultiplier:1.4
SliderTickRate:1

[Events]
//Background and Video events
0,0,"596610.jpg",0,0
//Break Periods
2,78450,81902
//Storyboard Layer 0 (Background)
//Storyboard Layer 1 (Fail)
//Storyboard Layer 2 (Pass)
//Storyboard Layer 3 (Foreground)
//Storyboard Sound Samples

[TimingPoints]
2598,326.086956521739,4,1,0,65,1,0
2598,-100,4,1,0,65,0,0
36511,-100,4,1,0,45,0,0
41728,-100,4,1,0,65,0,0
46945,-100,4,1,0,65,0,1
54771,-100,4,1,0,65,0,0
56076,-100,4,1,0,65,0,0
57217,-100,4,1,0,65,0,1
67815,-100,4,1,0,65,0,0
112163,-100,4,1,0,65,0,1
130424,-100,4,1,0,65,0,0
181293,-100,4,1,0,65,0,1
199554,-100,4,1,0,65,0,0

[HitObjects]
256,192,2597,5,12,0:0:0:0:
256,192,2761,1,8,0:0:0:0:
256,192,2842,1,0,0:0:0:0:
256,192,2924,1,0,0:0:0:0:
256,192,3087,1,0,0:0:0:0:
256,192,3250,1,8,0:0:0:0:
256,192,3413,1,0,0:0:0:0:
256,192,3494,1,0,0:0:0:0:
256,192,3576,1,8,0:0:0:0:
256,192,3739,1,8,0:0:0:0:
256,192,3902,1,0,0:0:0:0:
256,192,4065,1,0,0:0:0:0:
256,192,4228,1,8,0:0:0:0:
256,192,4391,1,0,0:0:0:0:
256,192,4554,1,8,0:0:0:0:
256,192,4636,1,0,0:0:0:0:
256,192,4717,1,0,0:0:0:0:
256,192,4799,1,0,0:0:0:0:
256,192,4880,1,8,0:0:0:0:
256,192,5043,1,0,0:0:0:0:
256,192,5206,1,12,0:0:0:0:
256,192,5369,1,8,0:0:0:0:
256,192,5532,1,0,0:0:0:0:
256,192,5695,1,0,0:0:0:0:
256,192,5777,1,0,0:0:0:0:
256,192,5858,1,8,0:0:0:0:
256,192,6021,1,8,0:0:0:0:
256,192,6184,1,8,0:0:0:0:
256,192,6347,1,0,0:0:0:0:
256,192,6511,1,8,0:0:0:0:
256,192,6674,1,8,0:0:0:0:
256,192,6755,1,0,0:0:0:0:
256,192,6837,1,8,0:0:0:0:
256,192,7000,1,0,0:0:0:0:
256,192,7163,1,8,0:0:0:0:
256,192,7244,1,8,0:0:0:0:
256,192,7326,1,0,0:0:0:0:
256,192,7407,1,0,0:0:0:0:
256,192,7489,1,8,0:0:0:0:
256,192,7652,1,0,0:0:0:0:
256,192,7815,1,12,0:0:0:0:
256,192,7978,1,8,0:0:0:0:
256,192,8141,1,0,0:0:0:0:
256,192,8304,1,8,0:0:0:0:
256,192,8386,1,0,0:0:0:0:
256,192,8467,1,8,0:0:0:0:
256,192,8630,1,0,0:0:0:0:
256,192,8793,1,8,0:0:0:0:
256,192,8956,1,0,0:0:0:0:
256,192,9119,1,8,0:0:0:0:
256,192,9282,1,8,0:0:0:0:
256,192,9364,1,0,0:0:0:0:
256,192,9445,1,0,0:0:0:0:
256,192,9608,1,8,0:0:0:0:
256,192,9771,1,8,0:0:0:0:
256,192,9853,1,8,0:0:0:0:
256,192,9934,1,0,0:0:0:0:
256,192,10016,1,0,0:0:0:0:
256,192,10097,1,8,0:0:0:0:
256,192,10261,1,0,0:0:0:0:
256,192,10424,1,12,0:0:0:0:
256,192,10587,1,8,0:0:0:0:
256,192,10750,1,0,0:0:0:0:
256,192,10913,1,8,0:0:0:0:
256,192,10994,1,0,0:0:0:0:
256,192,11076,1,8,0:0:0:0:
256,192,11239,1,8,0:0:0:0:
256,192,11320,1,0,0:0:0:0:
256,192,11402,1,0,0:0:0:0:
256,192,11565,1,0,0:0:0:0:
256,192,11728,1,8,0:0:0:0:
256,192,11891,1,8,0:0:0:0:
256,192,12054,1,0,0:0:0:0:
256,192,12217,1,0,0:0:0:0:
256,192,12380,1,8,0:0:0:0:
256,192,12462,1,0,0:0:0:0:
256,192,12543,1,0,0:0:0:0:
256,192,12625,1,0,0:0:0:0:
256,192,12706,1,8,0:0:0:0:
256,192,12869,1,0,0:0:0:0:
256,192,13032,1,8,0:0:0:0:
256,192,13195,1,8,0:0:0:0:
256,192,13277,1,0,0:0:0:0:
256,192,13358,1,8,0:0:0:0:
256,192,13440,1,8,0:0:0:0:
256,192,13521,1,0,0:0:0:0:
256,192,13603,1,8,0:0:0:0:
256,192,13684,1,0,0:0:0:0:
256,192,13766,1,0,0:0:0:0:
256,192,13847,1,0,0:0:0:0:
256,192,13929,1,0,0:0:0:0:
256,192,14011,1,8,0:0:0:0:
256,192,14174,1,8,0:0:0:0:
256,192,14337,1,0,0:0:0:0:
256,192,14418,1,0,0:0:0:0:
256,192,14500,1,8,0:0:0:0:
256,192,14663,1,0,0:0:0:0:
256,192,14744,1,0,0:0:0:0:
256,192,14826,1,8,0:0:0:0:
256,192,14989,1,0,0:0:0:0:
256,192,15070,1,0,0:0:0:0:
256,192,15152,1,8,0:0:0:0:
256,192,15315,1,8,0:0:0:0:
256,192,15478,1,8,0:0:0:0:
256,192,15559,1,0,0:0:0:0:
256,192,15641,1,8,0:0:0:0:
256,192,15886,1,0,0:0:0:0:
256,192,15967,1,8,0:0:0:0:
256,192,16130,1,0,0:0:0:0:
256,192,16293,1,0,0:0:0:0:
256,192,16456,1,0,0:0:0:0:
256,192,16619,1,8,0:0:0:0:
256,192,16701,1,0,0:0:0:0:
256,192,16782,1,0,0:0:0:0:
256,192,17108,1,0,0:0:0:0:
256,192,17190,1,0,0:0:0:0:
256,192,17271,1,8,0:0:0:0:
256,192,17434,1,0,0:0:0:0:
256,192,17597,1,8,0:0:0:0:
256,192,17761,1,8,0:0:0:0:
256,192,17924,1,0,0:0:0:0:
256,192,18250,1,8,0:0:0:0:
256,192,18413,1,0,0:0:0:0:
256,192,18494,1,0,0:0:0:0:
256,192,18576,1,0,0:0:0:0:
256,192,18739,1,0,0:0:0:0:
256,192,18820,1,0,0:0:0:0:
256,192,18902,1,8,0:0:0:0:
256,192,19065,1,8,0:0:0:0:
256,192,19228,1,0,0:0:0:0:
256,192,19391,1,8,0:0:0:0:
256,192,19717,1,0,0:0:0:0:
256,192,19799,1,0,0:0:0:0:
256,192,19880,1,0,0:0:0:0:
256,192,20043,1,0,0:0:0:0:
256,192,20206,1,8,0:0:0:0:
256,192,20369,1,8,0:0:0:0:
256,192,20532,1,0,0:0:0:0:
256,192,20858,1,8,0:0:0:0:
256,192,21103,1,0,0:0:0:0:
256,192,21184,1,8,0:0:0:0:
256,192,21347,1,8,0:0:0:0:
256,192,21511,1,0,0:0:0:0:
256,192,21592,1,0,0:0:0:0:
256,192,21674,1,0,0:0:0:0:
256,192,21837,1,8,0:0:0:0:
256,192,22000,1,8,0:0:0:0:
256,192,22163,1,0,0:0:0:0:
256,192,22326,1,8,0:0:0:0:
256,192,22407,1,0,0:0:0:0:
256,192,22489,1,8,0:0:0:0:
256,192,22652,1,0,0:0:0:0:
256,192,22733,1,0,0:0:0:0:
256,192,22815,1,8,0:0:0:0:
256,192,22978,1,0,0:0:0:0:
256,192,23141,1,8,0:0:0:0:
256,192,23304,1,8,0:0:0:0:
256,192,23386,1,0,0:0:0:0:
256,192,23467,1,0,0:0:0:0:
256,192,23712,1,0,0:0:0:0:
256,192,23793,1,8,0:0:0:0:
256,192,23956,1,8,0:0:0:0:
256,192,24119,1,0,0:0:0:0:
256,192,24282,1,0,0:0:0:0:
256,192,24364,1,0,0:0:0:0:
256,192,24445,1,8,0:0:0:0:
256,192,24608,1,8,0:0:0:0:
256,192,24934,1,8,0:0:0:0:
256,192,25097,1,8,0:0:0:0:
256,192,25261,1,0,0:0:0:0:
256,192,25342,1,0,0:0:0:0:
256,192,25424,1,8,0:0:0:0:
256,192,25587,1,0,0:0:0:0:
256,192,25750,1,0,0:0:0:0:
256,192,25831,1,0,0:0:0:0:
256,192,25913,1,0,0:0:0:0:
256,192,25994,1,0,0:0:0:0:
256,192,26076,1,8,0:0:0:0:
256,192,26320,1,0,0:0:0:0:
256,192,26402,1,8,0:0:0:0:
256,192,26565,1,8,0:0:0:0:
256,192,26646,1,0,0:0:0:0:
256,192,26728,1,0,0:0:0:0:
256,192,26891,1,0,0:0:0:0:
256,192,27054,1,0,0:0:0:0:
256,192,27136,1,0,0:0:0:0:
256,192,27217,1,8,0:0:0:0:
256,192,27543,1,0,0:0:0:0:
256,192,27706,1,8,0:0:0:0:
256,192,27869,1,8,0:0:0:0:
256,192,27951,1,0,0:0:0:0:
256,192,28032,1,0,0:0:0:0:
256,192,28195,1,0,0:0:0:0:
256,192,28358,1,8,0:0:0:0:
256,192,28440,1,8,0:0:0:0:
256,192,28521,1,0,0:0:0:0:
256,192,28603,1,0,0:0:0:0:
256,192,28684,1,8,0:0:0:0:
256,192,28929,1,0,0:0:0:0:
256,192,29011,1,8,0:0:0:0:
256,192,29174,1,8,0:0:0:0:
256,192,29337,1,0,0:0:0:0:
256,192,29500,1,0,0:0:0:0:
256,192,29581,1,0,0:0:0:0:
256,192,29663,1,0,0:0:0:0:
256,192,29826,1,8,0:0:0:0:
256,192,30152,1,0,0:0:0:0:
256,192,30315,1,8,0:0:0:0:
256,192,30478,1,8,0:0:0:0:
256,192,30559,1,0,0:0:0:0:
256,192,30641,1,0,0:0:0:0:
256,192,30804,1,0,0:0:0:0:
256,192,30967,1,8,0:0:0:0:
256,192,31049,1,8,0:0:0:0:
256,192,31130,1,0,0:0:0:0:
256,192,31212,1,0,0:0:0:0:
256,192,31293,1,8,0:0:0:0:
256,192,31538,1,0,0:0:0:0:
256,192,31619,1,8,0:0:0:0:
256,192,31782,1,8,0:0:0:0:
256,192,31945,1,0,0:0:0:0:
256,192,32108,1,0,0:0:0:0:
256,192,32271,1,0,0:0:0:0:
256,192,32353,1,0,0:0:0:0:
256,192,32434,1,8,0:0:0:0:
256,192,32597,1,0,0:0:0:0:
256,192,32761,1,0,0:0:0:0:
256,192,32924,1,8,0:0:0:0:
256,192,33087,1,0,0:0:0:0:
256,192,33168,1,0,0:0:0:0:
256,192,33250,1,8,0:0:0:0:
256,192,33413,1,8,0:0:0:0:
256,192,33494,1,0,0:0:0:0:
256,192,33576,1,0,0:0:0:0:
256,192,33739,1,0,0:0:0:0:
256,192,33902,1,8,0:0:0:0:
256,192,34146,1,0,0:0:0:0:
256,192,34228,1,8,0:0:0:0:
256,192,34391,1,8,0:0:0:0:
256,192,34554,1,0,0:0:0:0:
256,192,34717,1,0,0:0:0:0:
256,192,34799,1,0,0:0:0:0:
256,192,34880,1,0,0:0:0:0:
256,192,35043,1,8,0:0:0:0:
256,192,35369,1,0,0:0:0:0:
256,192,35532,1,8,0:0:0:0:
256,192,35614,1,0,0:0:0:0:
256,192,35695,1,8,0:0:0:0:
256,192,35858,1,0,0:0:0:0:
256,192,36021,1,0,0:0:0:0:
256,192,36184,1,0,0:0:0:0:
256,192,36266,1,0,0:0:0:0:
256,192,36347,1,0,0:0:0:0:
256,192,36429,1,0,0:0:0:0:
256,192,36511,1,8,0:0:0:0:
256,192,36755,1,0,0:0:0:0:
256,192,36837,1,8,0:0:0:0:
256,192,37163,1,0,0:0:0:0:
256,192,37489,1,0,0:0:0:0:
256,192,37652,1,0,0:0:0:0:
256,192,37815,1,8,0:0:0:0:
256,192,37978,1,0,0:0:0:0:
256,192,38141,1,8,0:0:0:0:
256,192,38467,1,0,0:0:0:0:
256,192,38793,1,8,0:0:0:0:
256,192,38956,1,0,0:0:0:0:
256,192,39119,1,8,0:0:0:0:
256,192,39364,1,0,0:0:0:0:
256,192,39445,1,8,0:0:0:0:
256,192,39771,1,8,0:0:0:0:
256,192,39934,1,0,0:0:0:0:
256,192,40261,1,8,0:0:0:0:
256,192,40424,1,0,0:0:0:0:
256,192,40587,1,0,0:0:0:0:
256,192,40750,1,0,0:0:0:0:
256,192,40913,1,12,0:0:0:0:
256,192,41076,1,0,0:0:0:0:
256,192,41239,1,12,0:0:0:0:
256,192,41402,1,0,0:0:0:0:
256,192,41728,1,12,0:0:0:0:
256,192,42054,1,8,0:0:0:0:
256,192,42217,1,0,0:0:0:0:
256,192,42380,1,8,0:0:0:0:
256,192,42462,1,0,0:0:0:0:
256,192,42543,1,0,0:0:0:0:
256,192,42625,1,0,0:0:0:0:
256,192,42706,1,8,0:0:0:0:
256,192,42788,1,0,0:0:0:0:
256,192,42869,1,0,0:0:0:0:
256,192,42951,1,0,0:0:0:0:
256,192,43032,1,8,0:0:0:0:
256,192,43114,1,8,0:0:0:0:
256,192,43195,1,0,0:0:0:0:
256,192,43277,1,0,0:0:0:0:
256,192,43358,1,8,0:0:0:0:
256,192,43440,1,8,0:0:0:0:
256,192,43521,1,0,0:0:0:0:
256,192,43603,1,0,0:0:0:0:
256,192,43684,1,8,0:0:0:0:
256,192,43766,1,8,0:0:0:0:
256,192,43847,1,0,0:0:0:0:
256,192,43929,1,0,0:0:0:0:
256,192,44011,1,8,0:0:0:0:
256,192,44092,1,0,0:0:0:0:
256,192,44174,1,0,0:0:0:0:
256,192,44255,1,0,0:0:0:0:
256,192,44337,1,8,0:0:0:0:
256,192,44663,1,0,0:0:0:0:
256,192,44989,1,8,0:0:0:0:
256,192,45152,1,0,0:0:0:0:
256,192,45315,1,0,0:0:0:0:
256,192,45478,1,8,0:0:0:0:
256,192,45559,1,0,0:0:0:0:
256,192,45641,1,8,0:0:0:0:
256,192,45804,1,0,0:0:0:0:
256,192,45886,1,0,0:0:0:0:
256,192,45967,1,0,0:0:0:0:
256,192,46130,1,8,0:0:0:0:
256,192,46212,1,0,0:0:0:0:
256,192,46293,1,0,0:0:0:0:
256,192,46456,1,8,0:0:0:0:
256,192,46782,1,0,0:0:0:0:
256,192,46945,1,12,0:0:0:0:
256,192,47108,1,0,0:0:0:0:
256,192,47190,1,0,0:0:0:0:
256,192,47271,1,8,0:0:0:0:
256,192,47434,1,0,0:0:0:0:
256,192,47597,1,8,0:0:0:0:
256,192,47679,1,0,0:0:0:0:
256,192,47761,1,0,0:0:0:0:
256,192,47842,1,0,0:0:0:0:
256,192,47924,1,8,0:0:0:0:
256,192,48087,1,0,0:0:0:0:
256,192,48168,1,0,0:0:0:0:
256,192,48250,1,8,0:0:0:0:
256,192,48413,1,8,0:0:0:0:
256,192,48494,1,0,0:0:0:0:
256,192,48576,1,8,0:0:0:0:
256,192,48657,1,8,0:0:0:0:
256,192,48739,1,0,0:0:0:0:
256,192,48902,1,8,0:0:0:0:
256,192,48983,1,0,0:0:0:0:
256,192,49065,1,0,0:0:0:0:
256,192,49146,1,0,0:0:0:0:
256,192,49228,1,8,0:0:0:0:
256,192,49391,1,0,0:0:0:0:
256,192,49554,1,8,0:0:0:0:
256,192,49717,1,8,0:0:0:0:
256,192,49799,1,0,0:0:0:0:
256,192,49880,1,0,0:0:0:0:
256,192,50043,1,0,0:0:0:0:
256,192,50125,1,0,0:0:0:0:
256,192,50206,1,8,0:0:0:0:
256,192,50369,1,0,0:0:0:0:
256,192,50532,1,8,0:0:0:0:
256,192,50695,1,8,0:0:0:0:
256,192,50777,1,0,0:0:0:0:
256,192,50858,1,8,0:0:0:0:
256,192,51021,1,0,0:0:0:0:
256,192,51103,1,0,0:0:0:0:
256,192,51184,1,8,0:0:0:0:
256,192,51347,1,0,0:0:0:0:
256,192,51511,1,8,0:0:0:0:
256,192,51592,1,8,0:0:0:0:
256,192,51674,1,0,0:0:0:0:
256,192,51755,1,0,0:0:0:0:
256,192,51837,1,8,0:0:0:0:
256,192,52000,1,0,0:0:0:0:
256,192,52081,1,0,0:0:0:0:
256,192,52163,1,8,0:0:0:0:
256,192,52326,1,0,0:0:0:0:
256,192,52489,1,8,0:0:0:0:
256,192,52652,1,0,0:0:0:0:
256,192,52733,1,0,0:0:0:0:
256,192,52815,1,8,0:0:0:0:
256,192,52896,1,0,0:0:0:0:
256,192,52978,1,8,0:0:0:0:
256,192,53141,1,8,0:0:0:0:
256,192,53222,1,0,0:0:0:0:
256,192,53304,1,0,0:0:0:0:
256,192,53386,1,0,0:0:0:0:
256,192,53467,1,8,0:0:0:0:
256,192,53630,1,0,0:0:0:0:
256,192,53793,1,8,0:0:0:0:
256,192,53875,1,0,0:0:0:0:
256,192,53956,1,8,0:0:0:0:
256,192,54119,1,0,0:0:0:0:
256,192,54282,1,8,0:0:0:0:
256,192,54364,1,8,0:0:0:0:
256,192,54445,1,0,0:0:0:0:
256,192,54527,1,8,0:0:0:0:
256,192,54608,1,0,0:0:0:0:
256,192,54690,1,0,0:0:0:0:
256,192,54771,1,8,0:0:0:0:
256,192,55016,1,8,0:0:0:0:
256,192,55097,1,0,0:0:0:0:
256,192,55261,1,0,0:0:0:0:
256,192,55342,1,8,0:0:0:0:
256,192,55424,1,0,0:0:0:0:
256,192,55587,1,8,0:0:0:0:
256,192,55750,1,8,0:0:0:0:
256,192,55831,1,0,0:0:0:0:
256,192,55913,1,0,0:0:0:0:
256,192,56076,1,12,0:0:0:0:
256,192,56239,1,0,0:0:0:0:
256,192,56565,1,8,0:0:0:0:
256,192,56891,1,8,0:0:0:0:
256,192,57054,1,0,0:0:0:0:
256,192,57217,1,12,0:0:0:0:
256,192,57543,1,0,0:0:0:0:
256,192,57625,1,0,0:0:0:0:
256,192,57706,1,8,0:0:0:0:
256,192,57869,1,0,0:0:0:0:
256,192,58032,1,8,0:0:0:0:
256,192,58114,1,8,0:0:0:0:
256,192,58195,1,0,0:0:0:0:
256,192,58277,1,0,0:0:0:0:
256,192,58358,1,8,0:0:0:0:
256,192,58521,1,0,0:0:0:0:
256,192,58603,1,0,0:0:0:0:
256,192,58684,1,8,0:0:0:0:
256,192,58847,1,0,0:0:0:0:
256,192,59011,1,8,0:0:0:0:
256,192,59092,1,8,0:0:0:0:
256,192,59174,1,8,0:0:0:0:
256,192,59255,1,0,0:0:0:0:
256,192,59337,1,8,0:0:0:0:
256,192,59500,1,0,0:0:0:0:
256,192,59581,1,0,0:0:0:0:
256,192,59663,1,8,0:0:0:0:
256,192,59744,1,0,0:0:0:0:
256,192,59826,1,8,0:0:0:0:
256,192,60152,1,0,0:0:0:0:
256,192,60233,1,0,0:0:0:0:
256,192,60315,1,8,0:0:0:0:
256,192,60478,1,8,0:0:0:0:
256,192,60559,1,8,0:0:0:0:
256,192,60641,1,8,0:0:0:0:
256,192,60804,1,0,0:0:0:0:
256,192,60967,1,8,0:0:0:0:
256,192,61049,1,8,0:0:0:0:
256,192,61130,1,0,0:0:0:0:
256,192,61212,1,0,0:0:0:0:
256,192,61293,1,8,0:0:0:0:
256,192,61456,1,0,0:0:0:0:
256,192,61538,1,0,0:0:0:0:
256,192,61619,1,8,0:0:0:0:
256,192,61782,1,8,0:0:0:0:
256,192,61945,1,0,0:0:0:0:
256,192,62027,1,0,0:0:0:0:
256,192,62108,1,0,0:0:0:0:
256,192,62190,1,0,0:0:0:0:
256,192,62271,1,8,0:0:0:0:
256,192,62597,1,8,0:0:0:0:
256,192,62679,1,0,0:0:0:0:
256,192,62761,1,8,0:0:0:0:
256,192,62842,1,0,0:0:0:0:
256,192,62924,1,8,0:0:0:0:
256,192,63005,1,0,0:0:0:0:
256,192,63087,1,8,0:0:0:0:
256,192,63168,1,0,0:0:0:0:
256,192,63250,1,8,0:0:0:0:
256,192,63331,1,0,0:0:0:0:
256,192,63413,1,8,0:0:0:0:
256,192,63494,1,0,0:0:0:0:
256,192,63576,1,8,0:0:0:0:
256,192,63657,1,8,0:0:0:0:
256,192,63739,1,0,0:0:0:0:
256,192,63820,1,0,0:0:0:0:
256,192,63902,1,8,0:0:0:0:
256,192,63983,1,8,0:0:0:0:
256,192,64065,1,8,0:0:0:0:
256,192,64146,1,8,0:0:0:0:
256,192,64228,1,0,0:0:0:0:
256,192,64309,1,0,0:0:0:0:
256,192,64391,1,8,0:0:0:0:
256,192,64472,1,8,0:0:0:0:
256,192,64554,1,0,0:0:0:0:
256,192,64636,1,0,0:0:0:0:
256,192,64717,1,0,0:0:0:0:
256,192,64799,1,0,0:0:0:0:
256,192,64880,1,8,0:0:0:0:
256,192,65043,1,0,0:0:0:0:
256,192,65206,1,12,0:0:0:0:
256,192,65858,1,4,0:0:0:0:
256,192,66511,1,12,0:0:0:0:
256,192,66755,1,4,0:0:0:0:
256,192,67000,1,12,0:0:0:0:
256,192,67163,1,4,0:0:0:0:
256,192,67326,1,8,0:0:0:0:
256,192,67407,1,0,0:0:0:0:
256,192,67489,1,8,0:0:0:0:
256,192,67652,1,0,0:0:0:0:
256,192,67815,1,12,0:0:0:0:
256,192,67978,1,8,0:0:0:0:
256,192,68141,1,0,0:0:0:0:
256,192,68304,1,8,0:0:0:0:
256,192,68467,1,8,0:0:0:0:
256,192,68549,1,8,0:0:0:0:
256,192,68630,1,0,0:0:0:0:
256,192,68793,1,8,0:0:0:0:
256,192,68956,1,0,0:0:0:0:
256,192,69119,1,8,0:0:0:0:
256,192,69201,1,0,0:0:0:0:
256,192,69282,1,8,0:0:0:0:
256,192,69445,1,0,0:0:0:0:
256,192,69608,1,0,0:0:0:0:
256,192,69771,1,8,0:0:0:0:
256,192,69853,1,8,0:0:0:0:
256,192,69934,1,0,0:0:0:0:
256,192,70016,1,0,0:0:0:0:
256,192,70097,1,8,0:0:0:0:
256,192,70261,1,0,0:0:0:0:
256,192,70424,1,12,0:0:0:0:
256,192,70587,1,0,0:0:0:0:
256,192,70668,1,0,0:0:0:0:
256,192,70750,1,8,0:0:0:0:
256,192,70913,1,0,0:0:0:0:
256,192,71076,1,8,0:0:0:0:
256,192,71157,1,0,0:0:0:0:
256,192,71239,1,8,0:0:0:0:
256,192,71402,1,8,0:0:0:0:
256,192,71565,1,0,0:0:0:0:
256,192,71728,1,8,0:0:0:0:
256,192,71891,1,8,0:0:0:0:
256,192,71972,1,8,0:0:0:0:
256,192,72054,1,0,0:0:0:0:
256,192,72217,1,0,0:0:0:0:
256,192,72380,1,8,0:0:0:0:
256,192,72462,1,0,0:0:0:0:
256,192,72543,1,8,0:0:0:0:
256,192,72625,1,0,0:0:0:0:
256,192,72706,1,8,0:0:0:0:
256,192,72869,1,0,0:0:0:0:
256,192,73032,1,12,0:0:0:0:
256,192,73195,1,0,0:0:0:0:
256,192,73277,1,8,0:0:0:0:
256,192,73358,1,0,0:0:0:0:
256,192,73521,1,8,0:0:0:0:
256,192,73684,1,0,0:0:0:0:
256,192,73766,1,0,0:0:0:0:
256,192,73847,1,0,0:0:0:0:
256,192,74011,1,8,0:0:0:0:
256,192,74174,1,0,0:0:0:0:
256,192,74337,1,8,0:0:0:0:
256,192,74500,1,8,0:0:0:0:
256,192,74581,1,0,0:0:0:0:
256,192,74663,1,0,0:0:0:0:
256,192,74826,1,0,0:0:0:0:
256,192,74989,1,8,0:0:0:0:
256,192,75070,1,8,0:0:0:0:
256,192,75152,1,0,0:0:0:0:
256,192,75233,1,0,0:0:0:0:
256,192,75315,1,8,0:0:0:0:
256,192,75478,1,0,0:0:0:0:
256,192,75641,1,12,0:0:0:0:
256,192,75804,1,8,0:0:0:0:
256,192,75886,1,8,0:0:0:0:
256,192,75967,1,0,0:0:0:0:
256,192,76130,1,8,0:0:0:0:
256,192,76293,1,8,0:0:0:0:
256,192,76456,1,0,0:0:0:0:
256,192,76619,1,8,0:0:0:0:
256,192,76701,1,0,0:0:0:0:
256,192,76782,1,8,0:0:0:0:
256,192,76945,1,8,0:0:0:0:
256,192,77108,1,8,0:0:0:0:
256,192,77190,1,0,0:0:0:0:
256,192,77271,1,0,0:0:0:0:
256,192,77434,1,0,0:0:0:0:
256,192,77597,1,8,0:0:0:0:
256,192,77679,1,8,0:0:0:0:
256,192,77761,1,8,0:0:0:0:
256,192,77842,1,8,0:0:0:0:
256,192,77924,1,0,0:0:0:0:
256,192,78005,1,0,0:0:0:0:
256,192,78087,1,0,0:0:0:0:
256,192,78168,1,0,0:0:0:0:
256,192,78250,1,8,0:0:0:0:
256,192,82652,5,0,0:0:0:0:
256,192,82733,1,0,0:0:0:0:
256,192,82815,1,0,0:0:0:0:
256,192,82978,1,0,0:0:0:0:
256,192,83141,1,0,0:0:0:0:
256,192,83304,1,0,0:0:0:0:
256,192,83467,1,12,0:0:0:0:
256,192,83793,1,0,0:0:0:0:
256,192,83956,1,0,0:0:0:0:
256,192,84119,1,8,0:0:0:0:
256,192,84282,1,0,0:0:0:0:
256,192,84445,1,0,0:0:0:0:
256,192,84527,1,0,0:0:0:0:
256,192,84608,1,8,0:0:0:0:
256,192,84934,1,0,0:0:0:0:
256,192,85097,1,8,0:0:0:0:
256,192,85424,1,8,0:0:0:0:
256,192,85587,1,0,0:0:0:0:
256,192,85750,1,0,0:0:0:0:
256,192,85831,1,0,0:0:0:0:
256,192,85913,1,8,0:0:0:0:
256,192,86076,1,0,0:0:0:0:
256,192,86402,1,0,0:0:0:0:
256,192,86565,1,0,0:0:0:0:
256,192,86646,1,0,0:0:0:0:
256,192,86728,1,8,0:0:0:0:
256,192,86972,1,8,0:0:0:0:
256,192,87217,1,8,0:0:0:0:
256,192,87380,1,0,0:0:0:0:
256,192,87543,1,0,0:0:0:0:
256,192,87706,1,0,0:0:0:0:
256,192,88032,1,8,0:0:0:0:
256,192,88114,1,8,0:0:0:0:
256,192,88195,1,0,0:0:0:0:
256,192,88277,1,0,0:0:0:0:
256,192,88358,1,8,0:0:0:0:
256,192,88521,1,0,0:0:0:0:
256,192,88684,1,12,0:0:0:0:
256,192,89011,1,0,0:0:0:0:
256,192,89174,1,0,0:0:0:0:
256,192,89255,1,0,0:0:0:0:
256,192,89337,1,8,0:0:0:0:
256,192,89581,1,8,0:0:0:0:
256,192,89663,1,0,0:0:0:0:
256,192,89826,1,8,0:0:0:0:
256,192,90152,1,0,0:0:0:0:
256,192,90315,1,8,0:0:0:0:
256,192,90478,1,0,0:0:0:0:
256,192,90641,1,8,0:0:0:0:
256,192,90722,1,0,0:0:0:0:
256,192,90804,1,0,0:0:0:0:
256,192,90967,1,8,0:0:0:0:
256,192,91130,1,0,0:0:0:0:
256,192,91212,1,0,0:0:0:0:
256,192,91293,1,0,0:0:0:0:
256,192,91619,1,0,0:0:0:0:
256,192,91782,1,8,0:0:0:0:
256,192,91945,1,0,0:0:0:0:
256,192,92271,1,0,0:0:0:0:
256,192,92434,1,8,0:0:0:0:
256,192,92761,1,0,0:0:0:0:
256,192,92924,1,0,0:0:0:0:
256,192,93087,1,8,0:0:0:0:
256,192,93250,1,0,0:0:0:0:
256,192,93413,1,0,0:0:0:0:
256,192,93576,1,0,0:0:0:0:
256,192,93657,1,0,0:0:0:0:
256,192,93739,1,0,0:0:0:0:
256,192,93820,1,0,0:0:0:0:
256,192,93902,1,12,0:0:0:0:
256,192,94228,1,0,0:0:0:0:
256,192,94309,1,0,0:0:0:0:
256,192,94391,1,8,0:0:0:0:
256,192,94717,1,8,0:0:0:0:
256,192,95043,1,0,0:0:0:0:
256,192,95369,1,0,0:0:0:0:
256,192,95451,1,0,0:0:0:0:
256,192,95532,1,8,0:0:0:0:
256,192,95777,1,0,0:0:0:0:
256,192,95858,1,0,0:0:0:0:
256,192,96021,1,0,0:0:0:0:
256,192,96184,1,8,0:0:0:0:
256,192,96347,1,8,0:0:0:0:
256,192,96429,1,0,0:0:0:0:
256,192,96511,1,0,0:0:0:0:
256,192,96674,1,8,0:0:0:0:
256,192,96837,1,0,0:0:0:0:
256,192,97000,1,8,0:0:0:0:
256,192,97163,1,0,0:0:0:0:
256,192,97326,1,8,0:0:0:0:
256,192,97489,1,0,0:0:0:0:
256,192,97570,1,0,0:0:0:0:
256,192,97652,1,8,0:0:0:0:
256,192,97978,1,0,0:0:0:0:
256,192,98141,1,8,0:0:0:0:
256,192,98467,1,8,0:0:0:0:
256,192,98549,1,8,0:0:0:0:
256,192,98630,1,0,0:0:0:0:
256,192,98712,1,0,0:0:0:0:
256,192,98793,1,8,0:0:0:0:
256,192,98875,1,8,0:0:0:0:
256,192,98956,1,0,0:0:0:0:
256,192,99119,1,12,0:0:0:0:
256,192,99282,1,0,0:0:0:0:
256,192,99364,1,0,0:0:0:0:
256,192,99445,1,8,0:0:0:0:
256,192,99527,1,8,0:0:0:0:
256,192,99608,1,0,0:0:0:0:
256,192,99771,1,8,0:0:0:0:
256,192,99934,1,0,0:0:0:0:
256,192,100016,1,0,0:0:0:0:
256,192,100097,1,8,0:0:0:0:
256,192,100261,1,0,0:0:0:0:
256,192,100424,1,8,0:0:0:0:
256,192,100587,1,0,0:0:0:0:
256,192,100668,1,0,0:0:0:0:
256,192,100750,1,8,0:0:0:0:
256,192,100831,1,8,0:0:0:0:
256,192,100913,1,0,0:0:0:0:
256,192,101076,1,8,0:0:0:0:
256,192,101157,1,8,0:0:0:0:
256,192,101239,1,0,0:0:0:0:
256,192,101320,1,0,0:0:0:0:
256,192,101402,1,8,0:0:0:0:
256,192,101483,1,8,0:0:0:0:
256,192,101565,1,0,0:0:0:0:
256,192,101728,1,8,0:0:0:0:
256,192,101891,1,0,0:0:0:0:
256,192,101972,1,0,0:0:0:0:
256,192,102054,1,8,0:0:0:0:
256,192,102136,1,0,0:0:0:0:
256,192,102217,1,0,0:0:0:0:
256,192,102380,1,8,0:0:0:0:
256,192,102462,1,0,0:0:0:0:
256,192,102543,1,8,0:0:0:0:
256,192,102706,1,8,0:0:0:0:
256,192,102869,1,0,0:0:0:0:
256,192,102951,1,8,0:0:0:0:
256,192,103032,1,0,0:0:0:0:
256,192,103195,1,0,0:0:0:0:
256,192,103358,1,8,0:0:0:0:
256,192,103440,1,0,0:0:0:0:
256,192,103521,1,8,0:0:0:0:
256,192,103603,1,8,0:0:0:0:
256,192,103684,1,0,0:0:0:0:
256,192,103766,1,0,0:0:0:0:
256,192,103847,1,8,0:0:0:0:
256,192,103929,1,8,0:0:0:0:
256,192,104011,1,0,0:0:0:0:
256,192,104174,1,0,0:0:0:0:
256,192,104337,1,12,0:0:0:0:
256,192,104500,1,0,0:0:0:0:
256,192,104581,1,0,0:0:0:0:
256,192,104663,1,8,0:0:0:0:
256,192,104826,1,0,0:0:0:0:
256,192,104989,1,8,0:0:0:0:
256,192,105070,1,8,0:0:0:0:
256,192,105152,1,0,0:0:0:0:
256,192,105233,1,0,0:0:0:0:
256,192,105315,1,8,0:0:0:0:
256,192,105478,1,8,0:0:0:0:
256,192,105559,1,0,0:0:0:0:
256,192,105641,1,8,0:0:0:0:
256,192,105804,1,0,0:0:0:0:
256,192,105967,1,8,0:0:0:0:
256,192,106130,1,0,0:0:0:0:
256,192,106212,1,0,0:0:0:0:
256,192,106293,1,8,0:0:0:0:
256,192,106375,1,0,0:0:0:0:
256,192,106456,1,0,0:0:0:0:
256,192,106619,1,8,0:0:0:0:
256,192,106701,1,0,0:0:0:0:
256,192,106782,1,0,0:0:0:0:
256,192,106864,1,0,0:0:0:0:
256,192,106945,1,12,0:0:0:0:
256,192,107271,1,8,0:0:0:0:
256,192,107597,1,0,0:0:0:0:
256,192,107761,1,8,0:0:0:0:
256,192,108087,1,8,0:0:0:0:
256,192,108250,1,0,0:0:0:0:
256,192,108576,1,0,0:0:0:0:
256,192,108739,1,8,0:0:0:0:
256,192,109065,1,0,0:0:0:0:
256,192,109228,1,8,0:0:0:0:
256,192,109391,1,0,0:0:0:0:
256,192,109472,1,0,0:0:0:0:
256,192,109554,1,8,0:0:0:0:
256,192,109717,1,0,0:0:0:0:
256,192,109799,1,0,0:0:0:0:
256,192,109880,1,8,0:0:0:0:
256,192,110043,1,0,0:0:0:0:
256,192,110125,1,0,0:0:0:0:
256,192,110206,1,8,0:0:0:0:
256,192,110369,1,8,0:0:0:0:
256,192,110451,1,0,0:0:0:0:
256,192,110532,1,0,0:0:0:0:
256,192,110695,1,8,0:0:0:0:
256,192,110858,1,8,0:0:0:0:
256,192,110940,1,0,0:0:0:0:
256,192,111021,1,0,0:0:0:0:
256,192,111184,1,8,0:0:0:0:
256,192,111347,1,8,0:0:0:0:
256,192,111429,1,0,0:0:0:0:
256,192,111511,1,8,0:0:0:0:
256,192,111674,1,0,0:0:0:0:
256,192,111755,1,0,0:0:0:0:
256,192,111837,1,0,0:0:0:0:
256,192,111918,1,0,0:0:0:0:
256,192,112000,1,0,0:0:0:0:
256,192,112081,1,0,0:0:0:0:
256,192,112163,1,12,0:0:0:0:
256,192,112326,1,0,0:0:0:0:
256,192,112407,1,0,0:0:0:0:
256,192,112489,1,8,0:0:0:0:
256,192,112652,1,8,0:0:0:0:
256,192,112815,1,8,0:0:0:0:
256,192,112896,1,8,0:0:0:0:
256,192,112978,1,0,0:0:0:0:
256,192,113059,1,0,0:0:0:0:
256,192,113141,1,8,0:0:0:0:
256,192,113304,1,0,0:0:0:0:
256,192,113386,1,0,0:0:0:0:
256,192,113467,1,8,0:0:0:0:
256,192,113630,1,8,0:0:0:0:
256,192,113712,1,0,0:0:0:0:
256,192,113793,1,8,0:0:0:0:
256,192,113956,1,0,0:0:0:0:
256,192,114038,1,0,0:0:0:0:
256,192,114119,1,8,0:0:0:0:
256,192,114201,1,0,0:0:0:0:
256,192,114282,1,8,0:0:0:0:
256,192,114445,1,0,0:0:0:0:
256,192,114608,1,12,0:0:0:0:
256,192,114934,1,0,0:0:0:0:
256,192,115016,1,0,0:0:0:0:
256,192,115097,1,8,0:0:0:0:
256,192,115261,1,0,0:0:0:0:
256,192,115424,1,8,0:0:0:0:
256,192,115505,1,8,0:0:0:0:
256,192,115587,1,8,0:0:0:0:
256,192,115750,1,0,0:0:0:0:
256,192,115913,1,0,0:0:0:0:
256,192,116076,1,8,0:0:0:0:
256,192,116157,1,8,0:0:0:0:
256,192,116239,1,0,0:0:0:0:
256,192,116320,1,0,0:0:0:0:
256,192,116402,1,8,0:0:0:0:
256,192,116483,1,8,0:0:0:0:
256,192,116565,1,0,0:0:0:0:
256,192,116646,1,0,0:0:0:0:
256,192,116728,1,8,0:0:0:0:
256,192,116891,1,0,0:0:0:0:
256,192,117054,1,8,0:0:0:0:
256,192,117217,1,0,0:0:0:0:
256,192,117299,1,0,0:0:0:0:
256,192,117380,1,8,0:0:0:0:
256,192,117543,1,0,0:0:0:0:
256,192,117706,1,8,0:0:0:0:
256,192,117869,1,8,0:0:0:0:
256,192,117951,1,0,0:0:0:0:
256,192,118032,1,8,0:0:0:0:
256,192,118195,1,0,0:0:0:0:
256,192,118358,1,8,0:0:0:0:
256,192,118440,1,0,0:0:0:0:
256,192,118521,1,0,0:0:0:0:
256,192,118603,1,0,0:0:0:0:
256,192,118684,1,8,0:0:0:0:
256,192,118847,1,0,0:0:0:0:
256,192,119011,1,8,0:0:0:0:
256,192,119174,1,0,0:0:0:0:
256,192,119255,1,0,0:0:0:0:
256,192,119337,1,8,0:0:0:0:
256,192,119418,1,0,0:0:0:0:
256,192,119500,1,8,0:0:0:0:
256,192,119663,1,8,0:0:0:0:
256,192,119826,1,0,0:0:0:0:
256,192,119907,1,0,0:0:0:0:
256,192,119989,1,8,0:0:0:0:
256,192,120152,1,8,0:0:0:0:
256,192,120233,1,0,0:0:0:0:
256,192,120315,1,8,0:0:0:0:
256,192,120478,1,0,0:0:0:0:
256,192,120559,1,0,0:0:0:0:
256,192,120641,1,8,0:0:0:0:
256,192,120804,1,8,0:0:0:0:
256,192,120886,1,0,0:0:0:0:
256,192,120967,1,8,0:0:0:0:
256,192,121130,1,0,0:0:0:0:
256,192,121212,1,0,0:0:0:0:
256,192,121293,1,8,0:0:0:0:
256,192,121456,1,0,0:0:0:0:
256,192,121619,1,8,0:0:0:0:
256,192,121782,1,0,0:0:0:0:
256,192,121945,1,8,0:0:0:0:
256,192,122108,1,0,0:0:0:0:
256,192,122190,1,0,0:0:0:0:
256,192,122271,1,8,0:0:0:0:
256,192,122434,1,12,0:0:0:0:
256,192,122761,1,0,0:0:0:0:
256,192,122842,1,0,0:0:0:0:
256,192,122924,1,8,0:0:0:0:
256,192,123087,1,8,0:0:0:0:
256,192,123168,1,0,0:0:0:0:
256,192,123250,1,8,0:0:0:0:
256,192,123413,1,0,0:0:0:0:
256,192,123576,1,8,0:0:0:0:
256,192,123657,1,0,0:0:0:0:
256,192,123739,1,0,0:0:0:0:
256,192,123902,1,8,0:0:0:0:
256,192,123983,1,0,0:0:0:0:
256,192,124065,1,0,0:0:0:0:
256,192,124146,1,0,0:0:0:0:
256,192,124228,1,8,0:0:0:0:
256,192,124391,1,0,0:0:0:0:
256,192,124472,1,8,0:0:0:0:
256,192,124554,1,0,0:0:0:0:
256,192,124717,1,0,0:0:0:0:
256,192,124880,1,8,0:0:0:0:
256,192,124962,1,0,0:0:0:0:
256,192,125043,1,8,0:0:0:0:
256,192,125369,1,8,0:0:0:0:
256,192,125451,1,8,0:0:0:0:
256,192,125532,1,0,0:0:0:0:
256,192,125614,1,0,0:0:0:0:
256,192,125695,1,8,0:0:0:0:
256,192,125777,1,0,0:0:0:0:
256,192,125858,1,0,0:0:0:0:
256,192,126021,1,0,0:0:0:0:
256,192,126184,1,8,0:0:0:0:
256,192,126347,1,8,0:0:0:0:
256,192,126429,1,0,0:0:0:0:
256,192,126511,1,0,0:0:0:0:
256,192,126674,1,0,0:0:0:0:
256,192,126837,1,8,0:0:0:0:
256,192,127000,1,0,0:0:0:0:
256,192,127081,1,0,0:0:0:0:
256,192,127163,1,8,0:0:0:0:
256,192,127244,1,8,0:0:0:0:
256,192,127326,1,0,0:0:0:0:
256,192,127407,1,0,0:0:0:0:
256,192,127489,1,8,0:0:0:0:
256,192,127652,1,0,0:0:0:0:
256,192,127815,1,8,0:0:0:0:
256,192,127897,1,0,0:0:0:0:
256,192,127979,1,8,0:0:0:0:
256,192,128060,1,0,0:0:0:0:
256,192,128142,1,8,0:0:0:0:
256,192,128223,1,0,0:0:0:0:
256,192,128305,1,8,0:0:0:0:
256,192,128386,1,0,0:0:0:0:
256,192,128468,1,8,0:0:0:0:
256,192,128549,1,0,0:0:0:0:
256,192,128631,1,8,0:0:0:0:
256,192,128712,1,0,0:0:0:0:
256,192,128794,1,8,0:0:0:0:
256,192,128875,1,8,0:0:0:0:
256,192,128957,1,0,0:0:0:0:
256,192,129038,1,0,0:0:0:0:
256,192,129120,1,8,0:0:0:0:
256,192,129201,1,0,0:0:0:0:
256,192,129283,1,0,0:0:0:0:
256,192,129364,1,0,0:0:0:0:
256,192,129446,1,8,0:0:0:0:
256,192,129527,1,0,0:0:0:0:
256,192,129609,1,8,0:0:0:0:
256,192,129690,1,0,0:0:0:0:
256,192,129772,1,8,0:0:0:0:
256,192,129854,1,8,0:0:0:0:
256,192,129935,1,0,0:0:0:0:
256,192,130017,1,0,0:0:0:0:
256,192,130098,1,8,0:0:0:0:
256,192,130261,1,0,0:0:0:0:
256,192,130424,1,12,0:0:0:0:
256,192,131076,1,4,0:0:0:0:
256,192,131728,1,12,0:0:0:0:
256,192,131972,1,4,0:0:0:0:
256,192,132217,1,12,0:0:0:0:
256,192,132380,1,8,0:0:0:0:
256,192,132462,1,0,0:0:0:0:
256,192,132543,1,0,0:0:0:0:
256,192,132625,1,0,0:0:0:0:
256,192,132706,1,8,0:0:0:0:
256,192,132869,1,0,0:0:0:0:
256,192,133032,1,8,0:0:0:0:
256,192,133195,1,8,0:0:0:0:
256,192,133521,1,8,0:0:0:0:
256,192,133603,1,8,0:0:0:0:
256,192,133684,1,8,0:0:0:0:
256,192,133847,1,8,0:0:0:0:
256,192,134011,1,0,0:0:0:0:
256,192,134092,1,0,0:0:0:0:
256,192,134174,1,8,0:0:0:0:
256,192,134337,1,8,0:0:0:0:
256,192,134445,1,8,0:0:0:0:
256,192,134554,1,0,0:0:0:0:
256,192,134663,1,8,0:0:0:0:
256,192,134771,1,0,0:0:0:0:
256,192,134880,1,0,0:0:0:0:
256,192,134989,1,8,0:0:0:0:
256,192,135641,1,4,0:0:0:0:
256,192,135967,1,0,0:0:0:0:
256,192,136293,1,8,0:0:0:0:
256,192,136456,1,0,0:0:0:0:
256,192,136538,1,0,0:0:0:0:
256,192,136619,1,8,0:0:0:0:
256,192,136782,1,0,0:0:0:0:
256,192,136945,1,8,0:0:0:0:
256,192,137027,1,8,0:0:0:0:
256,192,137108,1,0,0:0:0:0:
256,192,137190,1,0,0:0:0:0:
256,192,137271,1,8,0:0:0:0:
256,192,137434,1,0,0:0:0:0:
256,192,137516,1,0,0:0:0:0:
256,192,137597,1,8,0:0:0:0:
256,192,137761,1,8,0:0:0:0:
256,192,137924,1,8,0:0:0:0:
256,192,138005,1,8,0:0:0:0:
256,192,138087,1,0,0:0:0:0:
256,192,138250,1,8,0:0:0:0:
256,192,138494,1,0,0:0:0:0:
256,192,138739,1,0,0:0:0:0:
256,192,138902,1,8,0:0:0:0:
256,192,139146,1,0,0:0:0:0:
256,192,139391,1,0,0:0:0:0:
256,192,139554,1,8,0:0:0:0:
256,192,139636,1,0,0:0:0:0:
256,192,139717,1,8,0:0:0:0:
256,192,139880,1,8,0:0:0:0:
256,192,139962,1,8,0:0:0:0:
256,192,140043,1,0,0:0:0:0:
256,192,140125,1,0,0:0:0:0:
256,192,140206,1,0,0:0:0:0:
256,192,140369,1,0,0:0:0:0:
256,192,140532,1,0,0:0:0:0:
256,192,140695,1,8,0:0:0:0:
256,192,140858,1,4,0:0:0:0:
256,192,141021,1,0,0:0:0:0:
256,192,141103,1,0,0:0:0:0:
256,192,141184,1,0,0:0:0:0:
256,192,141347,1,0,0:0:0:0:
256,192,141511,1,8,0:0:0:0:
256,192,141592,1,0,0:0:0:0:
256,192,141674,1,0,0:0:0:0:
256,192,141837,1,8,0:0:0:0:
256,192,141918,1,0,0:0:0:0:
256,192,142000,1,0,0:0:0:0:
256,192,142163,1,0,0:0:0:0:
256,192,142326,1,8,0:0:0:0:
256,192,142407,1,0,0:0:0:0:
256,192,142489,1,8,0:0:0:0:
256,192,142652,1,8,0:0:0:0:
256,192,142815,1,0,0:0:0:0:
256,192,142978,1,8,0:0:0:0:
256,192,143059,1,0,0:0:0:0:
256,192,143141,1,0,0:0:0:0:
256,192,143222,1,0,0:0:0:0:
256,192,143304,1,8,0:0:0:0:
256,192,143467,1,8,0:0:0:0:
256,192,143549,1,0,0:0:0:0:
256,192,143630,1,0,0:0:0:0:
256,192,143793,1,8,0:0:0:0:
256,192,143875,1,0,0:0:0:0:
256,192,143956,1,8,0:0:0:0:
256,192,144119,1,8,0:0:0:0:
256,192,144282,1,0,0:0:0:0:
256,192,144364,1,0,0:0:0:0:
256,192,144445,1,8,0:0:0:0:
256,192,144608,1,0,0:0:0:0:
256,192,144771,1,8,0:0:0:0:
256,192,144934,1,8,0:0:0:0:
256,192,145016,1,0,0:0:0:0:
256,192,145097,1,8,0:0:0:0:
256,192,145261,1,8,0:0:0:0:
256,192,145342,1,8,0:0:0:0:
256,192,145424,1,0,0:0:0:0:
256,192,145750,1,0,0:0:0:0:
256,192,145913,1,0,0:0:0:0:
256,192,146076,1,12,0:0:0:0:
256,192,146293,1,0,0:0:0:0:
256,192,146565,1,0,0:0:0:0:
256,192,146728,1,8,0:0:0:0:
256,192,147054,1,8,0:0:0:0:
256,192,147217,1,0,0:0:0:0:
256,192,147543,1,0,0:0:0:0:
256,192,147706,1,0,0:0:0:0:
256,192,147869,1,8,0:0:0:0:
256,192,147951,1,0,0:0:0:0:
256,192,148032,1,0,0:0:0:0:
256,192,148195,1,0,0:0:0:0:
256,192,148358,1,8,0:0:0:0:
256,192,148521,1,0,0:0:0:0:
256,192,148684,1,8,0:0:0:0:
256,192,148766,1,0,0:0:0:0:
256,192,148847,1,8,0:0:0:0:
256,192,149011,1,0,0:0:0:0:
256,192,149174,1,0,0:0:0:0:
256,192,149337,1,8,0:0:0:0:
256,192,149500,1,0,0:0:0:0:
256,192,149663,1,8,0:0:0:0:
256,192,149744,1,0,0:0:0:0:
256,192,149826,1,8,0:0:0:0:
256,192,149989,1,8,0:0:0:0:
256,192,150152,1,0,0:0:0:0:
256,192,150315,1,8,0:0:0:0:
256,192,150424,1,0,0:0:0:0:
256,192,150532,1,0,0:0:0:0:
256,192,150641,1,8,0:0:0:0:
256,192,150750,1,0,0:0:0:0:
256,192,150858,1,0,0:0:0:0:
256,192,150967,1,8,0:0:0:0:
256,192,151130,1,0,0:0:0:0:
256,192,151212,1,0,0:0:0:0:
256,192,151293,1,8,0:0:0:0:
256,192,151375,1,0,0:0:0:0:
256,192,151456,1,8,0:0:0:0:
256,192,151538,1,0,0:0:0:0:
256,192,151619,1,8,0:0:0:0:
256,192,151701,1,8,0:0:0:0:
256,192,151782,1,0,0:0:0:0:
256,192,151864,1,0,0:0:0:0:
256,192,151945,1,8,0:0:0:0:
256,192,152027,1,0,0:0:0:0:
256,192,152108,1,8,0:0:0:0:
256,192,152190,1,0,0:0:0:0:
256,192,152271,1,8,0:0:0:0:
256,192,152353,1,8,0:0:0:0:
256,192,152434,1,8,0:0:0:0:
256,192,152516,1,0,0:0:0:0:
256,192,152597,1,8,0:0:0:0:
256,192,152679,1,8,0:0:0:0:
256,192,152761,1,0,0:0:0:0:
256,192,152842,1,0,0:0:0:0:
256,192,152924,1,8,0:0:0:0:
256,192,153005,1,0,0:0:0:0:
256,192,153087,1,8,0:0:0:0:
256,192,153168,1,0,0:0:0:0:
256,192,153250,1,8,0:0:0:0:
256,192,153331,1,8,0:0:0:0:
256,192,153413,1,0,0:0:0:0:
256,192,153494,1,0,0:0:0:0:
256,192,153576,1,8,0:0:0:0:
256,192,153739,1,0,0:0:0:0:
256,192,153902,1,8,0:0:0:0:
256,192,154065,1,0,0:0:0:0:
256,192,154391,1,0,0:0:0:0:
256,192,154554,1,8,0:0:0:0:
256,192,154717,1,8,0:0:0:0:
256,192,155043,1,0,0:0:0:0:
256,192,155206,1,8,0:0:0:0:
256,192,155369,1,0,0:0:0:0:
263,195,155451,1,8,0:0:0:0:
256,192,155532,1,0,0:0:0:0:
256,192,155695,1,8,0:0:0:0:
256,192,155777,1,0,0:0:0:0:
256,192,155858,1,8,0:0:0:0:
256,192,156021,1,0,0:0:0:0:
256,192,156184,1,8,0:0:0:0:
256,192,156266,1,8,0:0:0:0:
256,192,156347,1,0,0:0:0:0:
255,188,156429,1,0,0:0:0:0:
256,192,156511,1,8,0:0:0:0:
256,192,156592,1,0,0:0:0:0:
256,192,156674,1,8,0:0:0:0:
256,192,156837,1,0,0:0:0:0:
256,192,157000,1,8,0:0:0:0:
256,192,157326,1,8,0:0:0:0:
256,192,157489,1,0,0:0:0:0:
256,192,157570,1,0,0:0:0:0:
256,192,157652,1,8,0:0:0:0:
256,192,157815,1,8,0:0:0:0:
256,192,157978,1,0,0:0:0:0:
256,192,158059,1,0,0:0:0:0:
256,192,158141,1,8,0:0:0:0:
256,192,158304,1,0,0:0:0:0:
256,192,158467,1,8,0:0:0:0:
256,192,158712,1,0,0:0:0:0:
256,192,158793,1,0,0:0:0:0:
256,192,159119,1,8,0:0:0:0:
256,192,159282,1,8,0:0:0:0:
256,192,159445,1,0,0:0:0:0:
256,192,159771,1,8,0:0:0:0:
256,192,160097,1,0,0:0:0:0:
256,192,160424,1,8,0:0:0:0:
256,192,160750,1,0,0:0:0:0:
256,192,161076,1,12,0:0:0:0:
256,192,161402,1,12,0:0:0:0:
256,192,161728,1,0,0:0:0:0:
256,192,161891,1,0,0:0:0:0:
256,192,161972,1,0,0:0:0:0:
256,192,162054,1,8,0:0:0:0:
256,192,162217,1,0,0:0:0:0:
256,192,162380,1,0,0:0:0:0:
256,192,162543,1,8,0:0:0:0:
256,192,162706,1,0,0:0:0:0:
256,192,162788,1,0,0:0:0:0:
256,192,162869,1,8,0:0:0:0:
256,192,163032,1,0,0:0:0:0:
256,192,163195,1,0,0:0:0:0:
256,192,163277,1,0,0:0:0:0:
256,192,163358,1,8,0:0:0:0:
256,192,163521,1,0,0:0:0:0:
256,192,163684,1,8,0:0:0:0:
256,192,163847,1,0,0:0:0:0:
256,192,164011,1,0,0:0:0:0:
256,192,164337,1,12,0:0:0:0:
256,192,164663,1,0,0:0:0:0:
256,192,164826,1,0,0:0:0:0:
256,192,164989,1,8,0:0:0:0:
256,192,165315,1,0,0:0:0:0:
256,192,165478,1,0,0:0:0:0:
256,192,165804,1,12,0:0:0:0:
256,192,166130,1,0,0:0:0:0:
256,192,166212,1,0,0:0:0:0:
256,192,166293,1,8,0:0:0:0:
256,192,166456,1,0,0:0:0:0:
256,192,166538,1,0,0:0:0:0:
256,192,166619,1,8,0:0:0:0:
256,192,166864,1,8,0:0:0:0:
256,192,166945,1,8,0:0:0:0:
256,192,167190,1,0,0:0:0:0:
256,192,167271,1,8,0:0:0:0:
256,192,167434,1,0,0:0:0:0:
256,192,167761,1,0,0:0:0:0:
256,192,167924,1,8,0:0:0:0:
256,192,168005,1,0,0:0:0:0:
256,192,168087,1,8,0:0:0:0:
256,192,168250,1,8,0:0:0:0:
256,192,168413,1,0,0:0:0:0:
256,192,168494,1,0,0:0:0:0:
256,192,168576,1,8,0:0:0:0:
256,192,168739,1,0,0:0:0:0:
256,192,168902,1,8,0:0:0:0:
256,192,169065,1,8,0:0:0:0:
256,192,169228,1,0,0:0:0:0:
256,192,169309,1,0,0:0:0:0:
256,192,169391,1,0,0:0:0:0:
256,192,169554,1,0,0:0:0:0:
256,192,169799,1,0,0:0:0:0:
256,192,169880,1,8,0:0:0:0:
256,192,170043,1,0,0:0:0:0:
256,192,170206,1,8,0:0:0:0:
256,192,170369,1,0,0:0:0:0:
256,192,170451,1,0,0:0:0:0:
256,192,170532,1,0,0:0:0:0:
256,192,170695,1,0,0:0:0:0:
256,192,170858,1,8,0:0:0:0:
256,192,171103,1,0,0:0:0:0:
256,192,171184,1,8,0:0:0:0:
256,192,171347,1,0,0:0:0:0:
256,192,171511,1,8,0:0:0:0:
256,192,171674,1,0,0:0:0:0:
256,192,171755,1,0,0:0:0:0:
256,192,171837,1,8,0:0:0:0:
256,192,172163,1,8,0:0:0:0:
256,192,172326,1,0,0:0:0:0:
256,192,172489,1,8,0:0:0:0:
256,192,172570,1,0,0:0:0:0:
256,192,172652,1,8,0:0:0:0:
256,192,172815,1,0,0:0:0:0:
256,192,172896,1,0,0:0:0:0:
256,192,172978,1,8,0:0:0:0:
256,192,173141,1,0,0:0:0:0:
256,192,173304,1,8,0:0:0:0:
256,192,173386,1,0,0:0:0:0:
256,192,173467,1,8,0:0:0:0:
256,192,173630,1,0,0:0:0:0:
256,192,173793,1,8,0:0:0:0:
256,192,173875,1,0,0:0:0:0:
256,192,173956,1,8,0:0:0:0:
256,192,174119,1,8,0:0:0:0:
256,192,174282,1,0,0:0:0:0:
256,192,174364,1,8,0:0:0:0:
256,192,174445,1,0,0:0:0:0:
256,192,174608,1,0,0:0:0:0:
256,192,174771,1,8,0:0:0:0:
256,192,175097,1,8,0:0:0:0:
256,192,175424,1,8,0:0:0:0:
256,192,175750,1,0,0:0:0:0:
256,192,175913,1,0,0:0:0:0:
256,192,176076,1,12,0:0:0:0:
256,192,176402,1,12,0:0:0:0:
256,192,176728,1,12,0:0:0:0:
256,192,177054,1,12,0:0:0:0:
256,192,177380,1,0,0:0:0:0:
256,192,177462,1,0,0:0:0:0:
256,192,177543,1,0,0:0:0:0:
256,192,177625,1,0,0:0:0:0:
256,192,177706,1,0,0:0:0:0:
256,192,177869,1,0,0:0:0:0:
256,192,178195,1,0,0:0:0:0:
256,192,178358,1,8,0:0:0:0:
256,192,178440,1,8,0:0:0:0:
256,192,178521,1,8,0:0:0:0:
256,192,178603,1,8,0:0:0:0:
256,192,178684,1,8,0:0:0:0:
256,192,178847,1,0,0:0:0:0:
256,192,179011,1,8,0:0:0:0:
256,192,179174,1,0,0:0:0:0:
256,192,179337,1,8,0:0:0:0:
256,192,179418,1,8,0:0:0:0:
256,192,179500,1,0,0:0:0:0:
256,192,179581,1,0,0:0:0:0:
256,192,179663,1,8,0:0:0:0:
256,192,179744,1,0,0:0:0:0:
256,192,179826,1,8,0:0:0:0:
256,192,179907,1,8,0:0:0:0:
256,192,179989,1,0,0:0:0:0:
256,192,180070,1,0,0:0:0:0:
256,192,180152,1,0,0:0:0:0:
256,192,180233,1,0,0:0:0:0:
256,192,180315,1,8,0:0:0:0:
256,192,180478,1,0,0:0:0:0:
256,192,180641,1,0,0:0:0:0:
256,192,180804,1,12,0:0:0:0:
256,192,181130,1,0,0:0:0:0:
256,192,181293,1,12,0:0:0:0:
256,192,181456,1,0,0:0:0:0:
256,192,181538,1,0,0:0:0:0:
256,192,181619,1,8,0:0:0:0:
256,192,181782,1,0,0:0:0:0:
256,192,181945,1,8,0:0:0:0:
256,192,182027,1,8,0:0:0:0:
256,192,182108,1,0,0:0:0:0:
256,192,182190,1,0,0:0:0:0:
256,192,182271,1,8,0:0:0:0:
256,192,182434,1,8,0:0:0:0:
256,192,182516,1,0,0:0:0:0:
256,192,182597,1,8,0:0:0:0:
256,192,182761,1,0,0:0:0:0:
256,192,182842,1,0,0:0:0:0:
256,192,182924,1,8,0:0:0:0:
256,192,183087,1,0,0:0:0:0:
256,192,183168,1,0,0:0:0:0:
256,192,183250,1,8,0:0:0:0:
256,192,183331,1,0,0:0:0:0:
256,192,183413,1,8,0:0:0:0:
256,192,183494,1,8,0:0:0:0:
256,192,183576,1,0,0:0:0:0:
256,192,183739,1,12,0:0:0:0:
256,192,184065,1,0,0:0:0:0:
256,192,184228,1,8,0:0:0:0:
256,192,184391,1,8,0:0:0:0:
256,192,184472,1,8,0:0:0:0:
256,192,184554,1,8,0:0:0:0:
256,192,184717,1,0,0:0:0:0:
256,192,184880,1,8,0:0:0:0:
256,192,184962,1,0,0:0:0:0:
256,192,185043,1,8,0:0:0:0:
256,192,185206,1,0,0:0:0:0:
256,192,185288,1,0,0:0:0:0:
256,192,185369,1,0,0:0:0:0:
256,192,185451,1,0,0:0:0:0:
256,192,185532,1,8,0:0:0:0:
256,192,185695,1,0,0:0:0:0:
256,192,185777,1,0,0:0:0:0:
256,192,185858,1,8,0:0:0:0:
256,192,186021,1,0,0:0:0:0:
256,192,186184,1,8,0:0:0:0:
256,192,186266,1,8,0:0:0:0:
256,192,186347,1,0,0:0:0:0:
256,192,186429,1,0,0:0:0:0:
256,192,186511,1,8,0:0:0:0:
256,192,186674,1,0,0:0:0:0:
256,192,186837,1,8,0:0:0:0:
256,192,187081,1,8,0:0:0:0:
256,192,187163,1,0,0:0:0:0:
256,192,187326,1,0,0:0:0:0:
256,192,187407,1,0,0:0:0:0:
256,192,187489,1,8,0:0:0:0:
256,192,187652,1,8,0:0:0:0:
256,192,187733,1,0,0:0:0:0:
256,192,187815,1,8,0:0:0:0:
256,192,187978,1,0,0:0:0:0:
256,192,188059,1,0,0:0:0:0:
256,192,188141,1,8,0:0:0:0:
256,192,188222,1,8,0:0:0:0:
256,192,188304,1,0,0:0:0:0:
256,192,188386,1,0,0:0:0:0:
256,192,188467,1,8,0:0:0:0:
256,192,188630,1,0,0:0:0:0:
256,192,188793,1,8,0:0:0:0:
256,192,188956,1,0,0:0:0:0:
256,192,189038,1,0,0:0:0:0:
256,192,189119,1,8,0:0:0:0:
256,192,189282,1,0,0:0:0:0:
256,192,189445,1,8,0:0:0:0:
256,192,189608,1,0,0:0:0:0:
256,192,189690,1,0,0:0:0:0:
256,192,189771,1,0,0:0:0:0:
256,192,189934,1,8,0:0:0:0:
256,192,190097,1,8,0:0:0:0:
256,192,190261,1,0,0:0:0:0:
256,192,190342,1,0,0:0:0:0:
256,192,190424,1,8,0:0:0:0:
256,192,190587,1,0,0:0:0:0:
256,192,190668,1,0,0:0:0:0:
256,192,190750,1,8,0:0:0:0:
256,192,190913,1,8,0:0:0:0:
256,192,190994,1,8,0:0:0:0:
256,192,191076,1,0,0:0:0:0:
256,192,191239,1,8,0:0:0:0:
256,192,191320,1,0,0:0:0:0:
256,192,191402,1,0,0:0:0:0:
256,192,191483,1,0,0:0:0:0:
256,192,191565,1,12,0:0:0:0:
256,192,191891,1,0,0:0:0:0:
256,192,192054,1,8,0:0:0:0:
256,192,192217,1,8,0:0:0:0:
256,192,192299,1,0,0:0:0:0:
256,192,192380,1,8,0:0:0:0:
256,192,192543,1,0,0:0:0:0:
256,192,192625,1,0,0:0:0:0:
256,192,192706,1,8,0:0:0:0:
256,192,192788,1,8,0:0:0:0:
256,192,192869,1,0,0:0:0:0:
256,192,193032,1,0,0:0:0:0:
256,192,193195,1,0,0:0:0:0:
256,192,193358,1,8,0:0:0:0:
256,192,193521,1,0,0:0:0:0:
256,192,193603,1,0,0:0:0:0:
256,192,193684,1,8,0:0:0:0:
256,192,193766,1,0,0:0:0:0:
256,192,193847,1,0,0:0:0:0:
256,192,194011,1,8,0:0:0:0:
256,192,194092,1,0,0:0:0:0:
256,192,194174,1,12,0:0:0:0:
256,192,194500,1,0,0:0:0:0:
256,192,194581,1,0,0:0:0:0:
256,192,194663,1,0,0:0:0:0:
256,192,194826,1,8,0:0:0:0:
256,192,194907,1,8,0:0:0:0:
256,192,194989,1,8,0:0:0:0:
256,192,195152,1,8,0:0:0:0:
256,192,195315,1,0,0:0:0:0:
256,192,195478,1,0,0:0:0:0:
256,192,195559,1,0,0:0:0:0:
256,192,195641,1,8,0:0:0:0:
256,192,195804,1,0,0:0:0:0:
256,192,195886,1,0,0:0:0:0:
256,192,195967,1,8,0:0:0:0:
256,192,196130,1,0,0:0:0:0:
256,192,196212,1,0,0:0:0:0:
256,192,196293,1,8,0:0:0:0:
256,192,196375,1,0,0:0:0:0:
256,192,196456,1,0,0:0:0:0:
256,192,196538,1,0,0:0:0:0:
256,192,196619,1,8,0:0:0:0:
256,192,196701,1,8,0:0:0:0:
256,192,196782,1,0,0:0:0:0:
256,192,196945,1,8,0:0:0:0:
256,192,197027,1,0,0:0:0:0:
256,192,197109,1,8,0:0:0:0:
256,192,197190,1,0,0:0:0:0:
256,192,197272,1,8,0:0:0:0:
256,192,197353,1,0,0:0:0:0:
256,192,197435,1,8,0:0:0:0:
256,192,197516,1,0,0:0:0:0:
256,192,197598,1,8,0:0:0:0:
256,192,197679,1,0,0:0:0:0:
256,192,197761,1,8,0:0:0:0:
256,192,197842,1,0,0:0:0:0:
256,192,197924,1,8,0:0:0:0:
256,192,198005,1,8,0:0:0:0:
256,192,198087,1,0,0:0:0:0:
256,192,198168,1,0,0:0:0:0:
256,192,198250,1,8,0:0:0:0:
256,192,198331,1,0,0:0:0:0:
256,192,198413,1,0,0:0:0:0:
256,192,198494,1,0,0:0:0:0:
256,192,198576,1,8,0:0:0:0:
256,192,198657,1,0,0:0:0:0:
256,192,198739,1,8,0:0:0:0:
256,192,198820,1,0,0:0:0:0:
256,192,198902,1,8,0:0:0:0:
256,192,198984,1,8,0:0:0:0:
256,192,199065,1,0,0:0:0:0:
256,192,199147,1,0,0:0:0:0:
256,192,199228,1,8,0:0:0:0:
256,192,199391,1,0,0:0:0:0:
256,192,199554,1,12,0:0:0:0:
256,192,200206,1,4,0:0:0:0:
256,192,200858,1,12,0:0:0:0:
256,192,201103,1,4,0:0:0:0:
256,192,201347,1,12,0:0:0:0:
256,192,201511,1,4,0:0:0:0:
256,192,201674,1,0,0:0:0:0:
256,192,201755,1,0,0:0:0:0:
256,192,201837,1,8,0:0:0:0:
256,192,202000,1,0,0:0:0:0:
256,192,202163,1,12,0:0:0:0:
256,192,202326,1,0,0:0:0:0:
256,192,202489,1,8,0:0:0:0:
256,192,202570,1,0,0:0:0:0:
256,192,202652,1,0,0:0:0:0:
256,192,202815,1,8,0:0:0:0:
256,192,202978,1,8,0:0:0:0:
256,192,203059,1,0,0:0:0:0:
256,192,203141,1,8,0:0:0:0:
256,192,203304,1,0,0:0:0:0:
256,192,203467,1,8,0:0:0:0:
256,192,203630,1,8,0:0:0:0:
256,192,203793,1,0,0:0:0:0:
256,192,203956,1,0,0:0:0:0:
256,192,204119,1,8,0:0:0:0:
256,192,204201,1,8,0:0:0:0:
256,192,204282,1,0,0:0:0:0:
256,192,204364,1,0,0:0:0:0:
256,192,204445,1,8,0:0:0:0:
256,192,204608,1,0,0:0:0:0:
256,192,204771,1,12,0:0:0:0:
256,192,204934,1,8,0:0:0:0:
256,192,205016,1,8,0:0:0:0:
256,192,205097,1,0,0:0:0:0:
256,192,205261,1,8,0:0:0:0:
256,192,205424,1,8,0:0:0:0:
256,192,205587,1,0,0:0:0:0:
256,192,205668,1,0,0:0:0:0:
256,192,205750,1,8,0:0:0:0:
256,192,205913,1,0,0:0:0:0:
256,192,206076,1,8,0:0:0:0:
256,192,206157,1,0,0:0:0:0:
256,192,206239,1,8,0:0:0:0:
256,192,206402,1,0,0:0:0:0:
256,192,206565,1,0,0:0:0:0:
256,192,206728,1,8,0:0:0:0:
256,192,206809,1,0,0:0:0:0:
256,192,206891,1,0,0:0:0:0:
256,192,206972,1,0,0:0:0:0:
256,192,207054,1,8,0:0:0:0:
256,192,207217,1,0,0:0:0:0:
256,192,207380,1,12,0:0:0:0:
256,192,207543,1,8,0:0:0:0:
256,192,207625,1,8,0:0:0:0:
256,192,207706,1,0,0:0:0:0:
256,192,207869,1,8,0:0:0:0:
256,192,208032,1,0,0:0:0:0:
256,192,208114,1,8,0:0:0:0:
256,192,208195,1,8,0:0:0:0:
256,192,208358,1,8,0:0:0:0:
256,192,208521,1,0,0:0:0:0:
256,192,208684,1,8,0:0:0:0:
256,192,208847,1,0,0:0:0:0:
256,192,208929,1,0,0:0:0:0:
256,192,209011,1,8,0:0:0:0:
256,192,209174,1,8,0:0:0:0:
256,192,209337,1,8,0:0:0:0:
256,192,209418,1,8,0:0:0:0:
256,192,209500,1,0,0:0:0:0:
256,192,209581,1,0,0:0:0:0:
256,192,209663,1,8,0:0:0:0:
256,192,209826,1,0,0:0:0:0:
256,192,209989,1,12,0:0:0:0:
256,192,210152,1,8,0:0:0:0:
256,192,210233,1,0,0:0:0:0:
256,192,210315,1,8,0:0:0:0:
256,192,210478,1,0,0:0:0:0:
256,192,210641,1,8,0:0:0:0:
256,192,210804,1,8,0:0:0:0:
256,192,210886,1,8,0:0:0:0:
256,192,210967,1,8,0:0:0:0:
256,192,211130,1,0,0:0:0:0:
256,192,211293,1,8,0:0:0:0:
256,192,211375,1,0,0:0:0:0:
256,192,211456,1,8,0:0:0:0:
256,192,211619,1,0,0:0:0:0:
256,192,211782,1,0,0:0:0:0:
256,192,211945,1,8,0:0:0:0:
256,192,212027,1,8,0:0:0:0:
256,192,212108,1,0,0:0:0:0:
256,192,212190,1,0,0:0:0:0:
256,192,212271,1,8,0:0:0:0:
256,192,212353,1,8,0:0:0:0:
256,192,212434,1,0,0:0:0:0:
256,192,212516,1,0,0:0:0:0:
256,192,212597,1,0,0:0:0:0:
256,192,212924,1,0,0:0:0:0:
256,192,213576,1,0,0:0:0:0:
256,192,213902,1,8,0:0:0:0:
256,192,214065,1,8,0:0:0:0:
256,192,214146,1,0,0:0:0:0:
256,192,214228,1,8,0:0:0:0:
256,192,214391,1,0,0:0:0:0:
256,192,214472,1,0,0:0:0:0:
256,192,214554,1,8,0:0:0:0:
256,192,214718,1,8,0:0:0:0:
256,192,214881,1,8,0:0:0:0:
256,192,214962,1,0,0:0:0:0:
256,192,215043,1,8,0:0:0:0:
256,192,215206,1,8,0:0:0:0:
256,192,215288,1,8,0:0:0:0:
256,192,215369,1,4,0:0:0:0:
256,192,215695,1,8,0:0:0:0:
256,192,215777,1,8,0:0:0:0:
256,192,215858,1,4,0:0:0:0:
256,192,216184,1,12,0:0:0:0:
