osu file format v14

[General]
AudioFilename: audio.mp3
AudioLeadIn: 0
PreviewTime: 40819
Countdown: 0
SampleSet: Normal
StackLeniency: 0.7
Mode: 1
LetterboxInBreaks: 0
WidescreenStoryboard: 1

[Editor]
Bookmarks: 714,13345,31029,41135,58819,63871,84082,89135,106819,127029,144714,154819,172503
DistanceSpacing: 0.8
BeatDivisor: 4
GridSize: 32
TimelineZoom: 2.599999

[Metadata]
Title:Shinsekai
TitleUnicode:新世界
Artist:Hello Sleepwalkers
ArtistUnicode:Hello Sleepwalkers
Creator:Capu
Version:Muzukashii
Source:
Tags:シンセカイ japanese alternative progressive experimental rock jrock a-sketch music label donguri buster どんぐりバスター shuntaro narumi tasoko makoto yuki シュンタロウ ナルミ タソコ マコト ユウキ friggy-chan OMORI_ANTONIO OMORI ANTONIO krytwal
BeatmapID:3580146
BeatmapSetID:1742265

[Difficulty]
HPDrainRate:6
CircleSize:2
OverallDifficulty:5
ApproachRate:10
SliderMultiplier:1.4
SliderTickRate:1

[Events]
//Background and Video events
0,0,"76028361_p0.jpg",0,-50
//Break Periods
2,155019,161948
//Storyboard Layer 0 (Background)
//Storyboard Layer 1 (Fail)
//Storyboard Layer 2 (Pass)
//Storyboard Layer 3 (Foreground)
//Storyboard Layer 4 (Overlay)
//Storyboard Sound Samples

[TimingPoints]
714,315.789473684211,4,1,0,100,1,0
10977,-100,4,1,0,45,0,0
12477,-100,4,1,0,75,0,0
34661,-100,4,1,0,90,0,0
41135,-100,4,1,0,90,0,1
57556,-100,4,1,0,90,0,0
64029,-100,4,1,0,75,0,0
89135,-100,4,1,0,90,0,1
105556,-100,4,1,0,90,0,1
105871,-100,4,1,0,90,0,0
127266,-100,4,1,0,75,0,0
154977,-100,4,1,0,25,0,0
162371,-100,4,1,0,45,0,0
163977,-100,4,1,0,50,0,0
164135,-100,4,1,0,55,0,0
164214,-100,4,1,0,60,0,0
164292,-100,4,1,0,65,0,0
164450,-100,4,1,0,70,0,0
164924,-100,4,1,0,75,0,0
172503,-100,4,1,0,90,0,1
180082,-100,4,1,0,90,0,0
182608,-100,4,1,0,90,0,1
197766,-100,4,1,0,90,0,0

[HitObjects]
256,192,714,5,8,0:0:0:0:
256,192,871,1,0,0:0:0:0:
256,192,1029,1,8,0:0:0:0:
256,192,1108,1,8,0:0:0:0:
256,192,1187,1,8,0:0:0:0:
256,192,1345,1,0,0:0:0:0:
256,192,1503,1,8,0:0:0:0:
256,192,1661,1,0,0:0:0:0:
256,192,1740,1,0,0:0:0:0:
256,192,1819,1,0,0:0:0:0:
256,192,1977,1,8,0:0:0:0:
256,192,2135,1,8,0:0:0:0:
256,192,2292,1,0,0:0:0:0:
256,192,2371,1,0,0:0:0:0:
256,192,2450,1,0,0:0:0:0:
256,192,2608,1,8,0:0:0:0:
256,192,2766,1,0,0:0:0:0:
256,192,2924,1,0,0:0:0:0:
256,192,3003,1,0,0:0:0:0:
256,192,3082,1,0,0:0:0:0:
256,192,3240,1,12,0:0:0:0:
256,192,3714,1,0,0:0:0:0:
256,192,3871,1,8,0:0:0:0:
256,192,4029,1,8,0:0:0:0:
256,192,4187,1,0,0:0:0:0:
256,192,4345,1,8,0:0:0:0:
256,192,4424,1,8,0:0:0:0:
256,192,4503,1,8,0:0:0:0:
256,192,4661,1,0,0:0:0:0:
256,192,4819,1,8,0:0:0:0:
256,192,4977,1,0,0:0:0:0:
256,192,5056,1,0,0:0:0:0:
256,192,5135,1,0,0:0:0:0:
256,192,5292,1,0,0:0:0:0:
256,192,5450,1,0,0:0:0:0:
256,192,5766,5,8,0:0:0:0:
256,192,5923,1,0,0:0:0:0:
256,192,6081,1,8,0:0:0:0:
256,192,6160,1,8,0:0:0:0:
256,192,6239,1,8,0:0:0:0:
256,192,6397,1,0,0:0:0:0:
256,192,6555,1,8,0:0:0:0:
256,192,6713,1,0,0:0:0:0:
256,192,6792,1,0,0:0:0:0:
256,192,6871,1,0,0:0:0:0:
256,192,7029,1,8,0:0:0:0:
256,192,7187,1,8,0:0:0:0:
256,192,7344,1,0,0:0:0:0:
256,192,7423,1,0,0:0:0:0:
256,192,7502,1,0,0:0:0:0:
256,192,7660,1,8,0:0:0:0:
256,192,7818,1,0,0:0:0:0:
256,192,7976,1,0,0:0:0:0:
256,192,8055,1,0,0:0:0:0:
256,192,8134,1,0,0:0:0:0:
256,192,8292,1,12,0:0:0:0:
256,192,8766,1,8,0:0:0:0:
256,192,8924,1,8,0:0:0:0:
256,192,9082,1,0,0:0:0:0:
256,192,9240,1,8,0:0:0:0:
256,192,9398,1,0,0:0:0:0:
256,192,9477,1,0,0:0:0:0:
256,192,9556,1,0,0:0:0:0:
256,192,9714,1,8,0:0:0:0:
256,192,9871,1,8,0:0:0:0:
256,192,10029,1,0,0:0:0:0:
256,192,10108,1,0,0:0:0:0:
256,192,10187,1,0,0:0:0:0:
256,192,10345,1,0,0:0:0:0:
256,192,10503,1,8,0:0:0:0:
256,192,10661,1,8,0:0:0:0:
256,192,10819,1,4,0:0:0:0:
256,192,12556,1,8,0:0:0:0:
256,192,12635,1,8,0:0:0:0:
256,192,12714,1,8,0:0:0:0:
256,192,12871,1,8,0:0:0:0:
256,192,13029,1,0,0:0:0:0:
256,192,13187,1,0,0:0:0:0:
256,192,13345,1,4,0:0:0:0:
256,192,13582,1,8,0:0:0:0:
256,192,13661,1,8,0:0:0:0:
256,192,13819,1,0,0:0:0:0:
256,192,14292,1,8,0:0:0:0:
256,192,14608,1,0,0:0:0:0:
256,192,14924,1,8,0:0:0:0:
256,192,15240,1,0,0:0:0:0:
256,192,15398,1,0,0:0:0:0:
256,192,15556,1,8,0:0:0:0:
256,192,15714,1,8,0:0:0:0:
256,192,15871,1,0,0:0:0:0:
256,192,16108,1,8,0:0:0:0:
256,192,16187,1,8,0:0:0:0:
256,192,16345,1,0,0:0:0:0:
256,192,16661,1,0,0:0:0:0:
256,192,16819,1,8,0:0:0:0:
256,192,17292,1,0,0:0:0:0:
256,192,17450,1,8,0:0:0:0:
256,192,17608,1,0,0:0:0:0:
256,192,17766,1,0,0:0:0:0:
256,192,18082,1,8,0:0:0:0:
256,192,18398,1,0,0:0:0:0:
256,192,18635,1,0,0:0:0:0:
256,192,18714,1,0,0:0:0:0:
256,192,18871,1,8,0:0:0:0:
256,192,19187,1,0,0:0:0:0:
256,192,19345,1,8,0:0:0:0:
256,192,19977,1,8,0:0:0:0:
256,192,20292,1,0,0:0:0:0:
256,192,20450,1,0,0:0:0:0:
256,192,20608,1,8,0:0:0:0:
256,192,20766,1,0,0:0:0:0:
256,192,20924,1,8,0:0:0:0:
256,192,21161,1,8,0:0:0:0:
256,192,21240,1,8,0:0:0:0:
256,192,21398,1,0,0:0:0:0:
256,192,21714,1,0,0:0:0:0:
256,192,21871,1,8,0:0:0:0:
256,192,22345,1,0,0:0:0:0:
256,192,22503,1,8,0:0:0:0:
256,192,22661,1,8,0:0:0:0:
256,192,22819,1,0,0:0:0:0:
256,192,22977,1,0,0:0:0:0:
256,192,23135,1,8,0:0:0:0:
256,192,23450,1,0,0:0:0:0:
256,192,23687,1,8,0:0:0:0:
256,192,23766,1,8,0:0:0:0:
256,192,23924,1,0,0:0:0:0:
256,192,24240,1,0,0:0:0:0:
256,192,24398,1,8,0:0:0:0:
256,192,24871,1,0,0:0:0:0:
256,192,25029,1,8,0:0:0:0:
256,192,25345,1,8,0:0:0:0:
256,192,25503,1,0,0:0:0:0:
256,192,25661,1,8,0:0:0:0:
256,192,25819,1,8,0:0:0:0:
256,192,25977,1,0,0:0:0:0:
256,192,26214,1,0,0:0:0:0:
256,192,26292,1,0,0:0:0:0:
256,192,26450,1,8,0:0:0:0:
256,192,26766,1,0,0:0:0:0:
256,192,26924,1,8,0:0:0:0:
256,192,27082,1,0,0:0:0:0:
256,192,27398,1,0,0:0:0:0:
256,192,27556,1,8,0:0:0:0:
256,192,27714,1,0,0:0:0:0:
256,192,27871,1,8,0:0:0:0:
256,192,28029,1,8,0:0:0:0:
256,192,28187,1,0,0:0:0:0:
256,192,28503,1,0,0:0:0:0:
256,192,28661,1,8,0:0:0:0:
256,192,28819,1,8,0:0:0:0:
256,192,29135,1,0,0:0:0:0:
256,192,29292,1,8,0:0:0:0:
256,192,29608,1,8,0:0:0:0:
256,192,29766,1,0,0:0:0:0:
256,192,29924,1,0,0:0:0:0:
256,192,30082,1,12,0:0:0:0:
256,192,30240,1,0,0:0:0:0:
256,192,30319,1,0,0:0:0:0:
256,192,30398,1,0,0:0:0:0:
256,192,30556,1,8,0:0:0:0:
256,192,30714,1,8,0:0:0:0:
256,192,30871,1,0,0:0:0:0:
256,192,31029,1,4,0:0:0:0:
256,192,32924,1,8,0:0:0:0:
256,192,33082,1,0,0:0:0:0:
256,192,33240,1,0,0:0:0:0:
256,192,33398,1,0,0:0:0:0:
256,192,34819,1,12,0:0:0:0:
256,192,35135,1,0,0:0:0:0:
256,192,35292,1,8,0:0:0:0:
256,192,35450,1,0,0:0:0:0:
256,192,35608,1,0,0:0:0:0:
256,192,35766,1,8,0:0:0:0:
256,192,36082,1,4,0:0:0:0:
256,192,36398,1,8,0:0:0:0:
256,192,36556,1,0,0:0:0:0:
256,192,36871,1,0,0:0:0:0:
256,192,37029,1,8,0:0:0:0:
256,192,37187,1,0,0:0:0:0:
256,192,37345,1,12,0:0:0:0:
256,192,37661,1,8,0:0:0:0:
256,192,37819,1,8,0:0:0:0:
256,192,38135,1,0,0:0:0:0:
256,192,38292,1,8,0:0:0:0:
256,192,38450,1,0,0:0:0:0:
256,192,38529,1,0,0:0:0:0:
256,192,38608,1,0,0:0:0:0:
256,192,38766,1,8,0:0:0:0:
256,192,38924,1,8,0:0:0:0:
256,192,39082,1,0,0:0:0:0:
256,192,39240,1,8,0:0:0:0:
256,192,39398,1,8,0:0:0:0:
256,192,39556,1,0,0:0:0:0:
256,192,39714,1,0,0:0:0:0:
256,192,39871,1,8,0:0:0:0:
256,192,39950,1,8,0:0:0:0:
256,192,40029,1,8,0:0:0:0:
256,192,40187,1,8,0:0:0:0:
256,192,40345,1,0,0:0:0:0:
256,192,40661,1,0,0:0:0:0:
256,192,41135,1,12,0:0:0:0:
256,192,41450,1,0,0:0:0:0:
256,192,41608,1,8,0:0:0:0:
256,192,41687,1,8,0:0:0:0:
256,192,41766,1,8,0:0:0:0:
256,192,41924,1,0,0:0:0:0:
256,192,42082,1,8,0:0:0:0:
256,192,42240,1,8,0:0:0:0:
256,192,42398,1,0,0:0:0:0:
256,192,42714,1,8,0:0:0:0:
256,192,42950,1,0,0:0:0:0:
256,192,43029,1,0,0:0:0:0:
256,192,43187,1,0,0:0:0:0:
256,192,43345,1,8,0:0:0:0:
256,192,43661,1,0,0:0:0:0:
256,192,43977,1,8,0:0:0:0:
256,192,44292,1,0,0:0:0:0:
256,192,44450,1,0,0:0:0:0:
256,192,44608,1,8,0:0:0:0:
256,192,44766,1,0,0:0:0:0:
256,192,44845,1,0,0:0:0:0:
256,192,44924,1,0,0:0:0:0:
256,192,45082,1,0,0:0:0:0:
256,192,45240,1,8,0:0:0:0:
256,192,45477,1,0,0:0:0:0:
256,192,45556,1,0,0:0:0:0:
256,192,45714,1,0,0:0:0:0:
256,192,45871,1,8,0:0:0:0:
256,192,46187,1,12,0:0:0:0:
256,192,46503,1,0,0:0:0:0:
256,192,46661,1,8,0:0:0:0:
256,192,46740,1,8,0:0:0:0:
256,192,46819,1,8,0:0:0:0:
256,192,46977,1,0,0:0:0:0:
256,192,47135,1,8,0:0:0:0:
256,192,47292,1,8,0:0:0:0:
256,192,47450,1,0,0:0:0:0:
256,192,47766,1,8,0:0:0:0:
256,192,47924,1,8,0:0:0:0:
256,192,48082,1,8,0:0:0:0:
256,192,48161,1,8,0:0:0:0:
256,192,48240,1,8,0:0:0:0:
256,192,48398,1,0,0:0:0:0:
256,192,48556,1,0,0:0:0:0:
256,192,48714,1,12,0:0:0:0:
256,192,49029,1,0,0:0:0:0:
256,192,49187,1,12,0:0:0:0:
256,192,49661,1,8,0:0:0:0:
256,192,49819,1,4,0:0:0:0:
256,192,50135,1,0,0:0:0:0:
256,192,50292,1,8,0:0:0:0:
256,192,50450,1,0,0:0:0:0:
256,192,50608,1,8,0:0:0:0:
256,192,50766,1,0,0:0:0:0:
256,192,50845,1,0,0:0:0:0:
256,192,50924,1,0,0:0:0:0:
256,192,51082,1,0,0:0:0:0:
256,192,51240,1,12,0:0:0:0:
256,192,51556,1,8,0:0:0:0:
256,192,51714,1,0,0:0:0:0:
256,192,51792,1,0,0:0:0:0:
256,192,51871,1,0,0:0:0:0:
256,192,52029,1,8,0:0:0:0:
256,192,52187,1,8,0:0:0:0:
256,192,52345,1,0,0:0:0:0:
256,192,52503,1,8,0:0:0:0:
256,192,52819,1,0,0:0:0:0:
256,192,53056,1,8,0:0:0:0:
256,192,53135,1,8,0:0:0:0:
256,192,53292,1,0,0:0:0:0:
256,192,53450,1,8,0:0:0:0:
256,192,53766,1,0,0:0:0:0:
256,192,54082,1,8,0:0:0:0:
256,192,54398,1,0,0:0:0:0:
256,192,54556,1,0,0:0:0:0:
256,192,54714,1,8,0:0:0:0:
256,192,54871,1,4,0:0:0:0:
256,192,55187,1,8,0:0:0:0:
256,192,55345,1,0,0:0:0:0:
256,192,55503,1,8,0:0:0:0:
256,192,55582,1,8,0:0:0:0:
256,192,55661,1,8,0:0:0:0:
256,192,55819,1,0,0:0:0:0:
256,192,55977,1,0,0:0:0:0:
256,192,56135,1,0,0:0:0:0:
256,192,56292,1,12,0:0:0:0:
256,192,56766,1,8,0:0:0:0:
256,192,57082,1,0,0:0:0:0:
256,192,57240,1,8,0:0:0:0:
256,192,57398,1,0,0:0:0:0:
256,192,57556,1,8,0:0:0:0:
256,192,57714,1,8,0:0:0:0:
256,192,57871,1,8,0:0:0:0:
256,192,58029,1,8,0:0:0:0:
256,192,58819,1,4,0:0:0:0:
256,192,60398,1,8,0:0:0:0:
256,192,60556,1,0,0:0:0:0:
256,192,60714,1,8,0:0:0:0:
256,192,60871,1,8,0:0:0:0:
256,192,61029,1,0,0:0:0:0:
256,192,61187,1,12,0:0:0:0:
256,192,61503,1,0,0:0:0:0:
256,192,61661,1,8,0:0:0:0:
256,192,61819,1,0,0:0:0:0:
256,192,61977,1,8,0:0:0:0:
256,192,62135,1,8,0:0:0:0:
256,192,62292,1,0,0:0:0:0:
256,192,62450,1,0,0:0:0:0:
256,192,62608,1,8,0:0:0:0:
256,192,62687,1,8,0:0:0:0:
256,192,62766,1,8,0:0:0:0:
256,192,62924,1,0,0:0:0:0:
256,192,63082,1,8,0:0:0:0:
256,192,63240,1,8,0:0:0:0:
256,192,63398,1,0,0:0:0:0:
256,192,63871,1,12,0:0:0:0:
256,192,64108,1,0,0:0:0:0:
256,192,64187,1,0,0:0:0:0:
256,192,64345,1,0,0:0:0:0:
256,192,64661,1,0,0:0:0:0:
256,192,64819,1,12,0:0:0:0:
256,192,65292,1,8,0:0:0:0:
256,192,65450,1,8,0:0:0:0:
256,192,65766,1,0,0:0:0:0:
256,192,65924,1,0,0:0:0:0:
256,192,66082,1,8,0:0:0:0:
256,192,66240,1,8,0:0:0:0:
256,192,66398,1,0,0:0:0:0:
256,192,66635,1,0,0:0:0:0:
256,192,66714,1,0,0:0:0:0:
256,192,66871,1,0,0:0:0:0:
256,192,67187,1,0,0:0:0:0:
256,192,67345,1,8,0:0:0:0:
256,192,67661,1,0,0:0:0:0:
256,192,67819,1,0,0:0:0:0:
256,192,67977,1,8,0:0:0:0:
256,192,68135,1,0,0:0:0:0:
256,192,68450,1,0,0:0:0:0:
256,192,68608,1,8,0:0:0:0:
256,192,68766,1,8,0:0:0:0:
256,192,68924,1,0,0:0:0:0:
256,192,69161,1,0,0:0:0:0:
256,192,69240,1,0,0:0:0:0:
256,192,69398,1,8,0:0:0:0:
256,192,69714,1,8,0:0:0:0:
256,192,69871,1,4,0:0:0:0:
256,192,70345,1,0,0:0:0:0:
256,192,70503,1,8,0:0:0:0:
256,192,70819,1,0,0:0:0:0:
256,192,70977,1,0,0:0:0:0:
256,192,71135,1,8,0:0:0:0:
256,192,71450,1,4,0:0:0:0:
256,192,71687,1,8,0:0:0:0:
256,192,71924,1,8,0:0:0:0:
256,192,72082,1,0,0:0:0:0:
256,192,72319,1,8,0:0:0:0:
256,192,72556,1,8,0:0:0:0:
256,192,73029,1,8,0:0:0:0:
256,192,73187,1,0,0:0:0:0:
256,192,73345,1,8,0:0:0:0:
256,192,73503,1,0,0:0:0:0:
256,192,73661,1,8,0:0:0:0:
256,192,73740,1,8,0:0:0:0:
256,192,73819,1,8,0:0:0:0:
256,192,73977,1,4,0:0:0:0:
256,192,74214,1,0,0:0:0:0:
256,192,74292,1,0,0:0:0:0:
256,192,74450,1,8,0:0:0:0:
256,192,74766,1,8,0:0:0:0:
256,192,74924,1,0,0:0:0:0:
256,192,75240,1,0,0:0:0:0:
256,192,75398,1,8,0:0:0:0:
256,192,75556,1,0,0:0:0:0:
256,192,75714,1,0,0:0:0:0:
256,192,75871,1,8,0:0:0:0:
256,192,76029,1,8,0:0:0:0:
256,192,76187,1,0,0:0:0:0:
256,192,76345,1,8,0:0:0:0:
256,192,76503,1,0,0:0:0:0:
256,192,76740,1,0,0:0:0:0:
256,192,76819,1,0,0:0:0:0:
256,192,76977,1,8,0:0:0:0:
256,192,77292,1,8,0:0:0:0:
256,192,77450,1,0,0:0:0:0:
256,192,77766,1,0,0:0:0:0:
256,192,78003,1,8,0:0:0:0:
256,192,78082,1,8,0:0:0:0:
256,192,78240,1,0,0:0:0:0:
256,192,78714,1,8,0:0:0:0:
256,192,79029,1,4,0:0:0:0:
256,192,79266,1,0,0:0:0:0:
256,192,79345,1,0,0:0:0:0:
256,192,79503,1,8,0:0:0:0:
256,192,79819,1,8,0:0:0:0:
256,192,79977,1,0,0:0:0:0:
256,192,80135,1,8,0:0:0:0:
256,192,80450,1,8,0:0:0:0:
256,192,80766,1,0,0:0:0:0:
256,192,80924,1,8,0:0:0:0:
256,192,81082,1,8,0:0:0:0:
256,192,81240,1,0,0:0:0:0:
256,192,81398,1,8,0:0:0:0:
256,192,81556,1,4,0:0:0:0:
256,192,81871,1,0,0:0:0:0:
256,192,82029,1,8,0:0:0:0:
256,192,82345,1,8,0:0:0:0:
256,192,82503,1,4,0:0:0:0:
256,192,82819,1,0,0:0:0:0:
256,192,82977,1,12,0:0:0:0:
256,192,83292,1,8,0:0:0:0:
256,192,83371,1,8,0:0:0:0:
256,192,83450,1,8,0:0:0:0:
256,192,83608,1,0,0:0:0:0:
256,192,83766,1,0,0:0:0:0:
256,192,83924,1,0,0:0:0:0:
256,192,84082,1,8,0:0:0:0:
256,192,84556,1,0,0:0:0:0:
256,192,84714,1,8,0:0:0:0:
256,192,85029,1,0,0:0:0:0:
256,192,85187,1,0,0:0:0:0:
256,192,85503,1,8,0:0:0:0:
256,192,85819,1,8,0:0:0:0:
256,192,86135,1,0,0:0:0:0:
256,192,86214,1,0,0:0:0:0:
256,192,86292,1,0,0:0:0:0:
256,192,86608,1,12,0:0:0:0:
256,192,86924,1,0,0:0:0:0:
256,192,87240,1,8,0:0:0:0:
256,192,87398,1,0,0:0:0:0:
256,192,87556,1,0,0:0:0:0:
256,192,87714,1,8,0:0:0:0:
256,192,88029,1,0,0:0:0:0:
256,192,88187,1,8,0:0:0:0:
256,192,89135,1,12,0:0:0:0:
256,192,89450,1,8,0:0:0:0:
256,192,89608,1,0,0:0:0:0:
256,192,89766,1,8,0:0:0:0:
256,192,89845,1,8,0:0:0:0:
256,192,89924,1,8,0:0:0:0:
256,192,90082,1,0,0:0:0:0:
256,192,90240,1,0,0:0:0:0:
256,192,90398,1,8,0:0:0:0:
256,192,90714,1,0,0:0:0:0:
256,192,90950,1,8,0:0:0:0:
256,192,91029,1,8,0:0:0:0:
256,192,91187,1,8,0:0:0:0:
256,192,91345,1,0,0:0:0:0:
256,192,91661,1,8,0:0:0:0:
256,192,91977,1,0,0:0:0:0:
256,192,92292,1,0,0:0:0:0:
256,192,92450,1,0,0:0:0:0:
256,192,92608,1,8,0:0:0:0:
256,192,92687,1,8,0:0:0:0:
256,192,92766,1,8,0:0:0:0:
256,192,92924,1,0,0:0:0:0:
256,192,93240,1,8,0:0:0:0:
256,192,93398,1,8,0:0:0:0:
256,192,93556,1,0,0:0:0:0:
256,192,93714,1,0,0:0:0:0:
256,192,93871,1,8,0:0:0:0:
256,192,94187,1,12,0:0:0:0:
256,192,94503,1,0,0:0:0:0:
256,192,94661,1,8,0:0:0:0:
256,192,94819,1,0,0:0:0:0:
256,192,94898,1,0,0:0:0:0:
256,192,94977,1,0,0:0:0:0:
256,192,95135,1,8,0:0:0:0:
256,192,95292,1,8,0:0:0:0:
256,192,95450,1,0,0:0:0:0:
256,192,95766,1,0,0:0:0:0:
256,192,96082,1,8,0:0:0:0:
256,192,96240,1,8,0:0:0:0:
256,192,96319,1,8,0:0:0:0:
256,192,96398,1,8,0:0:0:0:
256,192,96556,1,0,0:0:0:0:
256,192,96714,1,12,0:0:0:0:
256,192,97029,1,8,0:0:0:0:
256,192,97187,1,4,0:0:0:0:
256,192,97661,1,0,0:0:0:0:
256,192,97819,1,12,0:0:0:0:
256,192,98135,1,0,0:0:0:0:
256,192,98292,1,8,0:0:0:0:
256,192,98450,1,0,0:0:0:0:
256,192,98608,1,8,0:0:0:0:
256,192,98766,1,8,0:0:0:0:
256,192,98845,1,8,0:0:0:0:
256,192,98924,1,8,0:0:0:0:
256,192,99082,1,8,0:0:0:0:
256,192,99240,1,4,0:0:0:0:
256,192,99556,1,8,0:0:0:0:
256,192,99714,1,0,0:0:0:0:
256,192,99792,1,0,0:0:0:0:
256,192,99871,1,0,0:0:0:0:
256,192,100029,1,0,0:0:0:0:
256,192,100187,1,8,0:0:0:0:
256,192,100345,1,8,0:0:0:0:
256,192,100503,1,0,0:0:0:0:
256,192,100819,1,8,0:0:0:0:
256,192,101056,1,0,0:0:0:0:
256,192,101135,1,0,0:0:0:0:
256,192,101292,1,0,0:0:0:0:
256,192,101450,1,8,0:0:0:0:
256,192,101766,1,8,0:0:0:0:
256,192,102082,1,0,0:0:0:0:
256,192,102398,1,0,0:0:0:0:
256,192,102556,1,8,0:0:0:0:
256,192,102714,1,8,0:0:0:0:
256,192,102871,1,4,0:0:0:0:
256,192,103187,1,0,0:0:0:0:
256,192,103345,1,0,0:0:0:0:
256,192,103503,1,8,0:0:0:0:
256,192,103582,1,8,0:0:0:0:
256,192,103661,1,8,0:0:0:0:
256,192,103819,1,0,0:0:0:0:
256,192,103977,1,0,0:0:0:0:
256,192,104135,1,0,0:0:0:0:
256,192,104292,1,12,0:0:0:0:
256,192,104766,1,8,0:0:0:0:
256,192,105082,1,8,0:0:0:0:
256,192,105240,1,0,0:0:0:0:
256,192,105398,1,0,0:0:0:0:
256,192,105556,1,12,0:0:0:0:
256,192,105871,1,8,0:0:0:0:
256,192,106029,1,0,0:0:0:0:
256,192,106108,1,0,0:0:0:0:
256,192,106187,1,0,0:0:0:0:
256,192,106345,1,0,0:0:0:0:
256,192,106503,1,0,0:0:0:0:
256,192,106661,1,0,0:0:0:0:
256,192,106819,1,12,0:0:0:0:
256,192,107292,1,0,0:0:0:0:
256,192,107450,1,8,0:0:0:0:
256,192,108082,1,8,0:0:0:0:
256,192,108240,1,0,0:0:0:0:
256,192,108556,1,0,0:0:0:0:
256,192,108714,1,8,0:0:0:0:
256,192,109029,1,0,0:0:0:0:
256,192,109187,1,0,0:0:0:0:
256,192,109345,1,8,0:0:0:0:
256,192,109503,1,8,0:0:0:0:
256,192,109819,1,0,0:0:0:0:
256,192,109977,1,8,0:0:0:0:
256,192,110450,1,8,0:0:0:0:
256,192,110608,1,0,0:0:0:0:
256,192,110766,1,8,0:0:0:0:
256,192,111082,1,8,0:0:0:0:
256,192,111240,1,8,0:0:0:0:
256,192,111871,1,0,0:0:0:0:
256,192,112029,1,8,0:0:0:0:
256,192,112187,1,8,0:0:0:0:
256,192,112345,1,0,0:0:0:0:
256,192,112503,1,8,0:0:0:0:
256,192,112661,1,8,0:0:0:0:
256,192,112819,1,0,0:0:0:0:
256,192,113135,1,8,0:0:0:0:
256,192,113292,1,0,0:0:0:0:
256,192,113450,1,0,0:0:0:0:
256,192,113608,1,8,0:0:0:0:
256,192,113766,1,0,0:0:0:0:
256,192,113924,1,0,0:0:0:0:
256,192,114082,1,8,0:0:0:0:
256,192,114398,1,8,0:0:0:0:
256,192,114556,1,8,0:0:0:0:
256,192,114714,1,0,0:0:0:0:
256,192,114871,1,8,0:0:0:0:
256,192,115029,1,8,0:0:0:0:
256,192,115187,1,0,0:0:0:0:
256,192,115345,1,8,0:0:0:0:
256,192,115503,1,0,0:0:0:0:
256,192,115661,1,8,0:0:0:0:
256,192,115819,1,8,0:0:0:0:
256,192,115977,1,0,0:0:0:0:
256,192,116135,1,8,0:0:0:0:
256,192,116214,1,8,0:0:0:0:
256,192,116292,1,8,0:0:0:0:
256,192,116450,1,0,0:0:0:0:
256,192,116608,1,8,0:0:0:0:
256,192,116766,1,8,0:0:0:0:
256,192,116924,1,0,0:0:0:0:
256,192,117556,1,12,0:0:0:0:
256,192,118029,1,12,0:0:0:0:
256,192,118503,1,4,0:0:0:0:
256,192,118977,1,4,0:0:0:0:
256,192,119450,1,8,0:0:0:0:
256,192,119608,1,0,0:0:0:0:
256,192,119687,1,0,0:0:0:0:
256,192,119766,1,0,0:0:0:0:
256,192,119924,1,8,0:0:0:0:
256,192,120082,1,0,0:0:0:0:
256,192,120240,1,8,0:0:0:0:
256,192,120398,1,8,0:0:0:0:
256,192,120477,1,8,0:0:0:0:
256,192,120556,1,8,0:0:0:0:
256,192,120714,1,8,0:0:0:0:
256,192,120871,1,4,0:0:0:0:
256,192,121108,1,4,0:0:0:0:
256,192,121345,1,4,0:0:0:0:
256,192,121582,1,4,0:0:0:0:
256,192,121819,1,12,0:0:0:0:
256,192,122292,1,4,0:0:0:0:
256,192,122608,1,0,0:0:0:0:
256,192,122766,1,8,0:0:0:0:
256,192,123082,1,8,0:0:0:0:
256,192,123240,1,8,0:0:0:0:
256,192,123556,1,8,0:0:0:0:
256,192,123871,1,0,0:0:0:0:
256,192,124187,1,0,0:0:0:0:
256,192,124503,5,8,0:0:0:0:
256,192,124660,1,0,0:0:0:0:
256,192,124818,1,8,0:0:0:0:
256,192,124897,1,8,0:0:0:0:
256,192,124976,1,8,0:0:0:0:
256,192,125134,1,0,0:0:0:0:
256,192,125292,1,8,0:0:0:0:
256,192,125450,1,0,0:0:0:0:
256,192,125529,1,0,0:0:0:0:
256,192,125608,1,0,0:0:0:0:
256,192,125766,1,8,0:0:0:0:
256,192,125924,1,8,0:0:0:0:
256,192,126081,1,0,0:0:0:0:
256,192,126160,1,0,0:0:0:0:
256,192,126239,1,0,0:0:0:0:
256,192,126397,1,8,0:0:0:0:
256,192,126555,1,0,0:0:0:0:
256,192,126713,1,0,0:0:0:0:
256,192,126792,1,0,0:0:0:0:
256,192,126871,1,0,0:0:0:0:
256,192,127029,1,12,0:0:0:0:
256,192,127345,1,0,0:0:0:0:
256,192,127503,1,0,0:0:0:0:
256,192,127661,1,0,0:0:0:0:
256,192,127977,1,0,0:0:0:0:
256,192,128292,1,8,0:0:0:0:
256,192,128766,1,0,0:0:0:0:
256,192,128924,1,8,0:0:0:0:
256,192,129082,1,8,0:0:0:0:
256,192,129240,1,0,0:0:0:0:
256,192,129556,1,8,0:0:0:0:
256,192,129871,1,0,0:0:0:0:
256,192,130029,1,8,0:0:0:0:
256,192,130345,1,8,0:0:0:0:
256,192,130503,1,0,0:0:0:0:
256,192,130819,1,0,0:0:0:0:
256,192,130977,1,8,0:0:0:0:
256,192,131292,1,8,0:0:0:0:
256,192,131450,1,0,0:0:0:0:
256,192,131766,1,8,0:0:0:0:
256,192,132082,1,8,0:0:0:0:
256,192,132398,1,0,0:0:0:0:
256,192,132556,1,0,0:0:0:0:
256,192,132714,1,8,0:0:0:0:
256,192,133029,1,0,0:0:0:0:
256,192,133345,1,8,0:0:0:0:
256,192,133819,1,0,0:0:0:0:
256,192,133977,1,8,0:0:0:0:
256,192,134292,1,0,0:0:0:0:
256,192,134608,1,8,0:0:0:0:
256,192,134924,1,8,0:0:0:0:
256,192,135082,1,8,0:0:0:0:
256,192,135398,1,0,0:0:0:0:
256,192,135556,1,12,0:0:0:0:
256,192,135871,1,0,0:0:0:0:
256,192,136187,1,8,0:0:0:0:
256,192,136345,1,0,0:0:0:0:
256,192,136661,1,0,0:0:0:0:
256,192,136819,1,0,0:0:0:0:
256,192,137135,1,12,0:0:0:0:
256,192,137450,1,0,0:0:0:0:
256,192,137766,1,8,0:0:0:0:
256,192,138082,1,8,0:0:0:0:
256,192,138398,1,0,0:0:0:0:
256,192,138556,1,8,0:0:0:0:
256,192,138714,1,0,0:0:0:0:
256,192,139029,1,0,0:0:0:0:
256,192,139187,1,0,0:0:0:0:
256,192,139345,1,8,0:0:0:0:
256,192,139661,1,0,0:0:0:0:
256,192,139977,1,8,0:0:0:0:
256,192,140135,1,0,0:0:0:0:
256,192,140292,1,0,0:0:0:0:
256,192,140608,1,8,0:0:0:0:
256,192,140924,1,0,0:0:0:0:
256,192,141082,1,8,0:0:0:0:
256,192,141240,1,8,0:0:0:0:
256,192,141556,1,0,0:0:0:0:
256,192,141871,1,8,0:0:0:0:
256,192,142187,1,4,0:0:0:0:
256,192,142503,1,8,0:0:0:0:
256,192,142661,1,0,0:0:0:0:
256,192,142819,1,8,0:0:0:0:
256,192,143135,1,0,0:0:0:0:
256,192,143292,1,0,0:0:0:0:
256,192,143608,1,0,0:0:0:0:
256,192,143766,1,8,0:0:0:0:
256,192,144714,1,8,0:0:0:0:
256,192,147240,1,8,0:0:0:0:
256,192,147398,1,0,0:0:0:0:
256,192,147714,1,0,0:0:0:0:
256,192,148029,1,8,0:0:0:0:
256,192,148187,1,0,0:0:0:0:
256,192,148345,1,0,0:0:0:0:
256,192,148503,1,8,0:0:0:0:
256,192,148661,1,0,0:0:0:0:
256,192,148819,1,8,0:0:0:0:
256,192,148977,1,8,0:0:0:0:
256,192,149135,1,0,0:0:0:0:
256,192,149214,1,0,0:0:0:0:
256,192,149292,1,0,0:0:0:0:
256,192,149450,1,8,0:0:0:0:
256,192,149766,1,0,0:0:0:0:
256,192,149924,1,8,0:0:0:0:
256,192,150082,1,8,0:0:0:0:
256,192,150240,1,0,0:0:0:0:
256,192,150556,1,8,0:0:0:0:
256,192,150714,1,0,0:0:0:0:
256,192,150871,1,0,0:0:0:0:
256,192,151029,1,8,0:0:0:0:
256,192,151345,1,0,0:0:0:0:
256,192,151503,1,8,0:0:0:0:
256,192,151819,1,8,0:0:0:0:
256,192,151977,1,0,0:0:0:0:
256,192,152056,1,0,0:0:0:0:
256,192,152135,1,0,0:0:0:0:
256,192,152292,1,8,0:0:0:0:
256,192,152503,1,8,0:0:0:0:
256,192,152714,1,8,0:0:0:0:
256,192,152924,1,8,0:0:0:0:
256,192,153135,1,8,0:0:0:0:
256,192,153345,1,8,0:0:0:0:
256,192,153556,1,8,0:0:0:0:
256,192,153766,1,8,0:0:0:0:
256,192,153977,1,8,0:0:0:0:
256,192,154187,1,8,0:0:0:0:
256,192,154398,1,8,0:0:0:0:
256,192,154608,1,8,0:0:0:0:
256,192,154819,1,4,0:0:0:0:
256,192,162398,5,0,0:0:0:0:
256,192,162871,1,8,0:0:0:0:
256,192,163345,1,8,0:0:0:0:
256,192,163819,1,0,0:0:0:0:
256,192,163977,1,0,0:0:0:0:
256,192,164135,1,8,0:0:0:0:
256,192,164214,1,8,0:0:0:0:
256,192,164292,1,8,0:0:0:0:
256,192,164450,1,0,0:0:0:0:
256,192,164608,1,0,0:0:0:0:
256,192,164924,1,12,0:0:0:0:
256,192,165240,1,0,0:0:0:0:
256,192,165398,1,8,0:0:0:0:
256,192,165556,1,0,0:0:0:0:
256,192,165871,1,8,0:0:0:0:
256,192,166187,1,0,0:0:0:0:
256,192,166345,1,0,0:0:0:0:
256,192,166503,1,0,0:0:0:0:
256,192,166819,1,12,0:0:0:0:
256,192,167135,1,0,0:0:0:0:
256,192,167450,1,0,0:0:0:0:
256,192,167661,1,0,0:0:0:0:
256,192,167766,1,0,0:0:0:0:
256,192,167977,1,8,0:0:0:0:
256,192,168082,1,8,0:0:0:0:
256,192,168292,1,0,0:0:0:0:
256,192,168503,1,0,0:0:0:0:
256,192,168714,1,12,0:0:0:0:
256,192,169029,1,0,0:0:0:0:
256,192,169187,1,0,0:0:0:0:
256,192,169345,1,8,0:0:0:0:
256,192,169503,1,8,0:0:0:0:
256,192,169661,1,0,0:0:0:0:
256,192,169819,1,0,0:0:0:0:
256,192,169977,1,12,0:0:0:0:
256,192,170292,1,0,0:0:0:0:
256,192,170450,1,8,0:0:0:0:
256,192,170608,1,0,0:0:0:0:
256,192,170924,1,0,0:0:0:0:
256,192,171240,1,8,0:0:0:0:
256,192,171398,1,8,0:0:0:0:
256,192,171556,1,4,0:0:0:0:
256,192,172503,1,12,0:0:0:0:
256,192,172819,1,0,0:0:0:0:
256,192,172977,1,8,0:0:0:0:
256,192,173056,1,8,0:0:0:0:
256,192,173135,1,8,0:0:0:0:
256,192,173292,1,0,0:0:0:0:
256,192,173450,1,8,0:0:0:0:
256,192,173608,1,8,0:0:0:0:
256,192,173766,1,0,0:0:0:0:
256,192,174082,1,8,0:0:0:0:
256,192,174319,1,0,0:0:0:0:
256,192,174398,1,0,0:0:0:0:
256,192,174556,1,0,0:0:0:0:
256,192,174714,1,8,0:0:0:0:
256,192,175029,1,0,0:0:0:0:
256,192,175345,1,8,0:0:0:0:
256,192,175661,1,0,0:0:0:0:
256,192,175819,1,0,0:0:0:0:
256,192,175977,1,8,0:0:0:0:
256,192,176056,1,8,0:0:0:0:
256,192,176135,1,8,0:0:0:0:
256,192,176292,1,0,0:0:0:0:
256,192,176608,1,0,0:0:0:0:
256,192,176766,1,0,0:0:0:0:
256,192,176924,1,8,0:0:0:0:
256,192,177082,1,8,0:0:0:0:
256,192,177240,1,0,0:0:0:0:
256,192,177556,1,12,0:0:0:0:
256,192,177871,1,8,0:0:0:0:
256,192,178029,1,0,0:0:0:0:
256,192,178187,1,0,0:0:0:0:
256,192,178266,1,0,0:0:0:0:
256,192,178345,1,0,0:0:0:0:
256,192,178503,1,12,0:0:0:0:
256,192,178977,1,0,0:0:0:0:
256,192,179135,1,8,0:0:0:0:
256,192,179450,1,8,0:0:0:0:
256,192,179608,1,0,0:0:0:0:
256,192,179766,1,8,0:0:0:0:
256,192,179924,1,8,0:0:0:0:
256,192,180082,1,0,0:0:0:0:
256,192,180240,1,0,0:0:0:0:
256,192,180398,1,0,0:0:0:0:
256,192,180556,1,8,0:0:0:0:
256,192,180871,1,8,0:0:0:0:
256,192,181029,1,8,0:0:0:0:
256,192,181187,1,4,0:0:0:0:
256,192,181661,1,8,0:0:0:0:
256,192,181819,1,0,0:0:0:0:
256,192,181977,1,8,0:0:0:0:
256,192,182135,1,0,0:0:0:0:
256,192,182214,1,0,0:0:0:0:
256,192,182292,1,0,0:0:0:0:
256,192,182450,1,0,0:0:0:0:
256,192,182608,1,12,0:0:0:0:
256,192,182924,1,8,0:0:0:0:
256,192,183082,1,8,0:0:0:0:
256,192,183240,1,0,0:0:0:0:
256,192,183319,1,0,0:0:0:0:
256,192,183398,1,0,0:0:0:0:
256,192,183556,1,8,0:0:0:0:
256,192,183714,1,0,0:0:0:0:
256,192,183872,1,8,0:0:0:0:
256,192,184188,1,0,0:0:0:0:
256,192,184424,1,8,0:0:0:0:
256,192,184503,1,8,0:0:0:0:
256,192,184661,1,0,0:0:0:0:
256,192,184819,1,0,0:0:0:0:
256,192,185135,1,8,0:0:0:0:
256,192,185451,1,8,0:0:0:0:
256,192,185766,1,0,0:0:0:0:
256,192,185924,1,0,0:0:0:0:
256,192,186082,1,8,0:0:0:0:
256,192,186240,1,12,0:0:0:0:
256,192,186556,1,0,0:0:0:0:
256,192,186714,1,8,0:0:0:0:
256,192,186871,1,8,0:0:0:0:
256,192,186950,1,8,0:0:0:0:
256,192,187029,1,8,0:0:0:0:
256,192,187187,1,0,0:0:0:0:
256,192,187345,1,0,0:0:0:0:
256,192,187503,1,0,0:0:0:0:
256,192,187661,1,12,0:0:0:0:
256,192,188135,1,8,0:0:0:0:
256,192,188450,1,0,0:0:0:0:
256,192,188608,1,8,0:0:0:0:
256,192,188766,1,0,0:0:0:0:
256,192,188924,1,12,0:0:0:0:
256,192,189240,1,8,0:0:0:0:
256,192,189398,1,8,0:0:0:0:
256,192,189477,1,8,0:0:0:0:
256,192,189556,1,8,0:0:0:0:
256,192,189714,1,8,0:0:0:0:
256,192,189871,1,8,0:0:0:0:
256,192,190187,1,12,0:0:0:0:
256,192,190424,1,0,0:0:0:0:
256,192,190661,1,8,0:0:0:0:
256,192,190819,1,8,0:0:0:0:
256,192,191056,1,0,0:0:0:0:
256,192,191292,1,8,0:0:0:0:
256,192,191450,1,0,0:0:0:0:
256,192,191687,1,0,0:0:0:0:
256,192,191924,1,8,0:0:0:0:
256,192,192082,1,8,0:0:0:0:
256,192,192319,1,0,0:0:0:0:
256,192,192556,1,0,0:0:0:0:
256,192,192714,1,8,0:0:0:0:
256,192,192950,1,0,0:0:0:0:
256,192,193187,1,8,0:0:0:0:
256,192,193345,1,8,0:0:0:0:
256,192,193582,1,0,0:0:0:0:
256,192,193819,1,8,0:0:0:0:
256,192,193977,1,0,0:0:0:0:
256,192,194135,1,8,0:0:0:0:
256,192,194292,1,8,0:0:0:0:
256,192,194450,1,0,0:0:0:0:
256,192,194766,1,0,0:0:0:0:
256,192,195240,1,8,0:0:0:0:
256,192,195477,1,0,0:0:0:0:
256,192,195556,1,0,0:0:0:0:
256,192,195714,1,8,0:0:0:0:
256,192,195871,1,0,0:0:0:0:
256,192,196108,1,0,0:0:0:0:
256,192,196187,1,0,0:0:0:0:
256,192,196345,1,8,0:0:0:0:
256,192,196503,1,8,0:0:0:0:
256,192,196740,1,8,0:0:0:0:
256,192,196819,1,8,0:0:0:0:
256,192,196977,1,0,0:0:0:0:
256,192,197135,1,8,0:0:0:0:
256,192,197371,1,8,0:0:0:0:
256,192,197450,1,8,0:0:0:0:
256,192,197608,1,8,0:0:0:0:
256,192,197766,1,4,0:0:0:0:
256,192,199029,1,4,0:0:0:0:
256,192,199345,1,4,0:0:0:0:
256,192,199661,1,4,0:0:0:0:
256,192,199977,1,12,0:0:0:0:
256,192,200292,5,8,0:0:0:0:
256,192,200449,1,0,0:0:0:0:
256,192,200607,1,8,0:0:0:0:
256,192,200686,1,8,0:0:0:0:
256,192,200765,1,8,0:0:0:0:
256,192,200923,1,0,0:0:0:0:
256,192,201081,1,8,0:0:0:0:
256,192,201239,1,0,0:0:0:0:
256,192,201318,1,0,0:0:0:0:
256,192,201397,1,0,0:0:0:0:
256,192,201555,1,8,0:0:0:0:
256,192,201713,1,8,0:0:0:0:
256,192,201870,1,0,0:0:0:0:
256,192,201949,1,0,0:0:0:0:
256,192,202028,1,0,0:0:0:0:
256,192,202186,1,8,0:0:0:0:
256,192,202344,1,0,0:0:0:0:
256,192,202502,1,0,0:0:0:0:
256,192,202581,1,0,0:0:0:0:
256,192,202660,1,0,0:0:0:0:
256,192,202818,1,12,0:0:0:0:
256,192,203292,1,0,0:0:0:0:
256,192,203449,1,8,0:0:0:0:
256,192,203607,1,8,0:0:0:0:
256,192,203765,1,0,0:0:0:0:
256,192,203923,1,8,0:0:0:0:
256,192,204002,1,8,0:0:0:0:
256,192,204081,1,8,0:0:0:0:
256,192,204239,1,0,0:0:0:0:
256,192,204397,1,8,0:0:0:0:
256,192,204555,1,0,0:0:0:0:
256,192,204634,1,0,0:0:0:0:
256,192,204713,1,0,0:0:0:0:
256,192,204870,1,0,0:0:0:0:
256,192,205028,1,0,0:0:0:0:
256,192,205345,5,8,0:0:0:0:
256,192,205503,1,0,0:0:0:0:
256,192,205661,1,8,0:0:0:0:
256,192,205740,1,8,0:0:0:0:
256,192,205819,1,8,0:0:0:0:
256,192,205977,1,0,0:0:0:0:
256,192,206135,1,8,0:0:0:0:
256,192,206292,1,0,0:0:0:0:
256,192,206371,1,0,0:0:0:0:
256,192,206450,1,0,0:0:0:0:
256,192,206608,1,8,0:0:0:0:
256,192,206766,1,8,0:0:0:0:
256,192,206924,1,0,0:0:0:0:
256,192,207003,1,0,0:0:0:0:
256,192,207082,1,0,0:0:0:0:
256,192,207240,1,8,0:0:0:0:
256,192,207398,1,0,0:0:0:0:
256,192,207556,1,0,0:0:0:0:
256,192,207635,1,0,0:0:0:0:
256,192,207714,1,0,0:0:0:0:
256,192,207871,1,12,0:0:0:0:
256,192,208345,1,8,0:0:0:0:
256,192,208503,1,8,0:0:0:0:
256,192,208661,1,0,0:0:0:0:
256,192,208819,1,8,0:0:0:0:
256,192,208977,1,0,0:0:0:0:
256,192,209056,1,0,0:0:0:0:
256,192,209135,1,0,0:0:0:0:
256,192,209292,1,8,0:0:0:0:
256,192,209450,1,8,0:0:0:0:
256,192,209608,1,0,0:0:0:0:
256,192,209687,1,0,0:0:0:0:
256,192,209766,1,0,0:0:0:0:
256,192,209924,1,0,0:0:0:0:
256,192,210082,1,8,0:0:0:0:
256,192,210240,1,8,0:0:0:0:
256,192,210398,1,4,0:0:0:0:
256,192,211503,1,0,0:0:0:0:
256,192,211661,1,12,0:0:0:0:
