osu file format v14

[General]
AudioFilename: audio.mp3
AudioLeadIn: 0
PreviewTime: 40819
Countdown: 0
SampleSet: Normal
StackLeniency: 0.7
Mode: 1
LetterboxInBreaks: 0
WidescreenStoryboard: 0

[Editor]
Bookmarks: 714,13345,31029,41135,58819,63871,84082,89135,106819,127029,144714,154819,172503
DistanceSpacing: 0.8
BeatDivisor: 4
GridSize: 32
TimelineZoom: 1.799999

[Metadata]
Title:Shinsekai
TitleUnicode:新世界
Artist:Hello Sleepwalkers
ArtistUnicode:Hello Sleepwalkers
Creator:Capu
Version:Inner Oni
Source:
Tags:シンセカイ japanese alternative progressive experimental rock jrock a-sketch music label donguri buster どんぐりバスター shuntaro narumi tasoko makoto yuki シュンタロウ ナルミ タソコ マコト ユウキ friggy-chan OMORI_ANTONIO OMORI ANTONIO krytwal
BeatmapID:3561752
BeatmapSetID:1742265

[Difficulty]
HPDrainRate:6
CircleSize:2
OverallDifficulty:7
ApproachRate:10
SliderMultiplier:1.4
SliderTickRate:1

[Events]
//Background and Video events
0,0,"76028361_p0.jpg",0,-50
//Break Periods
2,155019,161632
//Storyboard Layer 0 (Background)
//Storyboard Layer 1 (Fail)
//Storyboard Layer 2 (Pass)
//Storyboard Layer 3 (Foreground)
//Storyboard Layer 4 (Overlay)
//Storyboard Sound Samples

[TimingPoints]
714,315.789473684211,4,1,0,100,1,0
10977,-100,4,1,0,45,0,0
12477,-100,4,1,0,75,0,0
34661,-100,4,1,0,90,0,0
41135,-100,4,1,0,90,0,1
58187,-100,4,1,0,90,0,0
64029,-100,4,1,0,75,0,0
89135,-100,4,1,0,90,0,1
105556,-100,4,1,0,90,0,1
105871,-100,4,1,0,90,0,0
127266,-100,4,1,0,75,0,0
154977,-100,4,1,0,25,0,0
162371,-100,4,1,0,45,0,0
163977,-100,4,1,0,50,0,0
164135,-100,4,1,0,55,0,0
164214,-100,4,1,0,60,0,0
164292,-100,4,1,0,65,0,0
164450,-100,4,1,0,70,0,0
164924,-100,4,1,0,75,0,0
172503,-100,4,1,0,90,0,1
180082,-100,4,1,0,90,0,0
182608,-100,4,1,0,90,0,1
197766,-100,4,1,0,90,0,0

[HitObjects]
256,192,714,5,8,0:0:0:0:
256,192,792,1,8,0:0:0:0:
256,192,871,1,8,0:0:0:0:
256,192,950,1,8,0:0:0:0:
256,192,1029,1,0,0:0:0:0:
256,192,1108,1,0,0:0:0:0:
256,192,1187,1,0,0:0:0:0:
256,192,1266,1,0,0:0:0:0:
256,192,1345,1,8,0:0:0:0:
256,192,1424,1,8,0:0:0:0:
256,192,1503,1,8,0:0:0:0:
256,192,1582,1,8,0:0:0:0:
256,192,1661,1,0,0:0:0:0:
256,192,1740,1,0,0:0:0:0:
256,192,1819,1,0,0:0:0:0:
256,192,1898,1,0,0:0:0:0:
256,192,1977,1,8,0:0:0:0:
256,192,2056,1,8,0:0:0:0:
256,192,2135,1,0,0:0:0:0:
256,192,2214,1,0,0:0:0:0:
256,192,2292,1,8,0:0:0:0:
256,192,2371,1,8,0:0:0:0:
256,192,2450,1,0,0:0:0:0:
256,192,2529,1,0,0:0:0:0:
256,192,2608,1,8,0:0:0:0:
256,192,2687,1,8,0:0:0:0:
256,192,2766,1,8,0:0:0:0:
256,192,2845,1,8,0:0:0:0:
256,192,2924,1,0,0:0:0:0:
256,192,3003,1,0,0:0:0:0:
256,192,3082,1,0,0:0:0:0:
256,192,3161,1,0,0:0:0:0:
256,192,3240,1,12,0:0:0:0:
256,192,3477,1,0,0:0:0:0:
256,192,3556,1,8,0:0:0:0:
256,192,3714,1,0,0:0:0:0:
256,192,3871,1,8,0:0:0:0:
256,192,3950,1,8,0:0:0:0:
256,192,4029,1,0,0:0:0:0:
256,192,4187,1,0,0:0:0:0:
256,192,4345,1,8,0:0:0:0:
256,192,4424,1,0,0:0:0:0:
256,192,4503,1,8,0:0:0:0:
256,192,4661,1,0,0:0:0:0:
256,192,4819,1,8,0:0:0:0:
256,192,4977,1,0,0:0:0:0:
256,192,5056,1,0,0:0:0:0:
256,192,5135,1,8,0:0:0:0:
256,192,5214,1,8,0:0:0:0:
256,192,5292,1,0,0:0:0:0:
256,192,5371,1,0,0:0:0:0:
256,192,5450,1,8,0:0:0:0:
256,192,5608,1,0,0:0:0:0:
256,192,5766,1,8,0:0:0:0:
256,192,5844,1,8,0:0:0:0:
256,192,5923,1,8,0:0:0:0:
256,192,6002,1,8,0:0:0:0:
256,192,6081,1,0,0:0:0:0:
256,192,6160,1,0,0:0:0:0:
256,192,6239,1,0,0:0:0:0:
256,192,6318,1,0,0:0:0:0:
256,192,6397,1,8,0:0:0:0:
256,192,6476,1,8,0:0:0:0:
256,192,6555,1,8,0:0:0:0:
256,192,6634,1,8,0:0:0:0:
256,192,6713,1,0,0:0:0:0:
256,192,6792,1,0,0:0:0:0:
256,192,6871,1,0,0:0:0:0:
256,192,6950,1,0,0:0:0:0:
256,192,7029,1,8,0:0:0:0:
256,192,7108,1,8,0:0:0:0:
256,192,7187,1,0,0:0:0:0:
256,192,7266,1,0,0:0:0:0:
256,192,7344,1,8,0:0:0:0:
256,192,7423,1,8,0:0:0:0:
256,192,7502,1,0,0:0:0:0:
256,192,7581,1,0,0:0:0:0:
256,192,7660,1,8,0:0:0:0:
256,192,7739,1,8,0:0:0:0:
256,192,7818,1,8,0:0:0:0:
256,192,7897,1,8,0:0:0:0:
256,192,7976,1,0,0:0:0:0:
256,192,8055,1,0,0:0:0:0:
256,192,8134,1,0,0:0:0:0:
256,192,8213,1,0,0:0:0:0:
256,192,8292,1,12,0:0:0:0:
256,192,8529,1,0,0:0:0:0:
256,192,8608,1,8,0:0:0:0:
256,192,8766,1,0,0:0:0:0:
256,192,8845,1,0,0:0:0:0:
256,192,8924,1,0,0:0:0:0:
256,192,9082,1,0,0:0:0:0:
256,192,9240,1,8,0:0:0:0:
256,192,9398,1,8,0:0:0:0:
256,192,9477,1,8,0:0:0:0:
256,192,9556,1,0,0:0:0:0:
256,192,9714,1,0,0:0:0:0:
256,192,9871,1,8,0:0:0:0:
256,192,10029,1,0,0:0:0:0:
256,192,10108,1,0,0:0:0:0:
256,192,10187,1,8,0:0:0:0:
256,192,10266,1,8,0:0:0:0:
256,192,10345,1,0,0:0:0:0:
256,192,10424,1,0,0:0:0:0:
256,192,10503,1,8,0:0:0:0:
256,192,10582,1,0,0:0:0:0:
256,192,10661,1,8,0:0:0:0:
256,192,10740,1,8,0:0:0:0:
256,192,10819,1,4,0:0:0:0:
256,192,12556,5,8,0:0:0:0:
256,192,12635,1,8,0:0:0:0:
256,192,12714,1,8,0:0:0:0:
256,192,12871,1,0,0:0:0:0:
256,192,13029,1,0,0:0:0:0:
256,192,13187,1,0,0:0:0:0:
256,192,13266,1,0,0:0:0:0:
256,192,13345,1,12,0:0:0:0:
256,192,13582,1,0,0:0:0:0:
256,192,13661,1,8,0:0:0:0:
256,192,13819,1,0,0:0:0:0:
256,192,14135,1,0,0:0:0:0:
256,192,14292,1,8,0:0:0:0:
256,192,14608,1,0,0:0:0:0:
256,192,14766,1,0,0:0:0:0:
256,192,14924,1,8,0:0:0:0:
256,192,15082,1,0,0:0:0:0:
256,192,15398,1,0,0:0:0:0:
256,192,15556,1,8,0:0:0:0:
256,192,15871,1,0,0:0:0:0:
256,192,16108,1,8,0:0:0:0:
256,192,16187,1,0,0:0:0:0:
256,192,16345,1,8,0:0:0:0:
256,192,16661,1,0,0:0:0:0:
256,192,16819,1,8,0:0:0:0:
256,192,17135,1,8,0:0:0:0:
256,192,17292,1,0,0:0:0:0:
256,192,17450,1,8,0:0:0:0:
256,192,17608,1,8,0:0:0:0:
256,192,17766,1,0,0:0:0:0:
256,192,17924,1,0,0:0:0:0:
256,192,18082,1,8,0:0:0:0:
256,192,18398,1,0,0:0:0:0:
256,192,18635,1,8,0:0:0:0:
256,192,18714,1,8,0:0:0:0:
256,192,18871,1,8,0:0:0:0:
256,192,19187,1,0,0:0:0:0:
256,192,19345,1,8,0:0:0:0:
256,192,19661,1,0,0:0:0:0:
256,192,19819,1,8,0:0:0:0:
256,192,19898,1,8,0:0:0:0:
256,192,19977,1,8,0:0:0:0:
256,192,20135,1,0,0:0:0:0:
256,192,20292,1,0,0:0:0:0:
256,192,20450,1,8,0:0:0:0:
256,192,20608,1,0,0:0:0:0:
256,192,20766,1,8,0:0:0:0:
256,192,20845,1,8,0:0:0:0:
256,192,20924,1,0,0:0:0:0:
256,192,21161,1,0,0:0:0:0:
256,192,21240,1,8,0:0:0:0:
256,192,21398,1,0,0:0:0:0:
256,192,21714,1,0,0:0:0:0:
256,192,21871,1,8,0:0:0:0:
256,192,22187,1,0,0:0:0:0:
256,192,22345,1,0,0:0:0:0:
256,192,22503,1,8,0:0:0:0:
256,192,22661,1,8,0:0:0:0:
256,192,22819,1,0,0:0:0:0:
256,192,22977,1,8,0:0:0:0:
256,192,23135,1,0,0:0:0:0:
256,192,23292,1,8,0:0:0:0:
256,192,23450,1,0,0:0:0:0:
256,192,23687,1,0,0:0:0:0:
256,192,23766,1,0,0:0:0:0:
256,192,23924,1,0,0:0:0:0:
256,192,24240,1,0,0:0:0:0:
256,192,24398,1,8,0:0:0:0:
256,192,24714,1,0,0:0:0:0:
256,192,24871,1,0,0:0:0:0:
256,192,25029,1,8,0:0:0:0:
256,192,25187,1,0,0:0:0:0:
256,192,25503,1,8,0:0:0:0:
256,192,25661,1,0,0:0:0:0:
256,192,25819,1,0,0:0:0:0:
256,192,25977,1,8,0:0:0:0:
256,192,26214,1,0,0:0:0:0:
256,192,26292,1,8,0:0:0:0:
256,192,26450,1,0,0:0:0:0:
256,192,26766,1,0,0:0:0:0:
256,192,26924,1,8,0:0:0:0:
256,192,27240,1,0,0:0:0:0:
256,192,27398,1,8,0:0:0:0:
256,192,27556,1,8,0:0:0:0:
256,192,27714,1,0,0:0:0:0:
256,192,27871,1,8,0:0:0:0:
256,192,28029,1,0,0:0:0:0:
256,192,28187,1,0,0:0:0:0:
256,192,28503,1,0,0:0:0:0:
256,192,28661,1,8,0:0:0:0:
256,192,28740,1,0,0:0:0:0:
256,192,28819,1,8,0:0:0:0:
256,192,28977,1,0,0:0:0:0:
256,192,29135,1,8,0:0:0:0:
256,192,29214,1,8,0:0:0:0:
256,192,29292,1,0,0:0:0:0:
256,192,29450,1,0,0:0:0:0:
256,192,29608,1,8,0:0:0:0:
256,192,29687,1,8,0:0:0:0:
256,192,29766,1,8,0:0:0:0:
256,192,29924,1,0,0:0:0:0:
256,192,30082,1,12,0:0:0:0:
256,192,30240,1,0,0:0:0:0:
256,192,30319,1,0,0:0:0:0:
256,192,30398,1,0,0:0:0:0:
256,192,30556,1,8,0:0:0:0:
256,192,30714,1,8,0:0:0:0:
256,192,30871,1,0,0:0:0:0:
256,192,31029,1,4,0:0:0:0:
256,192,32924,1,8,0:0:0:0:
256,192,32964,1,8,0:0:0:0:
256,192,33082,1,0,0:0:0:0:
256,192,33240,1,0,0:0:0:0:
256,192,33398,1,0,0:0:0:0:
256,192,34819,1,12,0:0:0:0:
256,192,34977,1,0,0:0:0:0:
256,192,35135,1,0,0:0:0:0:
256,192,35292,1,8,0:0:0:0:
256,192,35450,1,0,0:0:0:0:
256,192,35529,1,0,0:0:0:0:
256,192,35608,1,0,0:0:0:0:
256,192,35766,1,8,0:0:0:0:
256,192,35924,1,0,0:0:0:0:
256,192,36082,1,12,0:0:0:0:
256,192,36398,1,0,0:0:0:0:
256,192,36556,1,8,0:0:0:0:
256,192,36871,1,8,0:0:0:0:
256,192,37029,1,0,0:0:0:0:
256,192,37187,1,0,0:0:0:0:
256,192,37345,1,12,0:0:0:0:
256,192,37661,1,0,0:0:0:0:
256,192,37819,1,8,0:0:0:0:
256,192,38135,1,0,0:0:0:0:
256,192,38292,1,8,0:0:0:0:
256,192,38450,1,0,0:0:0:0:
256,192,38529,1,0,0:0:0:0:
256,192,38608,1,0,0:0:0:0:
256,192,38766,1,12,0:0:0:0:
256,192,38924,1,12,0:0:0:0:
256,192,39082,1,0,0:0:0:0:
256,192,39240,1,12,0:0:0:0:
256,192,39398,1,12,0:0:0:0:
256,192,39556,1,0,0:0:0:0:
256,192,39714,1,8,0:0:0:0:
256,192,39871,1,0,0:0:0:0:
256,192,39950,1,0,0:0:0:0:
256,192,40029,1,0,0:0:0:0:
256,192,40108,1,0,0:0:0:0:
256,192,40187,1,8,0:0:0:0:
256,192,40345,1,0,0:0:0:0:
256,192,40661,1,0,0:0:0:0:
256,192,41135,1,12,0:0:0:0:
256,192,41371,1,0,0:0:0:0:
256,192,41450,1,8,0:0:0:0:
256,192,41608,1,0,0:0:0:0:
256,192,41766,1,8,0:0:0:0:
256,192,41845,1,8,0:0:0:0:
256,192,41924,1,0,0:0:0:0:
256,192,42082,1,8,0:0:0:0:
256,192,42161,1,0,0:0:0:0:
256,192,42240,1,0,0:0:0:0:
256,192,42319,1,0,0:0:0:0:
256,192,42398,1,8,0:0:0:0:
256,192,42556,1,8,0:0:0:0:
256,192,42714,1,8,0:0:0:0:
256,192,42871,1,0,0:0:0:0:
256,192,42950,1,0,0:0:0:0:
256,192,43029,1,8,0:0:0:0:
256,192,43187,1,0,0:0:0:0:
256,192,43345,1,8,0:0:0:0:
256,192,43503,1,0,0:0:0:0:
256,192,43582,1,0,0:0:0:0:
256,192,43661,1,8,0:0:0:0:
256,192,43740,1,8,0:0:0:0:
256,192,43819,1,0,0:0:0:0:
256,192,43977,1,8,0:0:0:0:
256,192,44135,1,8,0:0:0:0:
256,192,44292,1,0,0:0:0:0:
256,192,44450,1,8,0:0:0:0:
256,192,44529,1,0,0:0:0:0:
256,192,44608,1,8,0:0:0:0:
256,192,44687,1,8,0:0:0:0:
256,192,44766,1,0,0:0:0:0:
256,192,44845,1,0,0:0:0:0:
256,192,44924,1,8,0:0:0:0:
256,192,45082,1,0,0:0:0:0:
256,192,45240,1,8,0:0:0:0:
256,192,45398,1,0,0:0:0:0:
256,192,45477,1,0,0:0:0:0:
256,192,45556,1,8,0:0:0:0:
256,192,45635,1,0,0:0:0:0:
256,192,45714,1,8,0:0:0:0:
256,192,45871,1,8,0:0:0:0:
256,192,46029,1,0,0:0:0:0:
256,192,46187,1,12,0:0:0:0:
256,192,46424,1,0,0:0:0:0:
256,192,46503,1,8,0:0:0:0:
256,192,46661,1,0,0:0:0:0:
256,192,46819,1,8,0:0:0:0:
256,192,46977,1,0,0:0:0:0:
256,192,47056,1,0,0:0:0:0:
256,192,47135,1,8,0:0:0:0:
256,192,47214,1,8,0:0:0:0:
256,192,47292,1,0,0:0:0:0:
256,192,47450,1,8,0:0:0:0:
256,192,47608,1,0,0:0:0:0:
256,192,47687,1,0,0:0:0:0:
256,192,47766,1,8,0:0:0:0:
256,192,47924,1,0,0:0:0:0:
256,192,48082,1,8,0:0:0:0:
256,192,48161,1,0,0:0:0:0:
256,192,48240,1,8,0:0:0:0:
256,192,48398,1,0,0:0:0:0:
256,192,48477,1,0,0:0:0:0:
256,192,48556,1,0,0:0:0:0:
256,192,48714,1,12,0:0:0:0:
256,192,48871,1,0,0:0:0:0:
256,192,49029,1,0,0:0:0:0:
256,192,49187,1,8,0:0:0:0:
256,192,49345,1,0,0:0:0:0:
256,192,49503,1,0,0:0:0:0:
256,192,49661,1,8,0:0:0:0:
256,192,49819,1,12,0:0:0:0:
256,192,50135,1,0,0:0:0:0:
256,192,50292,1,8,0:0:0:0:
256,192,50450,1,0,0:0:0:0:
256,192,50608,1,8,0:0:0:0:
256,192,50766,1,8,0:0:0:0:
256,192,50845,1,0,0:0:0:0:
256,192,50924,1,8,0:0:0:0:
256,192,51003,1,8,0:0:0:0:
256,192,51082,1,0,0:0:0:0:
256,192,51161,1,0,0:0:0:0:
256,192,51240,1,12,0:0:0:0:
256,192,51477,1,0,0:0:0:0:
256,192,51556,1,8,0:0:0:0:
256,192,51714,1,8,0:0:0:0:
256,192,51871,1,0,0:0:0:0:
256,192,51950,1,0,0:0:0:0:
256,192,52029,1,8,0:0:0:0:
256,192,52187,1,8,0:0:0:0:
256,192,52345,1,0,0:0:0:0:
256,192,52424,1,0,0:0:0:0:
256,192,52503,1,8,0:0:0:0:
256,192,52582,1,8,0:0:0:0:
256,192,52661,1,0,0:0:0:0:
256,192,52819,1,8,0:0:0:0:
256,192,52977,1,0,0:0:0:0:
256,192,53135,1,8,0:0:0:0:
256,192,53214,1,8,0:0:0:0:
256,192,53292,1,0,0:0:0:0:
256,192,53450,1,8,0:0:0:0:
256,192,53608,1,0,0:0:0:0:
256,192,53687,1,0,0:0:0:0:
256,192,53766,1,8,0:0:0:0:
256,192,53924,1,0,0:0:0:0:
256,192,54082,1,8,0:0:0:0:
256,192,54240,1,0,0:0:0:0:
256,192,54319,1,0,0:0:0:0:
256,192,54398,1,8,0:0:0:0:
256,192,54477,1,8,0:0:0:0:
256,192,54556,1,0,0:0:0:0:
256,192,54635,1,0,0:0:0:0:
256,192,54714,1,8,0:0:0:0:
256,192,54871,1,4,0:0:0:0:
256,192,55187,1,0,0:0:0:0:
256,192,55345,1,8,0:0:0:0:
256,192,55503,1,0,0:0:0:0:
256,192,55582,1,0,0:0:0:0:
256,192,55661,1,0,0:0:0:0:
256,192,55819,1,8,0:0:0:0:
256,192,55977,1,8,0:0:0:0:
256,192,56135,1,0,0:0:0:0:
256,192,56214,1,0,0:0:0:0:
256,192,56292,1,12,0:0:0:0:
256,192,56608,1,0,0:0:0:0:
256,192,56766,1,8,0:0:0:0:
256,192,56924,1,0,0:0:0:0:
256,192,57082,1,8,0:0:0:0:
256,192,57240,1,8,0:0:0:0:
256,192,57398,1,0,0:0:0:0:
256,192,57556,1,8,0:0:0:0:
256,192,57595,1,8,0:0:0:0:
256,192,57714,1,8,0:0:0:0:
256,192,57871,1,8,0:0:0:0:
256,192,58029,1,8,0:0:0:0:
256,192,58187,1,0,0:0:0:0:
256,192,58345,1,0,0:0:0:0:
256,192,58424,1,0,0:0:0:0:
256,192,58503,1,0,0:0:0:0:
256,192,58661,1,0,0:0:0:0:
256,192,58740,1,0,0:0:0:0:
256,192,58819,1,12,0:0:0:0:
256,192,59056,1,0,0:0:0:0:
256,192,59292,1,0,0:0:0:0:
256,192,59608,1,0,0:0:0:0:
256,192,59766,1,0,0:0:0:0:
256,192,59924,1,0,0:0:0:0:
256,192,60240,1,0,0:0:0:0:
256,192,60398,1,8,0:0:0:0:
256,192,60556,1,0,0:0:0:0:
256,192,60635,1,0,0:0:0:0:
256,192,60714,1,8,0:0:0:0:
256,192,60753,1,8,0:0:0:0:
256,192,60871,1,0,0:0:0:0:
256,192,61029,1,8,0:0:0:0:
256,192,61187,1,4,0:0:0:0:
256,192,61503,1,8,0:0:0:0:
256,192,61661,1,0,0:0:0:0:
256,192,61819,1,0,0:0:0:0:
256,192,61977,1,8,0:0:0:0:
256,192,62135,1,8,0:0:0:0:
256,192,62292,1,0,0:0:0:0:
256,192,62450,1,8,0:0:0:0:
256,192,62529,1,0,0:0:0:0:
256,192,62608,1,8,0:0:0:0:
256,192,62687,1,8,0:0:0:0:
256,192,62766,1,0,0:0:0:0:
256,192,62845,1,0,0:0:0:0:
256,192,62924,1,8,0:0:0:0:
256,192,63003,1,0,0:0:0:0:
256,192,63082,1,0,0:0:0:0:
256,192,63161,1,0,0:0:0:0:
256,192,63240,1,8,0:0:0:0:
256,192,63279,1,8,0:0:0:0:
256,192,63398,1,0,0:0:0:0:
256,192,63871,1,4,0:0:0:0:
256,192,64108,1,0,0:0:0:0:
256,192,64187,1,8,0:0:0:0:
256,192,64345,1,8,0:0:0:0:
256,192,64503,1,0,0:0:0:0:
256,192,64661,1,8,0:0:0:0:
256,192,64819,1,12,0:0:0:0:
256,192,65292,1,0,0:0:0:0:
256,192,65450,1,8,0:0:0:0:
256,192,65608,1,0,0:0:0:0:
256,192,65766,1,8,0:0:0:0:
256,192,65924,1,8,0:0:0:0:
256,192,66082,1,0,0:0:0:0:
256,192,66240,1,0,0:0:0:0:
256,192,66398,1,8,0:0:0:0:
256,192,66635,1,0,0:0:0:0:
256,192,66714,1,8,0:0:0:0:
256,192,66871,1,0,0:0:0:0:
256,192,67187,1,8,0:0:0:0:
256,192,67345,1,8,0:0:0:0:
256,192,67503,1,0,0:0:0:0:
256,192,67661,1,8,0:0:0:0:
256,192,67819,1,0,0:0:0:0:
256,192,67977,1,0,0:0:0:0:
256,192,68135,1,8,0:0:0:0:
256,192,68292,1,0,0:0:0:0:
256,192,68450,1,0,0:0:0:0:
256,192,68608,1,8,0:0:0:0:
256,192,68924,1,8,0:0:0:0:
256,192,69161,1,0,0:0:0:0:
256,192,69240,1,0,0:0:0:0:
256,192,69398,1,8,0:0:0:0:
256,192,69556,1,0,0:0:0:0:
256,192,69714,1,8,0:0:0:0:
256,192,69871,1,12,0:0:0:0:
256,192,70187,1,8,0:0:0:0:
256,192,70345,1,0,0:0:0:0:
256,192,70503,1,8,0:0:0:0:
256,192,70661,1,8,0:0:0:0:
256,192,70819,1,0,0:0:0:0:
256,192,70977,1,0,0:0:0:0:
256,192,71135,1,8,0:0:0:0:
256,192,71450,1,4,0:0:0:0:
256,192,71687,1,8,0:0:0:0:
256,192,71924,1,8,0:0:0:0:
256,192,72082,1,0,0:0:0:0:
256,192,72319,1,8,0:0:0:0:
256,192,72556,1,8,0:0:0:0:
256,192,72714,1,0,0:0:0:0:
256,192,72871,1,0,0:0:0:0:
256,192,73029,1,8,0:0:0:0:
256,192,73108,1,8,0:0:0:0:
256,192,73187,1,0,0:0:0:0:
256,192,73345,1,8,0:0:0:0:
256,192,73424,1,8,0:0:0:0:
256,192,73503,1,0,0:0:0:0:
256,192,73661,1,8,0:0:0:0:
256,192,73740,1,8,0:0:0:0:
256,192,73819,1,0,0:0:0:0:
256,192,73898,1,0,0:0:0:0:
256,192,73977,1,12,0:0:0:0:
256,192,74214,1,0,0:0:0:0:
256,192,74292,1,8,0:0:0:0:
256,192,74450,1,8,0:0:0:0:
256,192,74766,1,0,0:0:0:0:
256,192,74924,1,8,0:0:0:0:
256,192,75082,1,8,0:0:0:0:
256,192,75240,1,0,0:0:0:0:
256,192,75398,1,0,0:0:0:0:
256,192,75477,1,0,0:0:0:0:
256,192,75556,1,8,0:0:0:0:
256,192,75714,1,0,0:0:0:0:
256,192,75871,1,8,0:0:0:0:
256,192,76029,1,0,0:0:0:0:
256,192,76187,1,0,0:0:0:0:
256,192,76345,1,8,0:0:0:0:
256,192,76424,1,8,0:0:0:0:
256,192,76503,1,0,0:0:0:0:
256,192,76740,1,0,0:0:0:0:
256,192,76819,1,8,0:0:0:0:
256,192,76977,1,0,0:0:0:0:
256,192,77135,1,0,0:0:0:0:
256,192,77292,1,8,0:0:0:0:
256,192,77450,1,0,0:0:0:0:
256,192,77608,1,8,0:0:0:0:
256,192,77766,1,0,0:0:0:0:
256,192,78003,1,0,0:0:0:0:
256,192,78082,1,8,0:0:0:0:
256,192,78240,1,8,0:0:0:0:
256,192,78398,1,0,0:0:0:0:
256,192,78556,1,8,0:0:0:0:
256,192,78714,1,0,0:0:0:0:
256,192,78792,1,0,0:0:0:0:
256,192,78871,1,0,0:0:0:0:
256,192,79029,1,12,0:0:0:0:
256,192,79266,1,8,0:0:0:0:
256,192,79345,1,0,0:0:0:0:
256,192,79503,1,8,0:0:0:0:
256,192,79819,1,0,0:0:0:0:
256,192,79977,1,8,0:0:0:0:
256,192,80135,1,0,0:0:0:0:
256,192,80292,1,0,0:0:0:0:
256,192,80450,1,8,0:0:0:0:
256,192,80529,1,8,0:0:0:0:
256,192,80608,1,0,0:0:0:0:
256,192,80766,1,0,0:0:0:0:
256,192,81082,1,0,0:0:0:0:
256,192,81240,1,8,0:0:0:0:
256,192,81398,1,0,0:0:0:0:
256,192,81556,1,12,0:0:0:0:
256,192,81871,1,0,0:0:0:0:
256,192,82029,1,8,0:0:0:0:
256,192,82345,1,0,0:0:0:0:
256,192,82424,1,0,0:0:0:0:
256,192,82503,1,12,0:0:0:0:
256,192,82819,1,0,0:0:0:0:
256,192,82977,1,12,0:0:0:0:
256,192,83292,1,0,0:0:0:0:
256,192,83371,1,0,0:0:0:0:
256,192,83450,1,8,0:0:0:0:
256,192,83608,1,8,0:0:0:0:
256,192,83766,1,0,0:0:0:0:
256,192,83924,1,0,0:0:0:0:
256,192,84082,1,4,0:0:0:0:
256,192,84556,1,0,0:0:0:0:
256,192,84714,1,8,0:0:0:0:
256,192,84871,1,0,0:0:0:0:
256,192,85187,1,0,0:0:0:0:
256,192,85503,1,0,0:0:0:0:
256,192,85819,1,0,0:0:0:0:
256,192,86135,1,0,0:0:0:0:
256,192,86214,1,0,0:0:0:0:
256,192,86292,1,8,0:0:0:0:
256,192,86608,1,4,0:0:0:0:
256,192,87082,1,0,0:0:0:0:
256,192,87240,1,8,0:0:0:0:
256,192,87398,1,0,0:0:0:0:
256,192,87556,1,0,0:0:0:0:
256,192,87714,1,4,0:0:0:0:
256,192,88029,1,0,0:0:0:0:
256,192,88108,1,0,0:0:0:0:
256,192,88187,1,8,0:0:0:0:
256,192,89135,1,12,0:0:0:0:
256,192,89371,1,0,0:0:0:0:
256,192,89450,1,8,0:0:0:0:
256,192,89608,1,0,0:0:0:0:
256,192,89766,1,8,0:0:0:0:
256,192,89845,1,8,0:0:0:0:
256,192,89924,1,0,0:0:0:0:
256,192,90082,1,8,0:0:0:0:
256,192,90240,1,0,0:0:0:0:
256,192,90319,1,0,0:0:0:0:
256,192,90398,1,8,0:0:0:0:
256,192,90477,1,8,0:0:0:0:
256,192,90556,1,0,0:0:0:0:
256,192,90714,1,8,0:0:0:0:
256,192,90871,1,0,0:0:0:0:
256,192,91029,1,8,0:0:0:0:
256,192,91108,1,0,0:0:0:0:
256,192,91266,1,0,0:0:0:0:
256,192,91345,1,8,0:0:0:0:
256,192,91503,1,0,0:0:0:0:
256,192,91661,1,8,0:0:0:0:
256,192,91819,1,0,0:0:0:0:
256,192,91898,1,0,0:0:0:0:
256,192,91977,1,8,0:0:0:0:
256,192,92135,1,0,0:0:0:0:
256,192,92292,1,8,0:0:0:0:
256,192,92450,1,8,0:0:0:0:
256,192,92529,1,0,0:0:0:0:
256,192,92608,1,8,0:0:0:0:
256,192,92687,1,8,0:0:0:0:
256,192,92766,1,0,0:0:0:0:
256,192,92845,1,0,0:0:0:0:
256,192,92924,1,8,0:0:0:0:
256,192,93082,1,0,0:0:0:0:
256,192,93240,1,8,0:0:0:0:
256,192,93319,1,0,0:0:0:0:
256,192,93398,1,0,0:0:0:0:
256,192,93477,1,0,0:0:0:0:
256,192,93556,1,8,0:0:0:0:
256,192,93714,1,0,0:0:0:0:
256,192,93871,1,8,0:0:0:0:
256,192,94029,1,8,0:0:0:0:
256,192,94187,1,4,0:0:0:0:
256,192,94424,1,0,0:0:0:0:
256,192,94503,1,8,0:0:0:0:
256,192,94661,1,0,0:0:0:0:
256,192,94819,1,8,0:0:0:0:
256,192,94898,1,8,0:0:0:0:
256,192,94977,1,0,0:0:0:0:
256,192,95135,1,8,0:0:0:0:
256,192,95292,1,0,0:0:0:0:
256,192,95371,1,8,0:0:0:0:
256,192,95450,1,0,0:0:0:0:
256,192,95529,1,0,0:0:0:0:
256,192,95608,1,8,0:0:0:0:
256,192,95766,1,8,0:0:0:0:
256,192,95924,1,0,0:0:0:0:
256,192,96082,1,8,0:0:0:0:
256,192,96161,1,8,0:0:0:0:
256,192,96240,1,0,0:0:0:0:
256,192,96398,1,8,0:0:0:0:
256,192,96556,1,0,0:0:0:0:
256,192,96714,1,12,0:0:0:0:
256,192,96871,1,0,0:0:0:0:
256,192,97029,1,0,0:0:0:0:
256,192,97187,1,12,0:0:0:0:
256,192,97345,1,0,0:0:0:0:
256,192,97503,1,0,0:0:0:0:
256,192,97661,1,8,0:0:0:0:
256,192,97819,1,12,0:0:0:0:
256,192,98135,1,0,0:0:0:0:
256,192,98292,1,8,0:0:0:0:
256,192,98450,1,0,0:0:0:0:
256,192,98529,1,0,0:0:0:0:
256,192,98608,1,8,0:0:0:0:
256,192,98766,1,8,0:0:0:0:
256,192,98845,1,0,0:0:0:0:
256,192,98924,1,8,0:0:0:0:
256,192,99003,1,8,0:0:0:0:
256,192,99082,1,8,0:0:0:0:
256,192,99161,1,8,0:0:0:0:
256,192,99240,1,4,0:0:0:0:
256,192,99477,1,0,0:0:0:0:
256,192,99556,1,8,0:0:0:0:
256,192,99714,1,0,0:0:0:0:
256,192,99871,1,8,0:0:0:0:
256,192,99950,1,0,0:0:0:0:
256,192,100029,1,0,0:0:0:0:
256,192,100108,1,0,0:0:0:0:
256,192,100187,1,8,0:0:0:0:
256,192,100345,1,0,0:0:0:0:
256,192,100503,1,8,0:0:0:0:
256,192,100661,1,0,0:0:0:0:
256,192,100740,1,0,0:0:0:0:
256,192,100819,1,8,0:0:0:0:
256,192,100977,1,8,0:0:0:0:
256,192,101135,1,0,0:0:0:0:
256,192,101214,1,8,0:0:0:0:
256,192,101371,1,8,0:0:0:0:
256,192,101450,1,0,0:0:0:0:
256,192,101608,1,0,0:0:0:0:
256,192,101766,1,8,0:0:0:0:
256,192,101845,1,8,0:0:0:0:
256,192,101924,1,0,0:0:0:0:
256,192,102082,1,8,0:0:0:0:
256,192,102240,1,0,0:0:0:0:
256,192,102319,1,0,0:0:0:0:
256,192,102398,1,8,0:0:0:0:
256,192,102477,1,0,0:0:0:0:
256,192,102556,1,8,0:0:0:0:
256,192,102714,1,8,0:0:0:0:
256,192,102871,1,4,0:0:0:0:
256,192,103187,1,0,0:0:0:0:
256,192,103345,1,8,0:0:0:0:
256,192,103503,1,8,0:0:0:0:
256,192,103582,1,8,0:0:0:0:
256,192,103661,1,8,0:0:0:0:
256,192,103819,1,0,0:0:0:0:
256,192,103977,1,0,0:0:0:0:
256,192,104135,1,0,0:0:0:0:
256,192,104292,1,12,0:0:0:0:
256,192,104608,1,0,0:0:0:0:
256,192,104766,1,8,0:0:0:0:
256,192,105082,1,8,0:0:0:0:
256,192,105240,1,0,0:0:0:0:
256,192,105398,1,0,0:0:0:0:
256,192,105556,1,12,0:0:0:0:
256,192,105714,1,0,0:0:0:0:
256,192,105871,1,8,0:0:0:0:
256,192,106029,1,0,0:0:0:0:
256,192,106108,1,0,0:0:0:0:
256,192,106187,1,0,0:0:0:0:
256,192,106345,1,0,0:0:0:0:
256,192,106503,1,0,0:0:0:0:
256,192,106661,1,0,0:0:0:0:
256,192,106819,1,12,0:0:0:0:
256,192,107292,1,0,0:0:0:0:
256,192,107371,1,0,0:0:0:0:
256,192,107450,1,8,0:0:0:0:
256,192,108082,1,0,0:0:0:0:
256,192,108240,1,8,0:0:0:0:
256,192,108556,1,0,0:0:0:0:
256,192,108635,1,0,0:0:0:0:
256,192,108714,1,8,0:0:0:0:
256,192,108950,1,0,0:0:0:0:
256,192,109187,1,0,0:0:0:0:
256,192,109345,1,12,0:0:0:0:
256,192,109661,1,0,0:0:0:0:
256,192,109819,1,8,0:0:0:0:
256,192,109898,1,8,0:0:0:0:
256,192,109977,1,0,0:0:0:0:
256,192,110450,1,8,0:0:0:0:
256,192,110608,1,0,0:0:0:0:
256,192,110766,1,8,0:0:0:0:
256,192,111082,1,0,0:0:0:0:
256,192,111161,1,0,0:0:0:0:
256,192,111240,1,8,0:0:0:0:
256,192,111714,1,8,0:0:0:0:
256,192,111871,1,4,0:0:0:0:
256,192,112029,1,8,0:0:0:0:
256,192,112187,1,8,0:0:0:0:
256,192,112345,1,0,0:0:0:0:
256,192,112424,1,0,0:0:0:0:
256,192,112503,1,8,0:0:0:0:
256,192,112661,1,0,0:0:0:0:
256,192,112819,1,8,0:0:0:0:
256,192,112977,1,8,0:0:0:0:
256,192,113135,1,0,0:0:0:0:
256,192,113214,1,0,0:0:0:0:
256,192,113292,1,8,0:0:0:0:
256,192,113450,1,0,0:0:0:0:
256,192,113608,1,8,0:0:0:0:
256,192,113687,1,0,0:0:0:0:
256,192,113766,1,8,0:0:0:0:
256,192,113924,1,0,0:0:0:0:
256,192,114082,1,8,0:0:0:0:
256,192,114240,1,0,0:0:0:0:
256,192,114398,1,12,0:0:0:0:
256,192,114556,1,8,0:0:0:0:
256,192,114714,1,0,0:0:0:0:
256,192,114871,1,8,0:0:0:0:
256,192,114950,1,8,0:0:0:0:
256,192,115029,1,8,0:0:0:0:
256,192,115187,1,0,0:0:0:0:
256,192,115345,1,8,0:0:0:0:
256,192,115503,1,0,0:0:0:0:
256,192,115661,1,8,0:0:0:0:
256,192,115819,1,8,0:0:0:0:
256,192,115977,1,0,0:0:0:0:
256,192,116135,1,8,0:0:0:0:
256,192,116214,1,0,0:0:0:0:
256,192,116292,1,8,0:0:0:0:
256,192,116450,1,0,0:0:0:0:
256,192,116608,1,8,0:0:0:0:
256,192,116766,1,8,0:0:0:0:
256,192,116924,1,0,0:0:0:0:
256,192,117003,1,0,0:0:0:0:
256,192,117082,1,0,0:0:0:0:
256,192,117161,1,0,0:0:0:0:
256,192,117240,1,0,0:0:0:0:
256,192,117319,1,0,0:0:0:0:
256,192,117398,1,0,0:0:0:0:
256,192,117477,1,0,0:0:0:0:
256,192,117556,1,12,0:0:0:0:
256,192,117871,1,0,0:0:0:0:
256,192,117950,1,0,0:0:0:0:
256,192,118029,1,12,0:0:0:0:
256,192,118345,1,8,0:0:0:0:
256,192,118424,1,8,0:0:0:0:
256,192,118503,1,4,0:0:0:0:
256,192,118819,1,0,0:0:0:0:
256,192,118898,1,0,0:0:0:0:
256,192,118977,1,12,0:0:0:0:
256,192,119292,1,0,0:0:0:0:
256,192,119371,1,0,0:0:0:0:
256,192,119450,1,8,0:0:0:0:
256,192,119529,1,8,0:0:0:0:
256,192,119608,1,0,0:0:0:0:
256,192,119687,1,0,0:0:0:0:
256,192,119766,1,8,0:0:0:0:
256,192,119845,1,0,0:0:0:0:
256,192,119924,1,8,0:0:0:0:
256,192,120003,1,0,0:0:0:0:
256,192,120082,1,8,0:0:0:0:
256,192,120161,1,8,0:0:0:0:
256,192,120240,1,0,0:0:0:0:
256,192,120319,1,0,0:0:0:0:
256,192,120398,1,8,0:0:0:0:
256,192,120477,1,0,0:0:0:0:
256,192,120556,1,8,0:0:0:0:
256,192,120635,1,0,0:0:0:0:
256,192,120714,1,8,0:0:0:0:
256,192,120871,1,4,0:0:0:0:
256,192,121108,1,4,0:0:0:0:
256,192,121345,1,4,0:0:0:0:
256,192,121582,1,4,0:0:0:0:
256,192,121819,1,12,0:0:0:0:
256,192,122292,1,4,0:0:0:0:
256,192,122529,1,8,0:0:0:0:
256,192,122608,1,0,0:0:0:0:
256,192,122766,1,8,0:0:0:0:
256,192,123082,1,0,0:0:0:0:
256,192,123240,1,8,0:0:0:0:
256,192,123398,1,0,0:0:0:0:
256,192,123556,1,8,0:0:0:0:
256,192,123871,1,0,0:0:0:0:
256,192,124187,1,8,0:0:0:0:
256,192,124503,1,8,0:0:0:0:
256,192,124581,1,8,0:0:0:0:
256,192,124660,1,8,0:0:0:0:
256,192,124739,1,8,0:0:0:0:
256,192,124818,1,0,0:0:0:0:
256,192,124897,1,0,0:0:0:0:
256,192,124976,1,0,0:0:0:0:
256,192,125055,1,0,0:0:0:0:
256,192,125134,1,8,0:0:0:0:
256,192,125213,1,8,0:0:0:0:
256,192,125292,1,8,0:0:0:0:
256,192,125371,1,8,0:0:0:0:
256,192,125450,1,0,0:0:0:0:
256,192,125529,1,0,0:0:0:0:
256,192,125608,1,0,0:0:0:0:
256,192,125687,1,0,0:0:0:0:
256,192,125766,1,8,0:0:0:0:
256,192,125845,1,8,0:0:0:0:
256,192,125924,1,0,0:0:0:0:
256,192,126003,1,0,0:0:0:0:
256,192,126081,1,8,0:0:0:0:
256,192,126160,1,8,0:0:0:0:
256,192,126239,1,0,0:0:0:0:
256,192,126318,1,0,0:0:0:0:
256,192,126397,1,8,0:0:0:0:
256,192,126476,1,8,0:0:0:0:
256,192,126555,1,8,0:0:0:0:
256,192,126634,1,8,0:0:0:0:
256,192,126713,1,0,0:0:0:0:
256,192,126792,1,0,0:0:0:0:
256,192,126871,1,0,0:0:0:0:
256,192,126950,1,0,0:0:0:0:
256,192,127029,1,12,0:0:0:0:
256,192,127345,1,0,0:0:0:0:
256,192,127503,1,0,0:0:0:0:
256,192,127661,1,8,0:0:0:0:
256,192,127819,1,0,0:0:0:0:
256,192,127977,1,8,0:0:0:0:
256,192,128292,1,0,0:0:0:0:
256,192,128450,1,8,0:0:0:0:
256,192,128608,1,8,0:0:0:0:
256,192,128766,1,0,0:0:0:0:
256,192,128924,1,8,0:0:0:0:
256,192,129003,1,8,0:0:0:0:
256,192,129082,1,8,0:0:0:0:
256,192,129161,1,8,0:0:0:0:
256,192,129240,1,0,0:0:0:0:
256,192,129319,1,0,0:0:0:0:
256,192,129398,1,0,0:0:0:0:
256,192,129477,1,0,0:0:0:0:
256,192,129556,1,8,0:0:0:0:
256,192,129714,1,0,0:0:0:0:
256,192,129871,1,8,0:0:0:0:
256,192,130029,1,0,0:0:0:0:
256,192,130187,1,0,0:0:0:0:
256,192,130345,1,8,0:0:0:0:
256,192,130503,1,0,0:0:0:0:
256,192,130819,1,0,0:0:0:0:
256,192,130977,1,8,0:0:0:0:
256,192,131135,1,0,0:0:0:0:
256,192,131292,1,0,0:0:0:0:
256,192,131450,1,8,0:0:0:0:
256,192,131529,1,8,0:0:0:0:
256,192,131608,1,0,0:0:0:0:
256,192,131687,1,0,0:0:0:0:
256,192,131766,1,8,0:0:0:0:
256,192,131845,1,8,0:0:0:0:
256,192,131924,1,0,0:0:0:0:
256,192,132003,1,0,0:0:0:0:
256,192,132082,1,8,0:0:0:0:
256,192,132240,1,0,0:0:0:0:
256,192,132398,1,8,0:0:0:0:
256,192,132556,1,0,0:0:0:0:
256,192,132714,1,8,0:0:0:0:
256,192,132871,1,8,0:0:0:0:
256,192,133029,1,0,0:0:0:0:
256,192,133187,1,8,0:0:0:0:
256,192,133345,1,0,0:0:0:0:
256,192,133503,1,8,0:0:0:0:
256,192,133661,1,8,0:0:0:0:
256,192,133819,1,0,0:0:0:0:
256,192,133977,1,8,0:0:0:0:
256,192,134056,1,0,0:0:0:0:
256,192,134135,1,0,0:0:0:0:
256,192,134214,1,0,0:0:0:0:
256,192,134292,1,8,0:0:0:0:
256,192,134371,1,0,0:0:0:0:
256,192,134450,1,0,0:0:0:0:
256,192,134529,1,0,0:0:0:0:
256,192,134608,1,8,0:0:0:0:
256,192,134924,1,0,0:0:0:0:
256,192,135082,1,8,0:0:0:0:
256,192,135240,1,8,0:0:0:0:
256,192,135398,1,0,0:0:0:0:
256,192,135556,1,12,0:0:0:0:
256,192,135871,1,0,0:0:0:0:
256,192,136029,1,0,0:0:0:0:
256,192,136108,1,0,0:0:0:0:
256,192,136187,1,8,0:0:0:0:
256,192,136345,1,0,0:0:0:0:
256,192,136503,1,0,0:0:0:0:
256,192,136661,1,0,0:0:0:0:
256,192,136819,1,8,0:0:0:0:
256,192,136977,1,0,0:0:0:0:
256,192,137135,1,12,0:0:0:0:
256,192,137450,1,0,0:0:0:0:
256,192,137608,1,8,0:0:0:0:
256,192,137648,1,8,0:0:0:0:
256,192,137766,1,0,0:0:0:0:
256,192,138082,1,0,0:0:0:0:
256,192,138398,1,0,0:0:0:0:
256,192,138556,1,8,0:0:0:0:
256,192,138635,1,8,0:0:0:0:
256,192,138714,1,0,0:0:0:0:
256,192,139029,1,0,0:0:0:0:
256,192,139187,1,8,0:0:0:0:
256,192,139345,1,0,0:0:0:0:
256,192,139503,1,8,0:0:0:0:
256,192,139661,1,0,0:0:0:0:
256,192,139977,1,8,0:0:0:0:
256,192,140135,1,8,0:0:0:0:
256,192,140292,1,0,0:0:0:0:
256,192,140450,1,0,0:0:0:0:
256,192,140608,1,8,0:0:0:0:
256,192,140924,1,0,0:0:0:0:
256,192,141240,1,8,0:0:0:0:
256,192,141556,1,0,0:0:0:0:
256,192,141714,1,8,0:0:0:0:
256,192,141871,1,0,0:0:0:0:
256,192,142029,1,0,0:0:0:0:
256,192,142187,1,12,0:0:0:0:
256,192,142503,1,0,0:0:0:0:
256,192,142661,1,8,0:0:0:0:
256,192,142700,1,8,0:0:0:0:
256,192,142819,1,0,0:0:0:0:
256,192,143135,1,0,0:0:0:0:
256,192,143292,1,0,0:0:0:0:
256,192,143608,1,0,0:0:0:0:
256,192,143766,1,8,0:0:0:0:
256,192,144714,1,8,0:0:0:0:
256,192,144924,1,8,0:0:0:0:
256,192,145135,1,8,0:0:0:0:
256,192,145345,1,8,0:0:0:0:
256,192,145556,1,8,0:0:0:0:
256,192,145766,1,8,0:0:0:0:
256,192,145977,1,8,0:0:0:0:
256,192,146187,1,8,0:0:0:0:
256,192,146398,1,8,0:0:0:0:
256,192,146608,1,8,0:0:0:0:
256,192,146819,1,8,0:0:0:0:
256,192,147029,1,8,0:0:0:0:
256,192,147240,1,8,0:0:0:0:
256,192,147319,1,8,0:0:0:0:
256,192,147398,1,0,0:0:0:0:
256,192,147477,1,0,0:0:0:0:
256,192,147556,1,8,0:0:0:0:
256,192,147635,1,0,0:0:0:0:
256,192,147714,1,8,0:0:0:0:
256,192,147792,1,8,0:0:0:0:
256,192,147871,1,0,0:0:0:0:
256,192,147950,1,0,0:0:0:0:
256,192,148029,1,0,0:0:0:0:
256,192,148108,1,0,0:0:0:0:
256,192,148187,1,8,0:0:0:0:
256,192,148266,1,8,0:0:0:0:
256,192,148345,1,0,0:0:0:0:
256,192,148424,1,0,0:0:0:0:
256,192,148503,1,8,0:0:0:0:
256,192,148661,1,0,0:0:0:0:
256,192,148740,1,0,0:0:0:0:
256,192,148819,1,8,0:0:0:0:
256,192,148977,1,8,0:0:0:0:
256,192,149135,1,0,0:0:0:0:
256,192,149214,1,0,0:0:0:0:
256,192,149292,1,0,0:0:0:0:
256,192,149371,1,0,0:0:0:0:
256,192,149450,1,8,0:0:0:0:
256,192,149608,1,0,0:0:0:0:
256,192,149766,1,8,0:0:0:0:
256,192,149845,1,8,0:0:0:0:
256,192,149924,1,0,0:0:0:0:
256,192,150003,1,0,0:0:0:0:
256,192,150082,1,8,0:0:0:0:
256,192,150161,1,0,0:0:0:0:
256,192,150240,1,8,0:0:0:0:
256,192,150398,1,0,0:0:0:0:
256,192,150556,1,0,0:0:0:0:
256,192,150714,1,8,0:0:0:0:
256,192,150871,1,0,0:0:0:0:
256,192,150950,1,0,0:0:0:0:
256,192,151029,1,8,0:0:0:0:
256,192,151187,1,0,0:0:0:0:
256,192,151345,1,0,0:0:0:0:
256,192,151503,1,8,0:0:0:0:
256,192,151661,1,0,0:0:0:0:
256,192,151819,1,8,0:0:0:0:
256,192,151977,1,8,0:0:0:0:
256,192,152056,1,0,0:0:0:0:
256,192,152135,1,0,0:0:0:0:
256,192,152214,1,0,0:0:0:0:
256,192,152292,1,12,0:0:0:0:
256,192,152503,1,12,0:0:0:0:
256,192,152714,1,12,0:0:0:0:
256,192,152924,1,12,0:0:0:0:
256,192,153135,1,12,0:0:0:0:
256,192,153345,1,12,0:0:0:0:
256,192,153556,1,12,0:0:0:0:
256,192,153766,1,12,0:0:0:0:
256,192,153977,1,12,0:0:0:0:
256,192,154187,1,12,0:0:0:0:
256,192,154398,1,12,0:0:0:0:
256,192,154608,1,12,0:0:0:0:
256,192,154819,1,4,0:0:0:0:
256,192,162082,5,0,0:0:0:0:
256,192,162161,1,0,0:0:0:0:
256,192,162240,1,0,0:0:0:0:
256,192,162319,1,0,0:0:0:0:
256,192,162398,1,8,0:0:0:0:
256,192,162871,1,8,0:0:0:0:
256,192,163345,1,0,0:0:0:0:
256,192,163819,1,0,0:0:0:0:
256,192,163977,1,8,0:0:0:0:
256,192,164135,1,0,0:0:0:0:
256,192,164214,1,0,0:0:0:0:
256,192,164292,1,8,0:0:0:0:
256,192,164450,1,8,0:0:0:0:
256,192,164608,1,0,0:0:0:0:
256,192,164766,1,0,0:0:0:0:
256,192,164845,1,0,0:0:0:0:
256,192,164924,1,12,0:0:0:0:
256,192,165240,1,0,0:0:0:0:
256,192,165398,1,8,0:0:0:0:
256,192,165437,1,8,0:0:0:0:
256,192,165556,1,0,0:0:0:0:
256,192,165871,1,0,0:0:0:0:
256,192,166187,1,0,0:0:0:0:
256,192,166345,1,8,0:0:0:0:
256,192,166424,1,8,0:0:0:0:
256,192,166503,1,0,0:0:0:0:
256,192,166819,1,12,0:0:0:0:
256,192,167135,1,0,0:0:0:0:
256,192,167450,1,8,0:0:0:0:
256,192,167556,1,8,0:0:0:0:
256,192,167661,1,0,0:0:0:0:
256,192,167766,1,8,0:0:0:0:
256,192,167871,1,8,0:0:0:0:
256,192,167977,1,0,0:0:0:0:
256,192,168082,1,8,0:0:0:0:
256,192,168292,1,0,0:0:0:0:
256,192,168398,1,8,0:0:0:0:
256,192,168503,1,0,0:0:0:0:
256,192,168714,1,12,0:0:0:0:
256,192,168871,1,0,0:0:0:0:
256,192,168950,1,0,0:0:0:0:
256,192,169029,1,8,0:0:0:0:
256,192,169187,1,8,0:0:0:0:
256,192,169345,1,0,0:0:0:0:
256,192,169503,1,8,0:0:0:0:
256,192,169661,1,0,0:0:0:0:
256,192,169819,1,0,0:0:0:0:
256,192,169898,1,0,0:0:0:0:
256,192,169977,1,12,0:0:0:0:
256,192,170292,1,0,0:0:0:0:
256,192,170450,1,8,0:0:0:0:
256,192,170490,1,8,0:0:0:0:
256,192,170608,1,0,0:0:0:0:
256,192,170766,1,0,0:0:0:0:
256,192,170924,1,8,0:0:0:0:
256,192,171082,1,0,0:0:0:0:
256,192,171240,1,8,0:0:0:0:
256,192,171398,1,0,0:0:0:0:
256,192,171477,1,0,0:0:0:0:
256,192,171556,1,12,0:0:0:0:
256,192,172503,1,12,0:0:0:0:
256,192,172740,1,0,0:0:0:0:
256,192,172819,1,8,0:0:0:0:
256,192,172977,1,0,0:0:0:0:
256,192,173135,1,8,0:0:0:0:
256,192,173214,1,0,0:0:0:0:
256,192,173292,1,0,0:0:0:0:
256,192,173371,1,0,0:0:0:0:
256,192,173450,1,8,0:0:0:0:
256,192,173608,1,0,0:0:0:0:
256,192,173766,1,8,0:0:0:0:
256,192,173924,1,0,0:0:0:0:
256,192,174003,1,0,0:0:0:0:
256,192,174082,1,8,0:0:0:0:
256,192,174240,1,0,0:0:0:0:
256,192,174398,1,8,0:0:0:0:
256,192,174477,1,0,0:0:0:0:
256,192,174635,1,0,0:0:0:0:
256,192,174714,1,8,0:0:0:0:
256,192,174792,1,8,0:0:0:0:
256,192,174871,1,0,0:0:0:0:
256,192,175029,1,8,0:0:0:0:
256,192,175187,1,0,0:0:0:0:
256,192,175266,1,0,0:0:0:0:
256,192,175345,1,8,0:0:0:0:
256,192,175503,1,8,0:0:0:0:
256,192,175661,1,0,0:0:0:0:
256,192,175740,1,8,0:0:0:0:
256,192,175898,1,8,0:0:0:0:
256,192,175977,1,0,0:0:0:0:
256,192,176135,1,0,0:0:0:0:
256,192,176214,1,0,0:0:0:0:
256,192,176292,1,8,0:0:0:0:
256,192,176450,1,0,0:0:0:0:
256,192,176608,1,8,0:0:0:0:
256,192,176766,1,8,0:0:0:0:
256,192,176924,1,0,0:0:0:0:
256,192,177003,1,8,0:0:0:0:
256,192,177082,1,0,0:0:0:0:
256,192,177161,1,0,0:0:0:0:
256,192,177240,1,8,0:0:0:0:
256,192,177398,1,0,0:0:0:0:
256,192,177556,1,12,0:0:0:0:
256,192,177792,1,0,0:0:0:0:
256,192,177871,1,8,0:0:0:0:
256,192,178029,1,8,0:0:0:0:
256,192,178187,1,0,0:0:0:0:
256,192,178266,1,0,0:0:0:0:
256,192,178345,1,0,0:0:0:0:
256,192,178424,1,0,0:0:0:0:
256,192,178503,1,12,0:0:0:0:
256,192,178977,1,0,0:0:0:0:
256,192,179135,1,8,0:0:0:0:
256,192,179292,1,0,0:0:0:0:
256,192,179371,1,0,0:0:0:0:
256,192,179450,1,8,0:0:0:0:
256,192,179608,1,0,0:0:0:0:
256,192,179766,1,8,0:0:0:0:
256,192,179924,1,8,0:0:0:0:
256,192,180082,1,0,0:0:0:0:
256,192,180240,1,0,0:0:0:0:
256,192,180319,1,8,0:0:0:0:
256,192,180398,1,0,0:0:0:0:
256,192,180556,1,8,0:0:0:0:
256,192,180871,1,0,0:0:0:0:
256,192,181029,1,0,0:0:0:0:
256,192,181187,1,12,0:0:0:0:
256,192,181503,1,0,0:0:0:0:
256,192,181661,1,8,0:0:0:0:
256,192,181819,1,0,0:0:0:0:
256,192,181898,1,0,0:0:0:0:
256,192,181977,1,8,0:0:0:0:
256,192,182135,1,8,0:0:0:0:
256,192,182214,1,0,0:0:0:0:
256,192,182292,1,8,0:0:0:0:
256,192,182371,1,8,0:0:0:0:
256,192,182450,1,0,0:0:0:0:
256,192,182529,1,0,0:0:0:0:
256,192,182608,1,12,0:0:0:0:
256,192,182845,1,0,0:0:0:0:
256,192,182924,1,8,0:0:0:0:
256,192,183082,1,8,0:0:0:0:
256,192,183240,1,0,0:0:0:0:
256,192,183319,1,8,0:0:0:0:
256,192,183477,1,8,0:0:0:0:
256,192,183556,1,0,0:0:0:0:
256,192,183635,1,0,0:0:0:0:
256,192,183714,1,8,0:0:0:0:
256,192,183871,1,0,0:0:0:0:
256,192,184029,1,0,0:0:0:0:
256,192,184108,1,0,0:0:0:0:
256,192,184187,1,8,0:0:0:0:
256,192,184345,1,0,0:0:0:0:
256,192,184503,1,8,0:0:0:0:
256,192,184582,1,0,0:0:0:0:
256,192,184740,1,0,0:0:0:0:
256,192,184819,1,8,0:0:0:0:
256,192,184898,1,8,0:0:0:0:
256,192,184977,1,0,0:0:0:0:
256,192,185135,1,8,0:0:0:0:
256,192,185292,1,0,0:0:0:0:
256,192,185371,1,0,0:0:0:0:
256,192,185450,1,8,0:0:0:0:
256,192,185608,1,0,0:0:0:0:
256,192,185687,1,8,0:0:0:0:
256,192,185766,1,0,0:0:0:0:
256,192,185924,1,0,0:0:0:0:
256,192,186082,1,8,0:0:0:0:
256,192,186240,1,12,0:0:0:0:
256,192,186556,1,0,0:0:0:0:
256,192,186714,1,8,0:0:0:0:
256,192,186871,1,8,0:0:0:0:
256,192,186950,1,8,0:0:0:0:
256,192,187029,1,8,0:0:0:0:
256,192,187187,1,0,0:0:0:0:
256,192,187345,1,0,0:0:0:0:
256,192,187503,1,0,0:0:0:0:
256,192,187661,1,12,0:0:0:0:
256,192,187977,1,0,0:0:0:0:
256,192,188135,1,8,0:0:0:0:
256,192,188450,1,8,0:0:0:0:
256,192,188608,1,0,0:0:0:0:
256,192,188766,1,0,0:0:0:0:
256,192,188924,1,12,0:0:0:0:
256,192,189082,1,0,0:0:0:0:
256,192,189240,1,8,0:0:0:0:
256,192,189398,1,8,0:0:0:0:
256,192,189477,1,8,0:0:0:0:
256,192,189556,1,8,0:0:0:0:
256,192,189714,1,8,0:0:0:0:
256,192,189871,1,8,0:0:0:0:
256,192,190029,1,0,0:0:0:0:
256,192,190187,1,8,0:0:0:0:
256,192,190266,1,8,0:0:0:0:
256,192,190345,1,0,0:0:0:0:
256,192,190424,1,8,0:0:0:0:
256,192,190503,1,0,0:0:0:0:
256,192,190582,1,0,0:0:0:0:
256,192,190661,1,8,0:0:0:0:
256,192,190740,1,0,0:0:0:0:
256,192,190819,1,8,0:0:0:0:
256,192,190898,1,0,0:0:0:0:
256,192,190977,1,0,0:0:0:0:
256,192,191056,1,8,0:0:0:0:
256,192,191135,1,0,0:0:0:0:
256,192,191214,1,0,0:0:0:0:
256,192,191292,1,8,0:0:0:0:
256,192,191371,1,0,0:0:0:0:
256,192,191450,1,8,0:0:0:0:
256,192,191529,1,8,0:0:0:0:
256,192,191608,1,0,0:0:0:0:
256,192,191687,1,0,0:0:0:0:
256,192,191766,1,0,0:0:0:0:
256,192,191845,1,0,0:0:0:0:
256,192,191924,1,8,0:0:0:0:
256,192,192003,1,0,0:0:0:0:
256,192,192082,1,8,0:0:0:0:
256,192,192161,1,8,0:0:0:0:
256,192,192240,1,0,0:0:0:0:
256,192,192319,1,0,0:0:0:0:
256,192,192398,1,8,0:0:0:0:
256,192,192477,1,8,0:0:0:0:
256,192,192556,1,0,0:0:0:0:
256,192,192635,1,0,0:0:0:0:
256,192,192714,1,8,0:0:0:0:
256,192,192792,1,8,0:0:0:0:
256,192,192871,1,0,0:0:0:0:
256,192,192950,1,8,0:0:0:0:
256,192,193029,1,0,0:0:0:0:
256,192,193108,1,0,0:0:0:0:
256,192,193187,1,8,0:0:0:0:
256,192,193266,1,0,0:0:0:0:
256,192,193345,1,8,0:0:0:0:
256,192,193424,1,0,0:0:0:0:
256,192,193503,1,0,0:0:0:0:
256,192,193582,1,8,0:0:0:0:
256,192,193661,1,0,0:0:0:0:
256,192,193740,1,0,0:0:0:0:
256,192,193819,1,8,0:0:0:0:
256,192,193898,1,0,0:0:0:0:
256,192,193977,1,8,0:0:0:0:
256,192,194056,1,8,0:0:0:0:
256,192,194135,1,0,0:0:0:0:
256,192,194214,1,0,0:0:0:0:
256,192,194292,1,8,0:0:0:0:
256,192,194371,1,0,0:0:0:0:
256,192,194450,1,8,0:0:0:0:
256,192,194529,1,8,0:0:0:0:
256,192,194608,1,8,0:0:0:0:
256,192,194687,1,8,0:0:0:0:
256,192,194766,1,0,0:0:0:0:
256,192,194845,1,0,0:0:0:0:
256,192,194924,1,8,0:0:0:0:
256,192,195003,1,0,0:0:0:0:
256,192,195082,1,0,0:0:0:0:
256,192,195161,1,0,0:0:0:0:
256,192,195240,1,8,0:0:0:0:
256,192,195319,1,8,0:0:0:0:
256,192,195398,1,0,0:0:0:0:
256,192,195477,1,8,0:0:0:0:
256,192,195556,1,0,0:0:0:0:
256,192,195635,1,0,0:0:0:0:
256,192,195714,1,8,0:0:0:0:
256,192,195792,1,0,0:0:0:0:
256,192,195871,1,8,0:0:0:0:
256,192,195950,1,0,0:0:0:0:
256,192,196029,1,0,0:0:0:0:
256,192,196108,1,8,0:0:0:0:
256,192,196187,1,0,0:0:0:0:
256,192,196266,1,0,0:0:0:0:
256,192,196345,1,8,0:0:0:0:
256,192,196424,1,0,0:0:0:0:
256,192,196503,1,8,0:0:0:0:
256,192,196582,1,8,0:0:0:0:
256,192,196661,1,8,0:0:0:0:
256,192,196740,1,8,0:0:0:0:
256,192,196819,1,0,0:0:0:0:
256,192,196898,1,0,0:0:0:0:
256,192,196977,1,8,0:0:0:0:
256,192,197056,1,0,0:0:0:0:
256,192,197135,1,8,0:0:0:0:
256,192,197214,1,8,0:0:0:0:
256,192,197292,1,0,0:0:0:0:
256,192,197371,1,0,0:0:0:0:
256,192,197450,1,8,0:0:0:0:
256,192,197529,1,8,0:0:0:0:
256,192,197608,1,8,0:0:0:0:
256,192,197687,1,8,0:0:0:0:
256,192,197766,1,4,0:0:0:0:
256,192,199029,1,4,0:0:0:0:
256,192,199345,1,4,0:0:0:0:
256,192,199661,1,4,0:0:0:0:
256,192,199977,1,12,0:0:0:0:
256,192,200292,5,8,0:0:0:0:
256,192,200370,1,8,0:0:0:0:
256,192,200449,1,8,0:0:0:0:
256,192,200528,1,8,0:0:0:0:
256,192,200607,1,0,0:0:0:0:
256,192,200686,1,0,0:0:0:0:
256,192,200765,1,0,0:0:0:0:
256,192,200844,1,0,0:0:0:0:
256,192,200923,1,8,0:0:0:0:
256,192,201002,1,8,0:0:0:0:
256,192,201081,1,8,0:0:0:0:
256,192,201160,1,8,0:0:0:0:
256,192,201239,1,0,0:0:0:0:
256,192,201318,1,0,0:0:0:0:
256,192,201397,1,0,0:0:0:0:
256,192,201476,1,0,0:0:0:0:
256,192,201555,1,8,0:0:0:0:
256,192,201634,1,8,0:0:0:0:
256,192,201713,1,0,0:0:0:0:
256,192,201792,1,0,0:0:0:0:
256,192,201870,1,8,0:0:0:0:
256,192,201949,1,8,0:0:0:0:
256,192,202028,1,0,0:0:0:0:
256,192,202107,1,0,0:0:0:0:
256,192,202186,1,8,0:0:0:0:
256,192,202265,1,8,0:0:0:0:
256,192,202344,1,8,0:0:0:0:
256,192,202423,1,8,0:0:0:0:
256,192,202502,1,0,0:0:0:0:
256,192,202581,1,0,0:0:0:0:
256,192,202660,1,0,0:0:0:0:
256,192,202739,1,0,0:0:0:0:
256,192,202818,1,12,0:0:0:0:
256,192,203055,1,0,0:0:0:0:
256,192,203134,1,8,0:0:0:0:
256,192,203292,1,0,0:0:0:0:
256,192,203449,1,8,0:0:0:0:
256,192,203528,1,8,0:0:0:0:
256,192,203607,1,0,0:0:0:0:
256,192,203765,1,0,0:0:0:0:
256,192,203923,1,8,0:0:0:0:
256,192,204002,1,0,0:0:0:0:
256,192,204081,1,8,0:0:0:0:
256,192,204239,1,0,0:0:0:0:
256,192,204397,1,8,0:0:0:0:
256,192,204555,1,0,0:0:0:0:
256,192,204634,1,0,0:0:0:0:
256,192,204713,1,8,0:0:0:0:
256,192,204792,1,8,0:0:0:0:
256,192,204870,1,0,0:0:0:0:
256,192,204949,1,0,0:0:0:0:
256,192,205028,1,8,0:0:0:0:
256,192,205186,1,0,0:0:0:0:
256,192,205345,1,8,0:0:0:0:
256,192,205424,1,8,0:0:0:0:
256,192,205503,1,8,0:0:0:0:
256,192,205582,1,8,0:0:0:0:
256,192,205661,1,0,0:0:0:0:
256,192,205740,1,0,0:0:0:0:
256,192,205819,1,0,0:0:0:0:
256,192,205898,1,0,0:0:0:0:
256,192,205977,1,8,0:0:0:0:
256,192,206056,1,8,0:0:0:0:
256,192,206135,1,8,0:0:0:0:
256,192,206214,1,8,0:0:0:0:
256,192,206292,1,0,0:0:0:0:
256,192,206371,1,0,0:0:0:0:
256,192,206450,1,0,0:0:0:0:
256,192,206529,1,0,0:0:0:0:
256,192,206608,1,8,0:0:0:0:
256,192,206687,1,8,0:0:0:0:
256,192,206766,1,0,0:0:0:0:
256,192,206845,1,0,0:0:0:0:
256,192,206924,1,8,0:0:0:0:
256,192,207003,1,8,0:0:0:0:
256,192,207082,1,0,0:0:0:0:
256,192,207161,1,0,0:0:0:0:
256,192,207240,1,8,0:0:0:0:
256,192,207319,1,8,0:0:0:0:
256,192,207398,1,8,0:0:0:0:
256,192,207477,1,8,0:0:0:0:
256,192,207556,1,0,0:0:0:0:
256,192,207635,1,0,0:0:0:0:
256,192,207714,1,0,0:0:0:0:
256,192,207792,1,0,0:0:0:0:
256,192,207871,1,12,0:0:0:0:
256,192,208108,1,0,0:0:0:0:
256,192,208187,1,8,0:0:0:0:
256,192,208345,1,0,0:0:0:0:
256,192,208424,1,0,0:0:0:0:
256,192,208503,1,0,0:0:0:0:
256,192,208661,1,0,0:0:0:0:
256,192,208819,1,8,0:0:0:0:
256,192,208977,1,8,0:0:0:0:
256,192,209056,1,8,0:0:0:0:
256,192,209135,1,0,0:0:0:0:
256,192,209292,1,0,0:0:0:0:
256,192,209450,1,8,0:0:0:0:
256,192,209608,1,0,0:0:0:0:
256,192,209687,1,0,0:0:0:0:
256,192,209766,1,8,0:0:0:0:
256,192,209845,1,8,0:0:0:0:
256,192,209924,1,0,0:0:0:0:
256,192,210003,1,0,0:0:0:0:
256,192,210082,1,8,0:0:0:0:
256,192,210161,1,0,0:0:0:0:
256,192,210240,1,8,0:0:0:0:
256,192,210319,1,8,0:0:0:0:
256,192,210398,1,4,0:0:0:0:
256,192,210556,12,0,211345,0:0:0:0:
256,192,211503,5,0,0:0:0:0:
256,192,211582,1,0,0:0:0:0:
256,192,211661,1,12,0:0:0:0:
