osu file format v14

[General]
AudioFilename: Hello Sleepwalkers - Hyakkiyakou.mp3
AudioLeadIn: 1500
PreviewTime: 37769
Countdown: 0
SampleSet: Normal
StackLeniency: 0.7
Mode: 0
LetterboxInBreaks: 0
WidescreenStoryboard: 0

[Editor]
Bookmarks: 436,6353,17436,27769,37769,56103,60769
DistanceSpacing: 1.4
BeatDivisor: 4
GridSize: 16
TimelineZoom: 3.799999

[Metadata]
Title:Hyakkiyakou
TitleUnicode:百鬼夜行
Artist:Hello Sleepwalkers
ArtistUnicode:Hello Sleepwalkers
Creator:Sonico Makaron
Version:Insane
Source:BLEACH Brave Souls
Tags:bleach op
BeatmapID:955363
BeatmapSetID:444706

[Difficulty]
HPDrainRate:7
CircleSize:4
OverallDifficulty:7
ApproachRate:9
SliderMultiplier:1.8
SliderTickRate:1

[Events]
//Background and Video events
Video,0,"Opening.avi"
0,0,"BG.jpg",0,0
//Break Periods
//Storyboard Layer 0 (Background)
//Storyboard Layer 1 (Fail)
//Storyboard Layer 2 (Pass)
//Storyboard Layer 3 (Foreground)
//Storyboard Sound Samples

[TimingPoints]
770,333.333333333333,4,1,1,40,1,0
14436,-90.9090909090909,4,1,1,40,0,0
14769,-86.9565217391304,4,1,1,40,0,0
15103,-83.3333333333333,4,1,1,40,0,0
15436,-80,4,1,1,40,0,0
15769,-76.9230769230769,4,1,1,40,0,0
16103,-100,4,1,1,40,0,0
17103,-86.9565217391304,4,1,1,40,0,0
17603,-100,4,1,1,40,0,0
25103,-90.9090909090909,4,1,1,40,0,0
25769,-83.3333333333333,4,1,1,40,0,0
26436,-76.9230769230769,4,1,1,40,0,0
26769,-100,4,1,1,40,0,0
35436,-133.333333333333,4,1,1,40,0,0
37769,-181.818181818181,4,1,1,40,0,0
38103,-74.0740740740741,4,1,1,40,0,1
38436,-86.9565217391304,4,1,1,40,0,1
47436,-74.0740740740741,4,1,1,40,0,1
48103,-86.9565217391304,4,1,1,40,0,1
58103,-74.0740740740741,4,1,1,40,0,1
59019,-86.9565217391304,4,1,1,40,0,1
60103,-74.0740740740741,4,1,1,40,0,1
60561,-74.0740740740741,4,1,1,40,0,0
60603,-86.9565217391304,4,1,1,40,0,1
60644,-86.9565217391304,4,1,1,40,0,0

[HitObjects]
223,209,436,5,0,0:0:0:0:
223,317,603,1,0,0:0:0:0:
232,347,686,1,0,0:0:0:0:
254,367,770,2,0,P|317:347|346:288,1,135
441,200,1103,2,0,P|444:244|441:290,1,90
236,234,1436,2,0,P|232:188|238:144,1,90,0|0,0:3|0:3,0:3:0:0:
303,31,1769,2,0,L|393:34,1,90
438,158,2103,6,0,P|453:223|441:289,1,135
350,347,2436,2,0,P|335:304|306:270,1,90
215,147,2769,2,0,L|208:236,1,90
101,348,3103,2,0,L|94:259,1,90
26,152,3436,6,0,P|22:107|36:64,1,90
167,26,3769,1,0,0:0:0:0:
109,116,3936,1,0,0:0:0:0:
239,50,4103,2,0,P|282:37|324:50,1,90
377,153,4436,1,0,0:0:0:0:
323,49,4603,1,0,0:0:0:0:
452,106,4769,2,0,P|465:148|459:192,1,90
377,280,5103,1,0,0:0:0:0:
377,153,5269,5,0,0:0:0:0:
365,124,5353,1,0,0:0:0:0:
345,98,5436,2,0,P|301:87|256:90,1,90
165,164,5769,1,0,0:0:0:0:
150,290,5936,1,0,0:0:0:0:
155,321,6019,1,0,0:0:0:0:
167,349,6103,2,0,P|210:359|255:354,1,90
359,355,6353,5,0,0:0:0:0:
377,326,6436,2,0,L|377:236,1,90
376,213,6936,1,0,0:0:0:0:
452,85,7103,2,0,P|425:49|384:30,1,90
281,24,7436,1,0,0:0:0:0:
135,98,7686,1,0,0:0:0:0:
120,128,7769,2,0,L|120:218,1,90
121,242,8269,1,0,0:0:0:0:
307,206,8436,2,0,P|312:250|306:295,1,90
219,359,8769,6,0,P|152:366|86:353,1,135
56,333,9103,1,0,0:0:0:0:
57,208,9269,1,0,0:0:0:0:
57,184,9603,1,0,0:0:0:0:
84,43,9769,2,0,P|126:29|168:43,1,90
223,133,10103,1,0,0:0:0:0:
397,174,10353,1,0,0:0:0:0:
398,140,10436,1,0,0:0:0:0:
327,38,10603,6,0,P|283:26|239:29,1,90,0|0,0:0|0:0,0:3:0:0:
237,185,10936,2,0,P|281:187|324:175,1,90,0|0,0:0|0:0,0:3:0:0:
156,98,11269,1,0,0:0:0:0:
121,86,11353,1,0,0:0:0:0:
86,99,11436,2,0,P|76:143|87:187,1,90,0|0,0:3|0:3,0:3:0:0:
105,224,11686,1,0,0:0:0:0:
105,224,11769,1,0,0:0:0:0:
151,322,11936,5,0,0:0:0:0:
159,346,12269,1,0,0:0:0:0:
30,267,12436,2,0,P|22:222|34:179,1,90,0|0,0:3|0:0,0:0:0:0:
108,100,12769,1,0,0:0:0:0:
271,36,13019,1,0,0:0:0:0:
303,28,13103,1,0,0:0:0:0:
294,171,13269,1,0,0:0:0:0:
425,70,13436,2,0,L|429:25,2,45
410,236,13769,2,0,L|401:327,1,90
360,337,14019,1,0,0:0:0:0:
276,339,14103,6,0,L|270:233,1,90
343,75,14436,2,0,L|348:177,1,99.0000030212403
253,342,14769,2,0,L|246:231,1,103.500001974106
366,71,15103,2,0,L|370:178,1,107.999996704102
220,347,15436,2,0,L|213:231,1,112.5
399,66,15769,2,0,L|404:182,1,116.999994644165
292,252,16103,1,0,0:0:0:0:
287,111,16269,1,0,0:0:0:0:
404,182,16436,1,0,0:0:0:0:
292,252,16603,1,0,0:0:0:0:
191,180,16769,6,0,P|214:177|236:180,1,45
298,269,16936,2,0,P|296:291|291:313,1,45
108,335,17103,2,0,P|103:283|107:231,1,103.500001974106
100,210,17603,1,0,0:0:0:0:
61,68,17769,2,0,P|88:34|130:19,1,90
235,24,18103,5,0,0:0:0:0:
366,118,18353,1,0,0:0:0:0:
378,149,18436,2,0,P|385:193|378:237,1,90
370,260,18936,1,0,0:0:0:0:
255,355,19103,2,0,L|166:350,1,90
59,331,19436,6,0,P|46:264|59:199,1,135
71,166,19769,1,0,0:0:0:0:
150,62,19936,1,0,0:0:0:0:
173,57,20269,1,0,0:0:0:0:
173,204,20436,2,0,P|176:249|192:291,1,90
278,348,20769,1,0,0:0:0:0:
436,292,21019,1,0,0:0:0:0:
437,259,21103,1,0,0:0:0:0:
311,185,21269,6,0,P|305:230|313:274,1,90,0|0,0:3|0:3,0:3:0:0:
474,185,21603,2,0,P|480:140|471:96,1,90
337,39,21936,1,0,0:0:0:0:
302,27,22020,1,0,0:0:0:0:
265,40,22103,2,0,P|256:83|264:127,1,90,0|0,0:3|0:3,0:3:0:0:
282,164,22353,1,0,0:0:0:0:
282,164,22436,1,0,0:0:0:0:
294,272,22603,5,0,0:0:0:0:
310,290,22936,1,0,0:0:0:0:
136,216,23103,2,0,L|131:310,1,90
205,357,23436,1,0,0:0:0:0:
56,264,23686,1,0,0:0:0:0:
58,231,23769,1,0,0:0:0:0:
216,185,23936,1,0,0:0:0:0:
141,62,24103,2,0,L|140:8,2,45
144,205,24436,2,0,L|146:301,1,90
149,336,24686,1,0,0:0:0:0:
185,365,24769,5,0,0:0:0:0:
185,365,24936,1,0,0:0:0:0:
333,362,25103,2,0,L|335:260,1,99.0000030212403
417,256,25436,1,0,0:0:0:0:
417,256,25603,1,0,0:0:0:0:
262,123,25769,2,0,L|260:236,1,107.999996704102
174,275,26103,1,0,0:0:0:0:
174,275,26269,1,0,0:0:0:0:
415,349,26436,2,0,L|417:231,1,116.999994644165
434,121,26769,5,0,0:0:0:0:
420,83,27019,1,0,0:0:0:0:
389,57,27269,1,0,0:0:0:0:
255,31,27436,6,0,L|166:28,1,90
98,95,27769,1,0,0:0:0:0:
101,347,28103,2,0,L|190:344,1,90
255,276,28436,1,0,0:0:0:0:
208,157,28603,1,0,0:0:0:0:
190,343,28936,1,0,0:0:0:0:
204,200,29269,1,0,0:0:0:0:
382,321,29436,6,0,P|392:277|381:234,1,90,0|0,0:3|0:3,0:3:0:0:
371,201,29686,1,0,0:0:0:0:
352,172,29769,1,0,0:0:0:0:
254,213,29936,1,0,0:0:0:0:
426,142,30103,6,0,P|432:98|418:56,1,90
330,19,30436,1,0,0:0:0:0:
113,91,30769,2,0,L|113:188,1,90
112,276,31103,1,0,0:0:0:0:
238,331,31269,1,0,0:3:0:0:
238,148,31603,1,0,0:3:0:0:
113,181,31936,1,0,0:0:0:0:
341,314,32103,6,0,P|347:269|340:225,1,90
333,191,32353,1,0,0:0:0:0:
256,180,32436,2,0,L|264:269,1,90
442,188,32769,6,0,P|447:144|439:100,1,90
369,36,33103,1,0,0:0:0:0:
146,104,33436,2,0,L|146:194,1,90
195,285,33769,1,0,0:0:0:0:
76,366,33936,1,0,0:0:0:0:
172,213,34269,1,0,0:0:0:0:
70,160,34603,1,0,0:0:0:0:
76,366,34769,6,0,L|166:362,1,90
165,362,35019,1,0,0:0:0:0:
165,362,35103,1,0,0:0:0:0:
273,291,35269,1,0,0:0:0:0:
199,148,35436,6,0,P|194:181|195:215,1,67.5000025749208
276,358,35769,2,0,P|277:324|272:290,1,67.5000025749208
195,215,36103,1,0,0:0:0:0:
195,215,36269,1,0,0:0:0:0:
353,358,36436,2,0,L|353:291,1,67.5000025749208
353,290,37769,5,0,0:0:0:0:
359,250,38103,2,0,P|365:191|344:134,1,121.500000463486,0|0,0:3|0:3,0:3:0:0:
263,28,38436,2,0,L|159:25,1,103.500001974106
54,92,38686,1,0,0:0:0:0:
33,125,38769,1,0,0:0:0:0:
27,164,38853,1,0,0:0:0:0:
38,201,38936,1,0,0:0:0:0:
63,327,39103,6,0,P|113:342|163:330,1,103.500001974106,0|0,0:3|0:3,0:3:0:0:
161,330,39353,1,0,0:0:0:0:
161,330,39436,1,0,0:0:0:0:
202,191,39603,1,0,0:0:0:0:
255,349,39769,2,0,P|306:356|352:334,1,103.500001974106,0|0,0:3|0:3,0:3:0:0:
413,237,40103,5,0,0:0:0:0:
293,271,40269,1,0,0:0:0:0:
478,169,40436,2,0,L|473:55,1,103.500001974106,0|0,0:3|0:3,0:3:0:0:
402,122,40686,1,0,0:0:0:0:
332,65,40769,2,0,L|326:180,1,103.500001974106
320,297,41103,1,0,0:0:0:0:
435,243,41269,1,0,0:0:0:0:
245,359,41436,2,0,L|141:356,1,103.500001974106
20,352,41686,1,0,0:0:0:0:
20,352,41769,1,0,0:0:0:0:
245,359,41936,6,0,P|250:306|237:257,1,103.500001974106
175,162,42269,1,0,0:0:0:0:
251,46,42436,2,0,P|300:33|348:47,1,103.500001974106,0|0,3:3|3:0,3:0:0:0:
400,150,42769,1,0,0:0:0:0:
454,49,42936,1,0,0:0:0:0:
425,223,43103,2,0,P|401:268|359:296,1,103.500001974106,0|0,3:3|3:0,3:0:0:0:
346,210,43353,1,0,0:0:0:0:
400,150,43436,6,0,L|414:270,1,103.500001974106
293,333,43769,2,0,L|177:355,1,103.500001974106
165,219,44103,2,0,L|266:199,1,103.500001974106
243,66,44436,2,0,L|140:84,1,103.500001974106
89,166,44769,5,0,0:0:0:0:
89,166,44936,1,0,0:0:0:0:
243,40,45103,2,0,P|292:23|341:36,1,103.500001974106,0|0,0:3|0:3,0:3:0:0:
425,84,45436,1,0,0:0:0:0:
425,84,45603,1,0,0:0:0:0:
475,233,45769,2,0,P|486:283|475:334,1,103.500001974106,0|0,0:3|0:3,0:3:0:0:
372,328,46103,1,0,0:0:0:0:
475,333,46269,1,0,0:0:0:0:
280,353,46436,6,0,L|278:248,1,103.500001974106
303,149,46769,1,0,0:0:0:0:
375,224,46936,1,0,0:0:0:0:
179,200,47103,2,0,L|176:307,1,103.500001974106
336,304,47436,2,0,L|462:302,1,121.500000463486
176,303,47769,2,0,L|54:301,1,121.500000463486
24,190,48103,1,0,0:0:0:0:
111,55,48269,5,0,0:0:0:0:
155,35,48353,1,0,0:0:0:0:
203,33,48436,1,0,0:0:0:0:
251,39,48519,1,0,0:0:0:0:
298,53,48603,1,0,0:0:0:0:
330,89,48686,1,0,0:0:0:0:
354,135,48769,6,0,P|359:187|354:239,1,103.500001974106,0|0,0:3|0:3,0:3:0:0:
255,356,49103,2,0,P|202:359|151:354,1,103.500001974106
55,209,49436,2,0,P|54:234|54:260,1,51.7500009870529
128,347,49603,1,0,0:0:0:0:
129,149,49769,2,0,P|162:108|202:76,1,103.500001974106
338,198,50103,6,0,P|339:172|339:146,1,51.7500009870529
293,46,50269,1,0,0:0:0:0:
467,131,50436,2,0,P|471:182|466:234,1,103.500001974106,0|0,0:3|0:3,0:3:0:0:
437,355,50769,1,0,0:0:0:0:
437,355,50853,1,0,0:0:0:0:
437,355,50936,1,0,0:0:0:0:
257,343,51103,2,0,L|255:239,1,103.500001974106
217,125,51436,5,0,0:0:0:0:
337,92,51603,1,0,0:0:0:0:
195,44,51769,2,0,P|155:76|134:123,1,103.500001974106
124,195,52019,1,0,0:0:0:0:
64,142,52103,2,0,P|47:191|54:242,1,103.500001974106
90,339,52353,1,0,0:0:0:0:
127,356,52436,1,0,0:0:0:0:
254,222,52603,6,0,P|274:174|312:140,1,103.500001974106
326,48,52936,1,0,0:0:0:0:
430,185,53103,2,0,P|442:233|432:284,1,103.500001974106
360,345,53436,1,0,0:0:0:0:
431,285,53603,1,0,0:0:0:0:
256,356,53769,2,0,P|206:350|166:318,1,103.500001974106
152,278,54019,1,0,0:0:0:0:
152,278,54103,1,0,0:0:0:0:
271,208,54269,1,0,0:0:0:0:
119,207,54436,6,0,L|117:102,1,103.500001974106
273,104,54769,2,0,L|271:207,1,103.500001974106
98,207,55103,2,0,L|96:102,1,103.500001974106
288,26,55436,5,0,0:0:0:0:
180,57,55603,1,0,0:0:0:0:
379,141,55769,1,0,0:0:0:0:
267,125,55936,1,0,0:0:0:0:
200,247,56103,1,0,0:0:0:0:
308,216,56270,1,0,0:0:0:0:
399,337,56436,1,0,0:0:0:0:
283,319,56603,1,0,0:0:0:0:
174,325,56769,6,0,P|184:274|214:233,1,103.500001974106
378,358,57103,2,0,L|281:318,1,103.500001974106
465,193,57436,2,0,P|476:243|466:294,1,103.500001974106
378,358,57769,1,0,0:0:0:0:
466,293,57936,1,0,0:0:0:0:
276,355,58103,6,0,L|153:350,1,121.500000463486
155,220,58436,2,0,L|276:215,1,121.500000463486
282,84,58769,2,0,L|160:79,1,121.500000463486
117,78,59019,1,0,0:0:0:0:
74,76,59103,1,0,0:0:0:0:
363,135,59269,6,0,P|369:83|360:33,1,103.500001974106,0|0,2:3|2:3,2:3:0:0:
161,36,59603,1,0,0:0:0:0:
156,233,59769,2,0,P|159:284|174:333,1,103.500001974106
369,343,60103,6,0,L|372:209,1,121.500000463486
252,99,60353,2,0,L|255:220,1,121.500000463486
257,343,60603,1,0,0:0:0:0:
256,192,60686,12,0,61936,0:0:0:0:
