osu file format v14

[General]
AudioFilename: audio.mp3
AudioLeadIn: 0
PreviewTime: 40750
Countdown: 0
SampleSet: Soft
StackLeniency: 0.7
Mode: 2
LetterboxInBreaks: 0
WidescreenStoryboard: 0

[Editor]
DistanceSpacing: 1.2
BeatDivisor: 4
GridSize: 8
TimelineZoom: 3.599998

[Metadata]
Title:Goya no Machiawase (TV Size)
TitleUnicode:午夜の待ち合わせ (TV Size)
Artist:Hello Sleepwalkers
ArtistUnicode:Hello Sleepwalkers
Creator:Verti
Version:Stray Cat
Source:ノラガミ
Tags:opening anime Noragami japanese rock jrock male vocal 1st op season 1 Yato Yaboku Hiyori Iki Juansy rew0825 alexdemon bighzonda secre chickenbible greaper
BeatmapID:3152510
BeatmapSetID:1542256

[Difficulty]
HPDrainRate:6
CircleSize:4.2
OverallDifficulty:9.2
ApproachRate:9.2
SliderMultiplier:1.9
SliderTickRate:2

[Events]
//Background and Video events
0,0,"noragami-yato-iki-hiyori-bezdomnyi-bog-iukata-sakura-vesna-v.jpg",0,0
//Break Periods
//Storyboard Layer 0 (Background)
//Storyboard Layer 1 (Fail)
//Storyboard Layer 2 (Pass)
//Storyboard Layer 3 (Foreground)
//Storyboard Layer 4 (Overlay)
//Storyboard Sound Samples

[TimingPoints]
512,317.460317460317,4,2,1,70,1,0
2972,-100,4,2,1,5,0,0
3051,-100,4,2,1,70,0,0
8051,-100,4,2,1,5,0,0
8131,-100,4,2,1,70,0,0
10591,-100,4,2,1,5,0,0
10670,-100,4,2,1,60,0,0
12019,-100,4,2,1,5,0,0
12099,-100,4,2,1,60,0,0
12654,-100,4,2,1,5,0,0
12734,-100,4,2,1,60,0,0
14559,-100,4,2,1,5,0,0
14638,-100,4,2,1,60,0,0
17734,-100,4,2,1,5,0,0
17813,-100,4,2,1,60,0,0
21385,-100,4,2,1,5,0,0
21464,-100,4,2,1,60,0,0
22178,-100,4,2,1,5,0,0
22257,-100,4,2,1,60,0,0
30988,-100,4,2,1,50,0,0
40829,-44.4444444444445,4,2,1,80,0,0
41067,-44.4444444444445,4,2,1,5,0,0
41146,-100,4,2,1,80,0,1
41385,-100,4,2,1,5,0,1
41464,-100,4,2,1,80,0,1
45908,-44.4444444444445,4,2,1,80,0,1
46146,-44.4444444444445,4,2,1,5,0,1
46226,-100,4,2,1,80,0,1
46464,-100,4,2,1,5,0,1
46543,-100,4,2,1,80,0,1
50988,-44.4444444444445,4,2,1,80,0,1
51226,-44.4444444444445,4,2,1,5,0,1
51305,-100,4,2,1,80,0,1
51543,-100,4,2,1,5,0,1
51622,-100,4,2,1,80,0,1
56067,-44.4444444444445,4,2,1,80,0,1
56305,-44.4444444444445,4,2,1,5,0,1
56385,-100,4,2,1,80,0,1
56623,-100,4,2,1,5,0,1
56702,-100,4,2,1,80,0,1
61464,-100,4,2,1,70,0,0
63607,-100,4,2,1,5,0,0
63686,-100,4,2,1,80,0,0
66305,-100,4,2,1,5,0,0
66384,-100,4,2,1,80,0,0
77972,-100,4,2,1,60,0,0
79242,-100,4,2,1,70,0,0
84321,-100,4,2,1,60,0,0
85670,-100,4,2,1,5,0,0
85750,-100,4,2,1,60,0,0
85988,-100,4,2,1,5,0,0
86068,-100,4,2,1,60,0,0
88131,-100,4,2,1,50,0,0
88289,-100,4,2,1,45,0,0
88448,-100,4,2,1,40,0,0
88607,-100,4,2,1,35,0,0
88765,-100,4,2,1,30,0,0
88924,-100,4,2,1,25,0,0
89083,-100,4,2,1,20,0,0
89242,-100,4,2,1,15,0,0
89400,-100,4,2,1,10,0,0

[Colours]
Combo1 : 242,215,102
Combo2 : 225,225,225
Combo3 : 232,132,157
Combo4 : 148,148,148

[HitObjects]
368,312,512,6,0,L|368:200,1,95,6|0,3:2|0:2,0:0:0:0:
136,152,829,1,8,0:2:0:0:
272,152,988,1,8,0:2:0:0:
136,192,1146,2,0,L|136:304,1,95,0|0,3:2|3:2,0:2:0:0:
368,96,1464,1,8,0:2:0:0:
136,256,1623,6,0,P|64:208|136:152,1,190,2|0,3:2|3:2,0:2:0:0:
176,144,2019,1,0,3:2:0:0:
368,160,2099,1,8,0:2:0:0:
232,112,2258,1,8,0:2:0:0:
368,224,2416,2,0,L|368:344,1,95,0|0,3:2|3:2,0:0:0:0:
136,152,2734,2,0,L|32:152,1,95,8|0,0:2|0:0,0:2:0:0:
280,176,3051,6,0,L|384:176,1,95,2|0,3:2|3:2,0:2:0:0:
136,96,3369,1,8,0:2:0:0:
272,96,3527,1,8,0:2:0:0:
136,160,3686,2,0,L|136:280,1,95,0|0,3:2|3:2,0:0:0:0:
384,56,4004,1,8,0:2:0:0:
136,216,4162,6,0,L|344:216,1,190,2|0,3:2|3:2,0:2:0:0:
272,168,4559,1,0,3:2:0:0:
80,136,4638,1,8,0:2:0:0:
216,96,4797,1,8,0:2:0:0:
80,192,4956,2,0,L|80:304,1,95,0|0,3:2|3:2,0:0:0:0:
312,144,5273,2,0,L|192:144,1,95,8|0,0:2|0:2,0:2:0:0:
456,184,5591,6,0,L|456:80,1,95,2|0,3:2|3:2,0:0:0:0:
216,264,5908,1,8,0:2:0:0:
352,264,6067,1,8,0:2:0:0:
216,264,6226,2,0,L|216:168,1,95,0|0,3:2|3:2,0:2:0:0:
456,144,6543,1,8,0:2:0:0:
216,184,6702,6,0,P|152:128|216:64,1,190,2|0,3:2|3:2,0:2:0:0:
264,56,7099,1,0,3:2:0:0:
456,184,7178,1,8,0:2:0:0:
320,152,7337,1,8,0:2:0:0:
456,224,7496,2,0,L|456:320,1,95,0|0,3:2|3:2,0:2:0:0:
216,192,7813,2,0,L|112:192,1,95,8|0,0:2|0:0,0:2:0:0:
368,184,8131,6,0,L|368:80,1,95,2|0,3:2|3:2,0:0:0:0:
128,272,8448,1,8,0:2:0:0:
264,264,8607,1,8,0:2:0:0:
128,216,8765,2,0,L|128:120,1,95,0|0,3:2|3:2,0:0:0:0:
368,136,9083,1,8,0:2:0:0:
128,272,9242,6,0,L|344:272,1,190,2|0,3:2|3:2,0:2:0:0:
264,224,9638,1,0,3:2:0:0:
72,144,9718,1,8,0:2:0:0:
208,128,9877,1,8,0:2:0:0:
72,200,10035,2,0,L|72:312,1,95,0|0,3:2|3:2,0:2:0:0:
312,288,10353,2,0,L|208:288,1,95,8|0,0:2|0:0,0:2:0:0:
464,192,10670,6,0,L|464:88,1,95,2|0,3:2|0:0,0:2:0:0:
224,192,10988,2,0,L|224:80,1,95,8|0,0:2|0:0,0:2:0:0:
360,200,11305,1,0,0:2:0:0:
224,192,11464,1,0,0:2:0:0:
464,320,11623,1,8,0:2:0:0:
328,264,11781,6,0,L|328:168,1,95,2|0,3:2|0:0,0:2:0:0:
464,232,12099,2,0,L|464:128,1,95,0|8,3:2|0:2,0:2:0:0:
328,184,12416,2,0,L|432:184,1,95,2|0,0:2|0:0,0:2:0:0:
288,120,12734,1,0,0:2:0:0:
424,128,12892,2,0,L|424:16,1,95,8|0,0:2|0:2,0:0:0:0:
192,192,13210,6,0,L|192:88,1,95,2|0,3:2|0:0,0:2:0:0:
424,200,13527,2,0,L|424:88,1,95,8|0,0:2|0:2,0:2:0:0:
288,176,13845,1,0,0:2:0:0:
424,176,14004,1,0,0:2:0:0:
184,288,14162,1,8,0:2:0:0:
320,248,14321,6,0,L|320:136,1,95,2|0,3:2|0:0,0:2:0:0:
88,176,14638,2,0,L|88:72,1,95,0|8,3:2|0:2,0:0:0:0:
224,176,14956,1,0,0:2:0:0:
88,224,15115,2,0,L|88:128,1,95,2|0,0:2|0:0,0:0:0:0:
328,224,15432,2,0,L|424:224,1,95,8|0,0:2|0:0,0:0:0:0:
192,184,15750,5,2,3:2:0:0:
328,168,15908,1,0,0:0:0:0:
192,240,16067,2,0,L|80:240,1,95,8|0,0:2|0:2,0:2:0:0:
232,168,16385,1,2,0:2:0:0:
96,144,16543,1,0,0:2:0:0:
336,288,16702,1,8,0:2:0:0:
200,256,16861,6,0,L|200:152,1,95,2|0,3:2|0:2,0:2:0:0:
440,168,17178,1,0,3:2:0:0:
304,160,17337,1,8,0:2:0:0:
408,160,17496,2,0,L|504:160,1,95
360,192,17813,1,0,0:2:0:0:
496,144,17972,2,0,L|496:40,1,95,8|0,0:2|0:2,0:0:0:0:
256,288,18289,6,0,L|128:288,1,95,2|0,3:2|0:0,0:2:0:0:
392,256,18607,2,0,L|392:152,1,95,8|0,0:2|0:2,0:2:0:0:
256,224,18924,1,0,0:2:0:0:
392,224,19083,1,0,0:2:0:0:
152,288,19242,1,8,0:2:0:0:
288,224,19400,6,0,L|288:120,1,95,2|0,3:2|0:0,0:2:0:0:
48,192,19718,2,0,L|48:96,1,95
168,168,20035,1,0,0:0:0:0:
48,248,20194,2,0,L|344:248,1,285
88,320,20829,6,0,L|88:224,1,95,6|0,3:2|0:0,0:2:0:0:
232,176,21146,2,0,L|232:80,1,95,8|0,0:2|0:0,0:2:0:0:
88,176,21464,2,0,L|200:176,1,95,0|0,0:2|3:2,0:0:0:0:
320,168,21781,1,8,0:2:0:0:
184,312,21940,6,0,L|184:200,1,95,2|0,3:2|0:0,0:2:0:0:
320,224,22258,2,0,L|320:128,1,95,0|8,3:2|0:2,0:2:0:0:
184,336,22575,2,0,L|184:208,1,95,2|0,3:2|0:0,0:2:0:0:
320,280,22892,1,0,3:2:0:0:
184,264,23051,2,0,L|80:264,1,95,8|0,0:2|0:2,0:2:0:0:
328,216,23369,6,0,L|488:216,1,142.5,6|2,3:2|3:2,0:0:0:0:
416,160,23686,1,0,0:0:0:0:
280,120,23845,2,0,L|184:120,2,95,2|2|0,3:2|0:2|3:2,0:0:0:0:
424,232,24321,1,8,0:2:0:0:
288,176,24480,6,0,L|480:176,1,190,2|2,3:2|3:2,0:2:0:0:
360,120,24956,1,8,0:2:0:0:
224,280,25115,1,0,3:2:0:0:
360,224,25273,2,0,L|360:176,1,47.5,0|0,3:2|3:0,3:0:0:0:
288,152,25432,2,0,L|288:88,1,47.5,0|0,3:0|3:0,3:0:0:0:
448,176,25591,2,0,L|448:56,1,95,8|0,0:2|0:0,0:0:0:0:
208,312,25908,6,0,L|96:312,1,95,2|0,3:2|3:2,0:2:0:0:
248,240,26226,2,0,L|352:240,1,95,8|0,0:2|3:2,0:2:0:0:
208,184,26543,2,0,L|208:80,1,95,0|0,0:2|3:2,0:0:0:0:
344,80,26861,1,8,0:2:0:0:
208,240,27019,6,0,L|104:240,1,95,2|0,3:2|0:2,0:2:0:0:
248,176,27337,2,0,L|352:176,1,95,0|8,3:2|0:2,0:2:0:0:
208,80,27654,1,0,0:2:0:0:
344,248,27813,1,0,3:2:0:0:
208,152,27972,1,0,3:2:0:0:
344,152,28131,2,0,L|456:152,1,95,8|0,0:2|0:2,0:2:0:0:
208,216,28448,6,0,L|48:216,1,142.5,6|2,3:2|3:2,0:2:0:0:
120,160,28765,1,0,0:0:0:0:
256,120,28924,2,0,L|352:120,2,95,2|0|0,3:2|0:2|3:2,0:0:0:0:
112,232,29400,1,8,0:2:0:0:
248,176,29559,6,0,L|56:176,1,190,2|2,3:2|3:2,0:2:0:0:
192,128,30035,1,0,0:0:0:0:
328,184,30194,1,2,3:2:0:0:
192,200,30353,2,0,L|192:104,1,95,8|0,0:2|3:2,0:0:0:0:
432,184,30670,2,0,L|368:184,1,47.5,8|8,0:2|0:2,0:0:0:0:
192,256,30829,2,0,L|136:256,1,47.5,8|8,0:2|0:2,0:0:0:0:
336,304,30988,6,0,L|336:192,1,95,2|0,3:2|0:2,0:2:0:0:
208,176,31305,2,0,L|208:80,1,95,0|0,3:2|0:2,0:2:0:0:
80,192,31623,2,0,L|80:288,1,95,0|0,3:2|0:2,0:2:0:0:
208,224,31940,1,0,3:2:0:0:
80,192,32099,6,0,L|184:192,1,95,0|2,0:2|3:2,0:0:0:0:
296,176,32416,2,0,L|296:56,1,95,0|0,0:2|3:2,0:0:0:0:
176,128,32734,2,0,L|176:24,1,95,0|0,0:2|3:2,0:0:0:0:
296,224,33051,2,0,L|184:224,2,95,0|0|0,0:2|3:2|0:2,0:0:0:0:
48,144,33527,5,0,3:2:0:0:
160,144,33686,1,2,0:2:0:0:
272,144,33845,1,0,3:2:0:0:
160,144,34004,1,2,0:2:0:0:
304,272,34162,2,0,P|376:216|304:168,1,190,0|0,3:2|3:2,0:0:0:0:
184,160,34638,6,0,L|408:160,1,190,2|2,0:2|0:2,0:2:0:0:
440,160,35035,1,0,0:0:0:0:
376,120,35115,1,0,3:2:0:0:
224,248,35273,1,0,0:2:0:0:
368,184,35432,2,0,P|440:136|368:88,1,190,0|0,3:2|3:2,0:2:0:0:
288,80,35908,1,0,0:2:0:0:
72,328,36067,5,4,3:2:0:0:
16,296,36146,1,0,3:0:0:0:
16,240,36226,1,0,3:0:0:0:
72,208,36305,1,0,3:0:0:0:
264,168,36385,1,8,3:0:0:0:
328,168,36464,1,0,3:0:0:0:
264,168,36543,1,0,3:0:0:0:
200,168,36623,1,0,3:0:0:0:
392,272,36702,6,0,L|440:272,1,47.5,8|0,3:0|3:0,0:0:0:0:
232,280,36861,2,0,L|224:216,1,47.5,0|0,3:0|3:0,0:0:0:0:
304,208,37019,2,0,L|320:144,1,47.5,0|0,3:0|3:0,0:0:0:0:
104,96,37178,2,0,L|40:96,1,47.5,0|0,3:0|3:0,0:0:0:0:
264,344,37337,6,0,L|280:296,1,47.5,8|0,3:0|3:0,0:0:0:0:
208,264,37496,2,0,L|200:208,1,47.5,0|0,3:0|3:0,0:0:0:0:
392,192,37654,1,8,3:0:0:0:
448,152,37734,1,0,3:0:0:0:
448,96,37813,1,0,3:0:0:0:
392,64,37892,1,0,3:0:0:0:
192,192,37972,6,0,L|272:192,1,47.5,8|0,3:0|3:0,0:0:0:0:
410,263,38131,2,0,L|458:263,1,47.5,0|0,3:0|3:0,0:0:0:0:
264,160,38289,2,0,L|208:160,1,47.5,8|0,0:0|3:0,0:0:0:0:
448,208,38448,2,0,L|496:208,1,47.5,0|0,3:0|3:0,0:0:0:0:
296,224,38607,5,0,3:2:0:0:
440,152,38924,1,0,3:2:0:0:
296,160,39242,1,0,3:2:0:0:
152,128,39559,1,0,3:2:0:0:
352,264,39877,6,0,L|256:256,5,95
432,192,40829,6,0,L|184:192,1,213.750008153916,2|0,0:2|0:0,0:2:0:0:
440,264,41146,6,0,P|488:216|440:168,1,142.5,6|0,3:2|0:0,0:2:0:0:
256,168,41464,1,8,0:2:0:0:
400,128,41623,1,8,0:2:0:0:
168,248,41781,2,0,L|168:152,1,95,0|0,3:2|3:2,0:0:0:0:
400,192,42099,1,8,0:2:0:0:
256,136,42258,6,0,L|256:32,1,95,2|0,3:2|0:2,0:2:0:0:
400,248,42575,1,0,3:2:0:0:
256,200,42734,1,8,0:2:0:0:
488,192,42892,2,0,L|488:96,1,95,8|0,0:2|3:2,0:2:0:0:
256,136,43210,1,0,3:2:0:0:
368,136,43369,1,8,0:2:0:0:
480,136,43527,1,0,0:2:0:0:
256,136,43686,6,0,L|136:136,1,95,2|0,3:2|3:2,0:0:0:0:
392,296,44004,1,8,0:2:0:0:
248,248,44162,2,0,L|248:136,1,95,8|0,0:2|3:2,0:0:0:0:
480,184,44480,2,0,L|480:80,1,95,0|8,3:2|0:2,0:0:0:0:
248,248,44797,6,0,L|352:248,1,95,2|0,3:2|0:0,0:2:0:0:
104,176,45115,2,0,L|104:104,1,47.5,0|0,3:2|3:2,0:0:0:0:
296,176,45273,1,8,0:2:0:0:
160,112,45432,1,8,0:2:0:0:
392,200,45591,2,0,L|392:88,1,95,0|0,3:2|3:2,0:0:0:0:
160,176,45908,2,0,L|376:176,1,213.750008153916,10|0,0:2|0:0,0:2:0:0:
136,288,46226,6,0,P|80:232|136:192,1,142.5,6|0,3:2|0:0,0:2:0:0:
304,192,46543,1,8,0:2:0:0:
160,128,46702,1,8,0:2:0:0:
400,296,46861,2,0,L|400:192,1,95,0|0,3:2|3:2,0:0:0:0:
160,72,47178,1,8,0:2:0:0:
296,72,47337,6,0,L|408:72,1,95,2|0,3:2|0:2,0:2:0:0:
248,168,47654,1,0,3:2:0:0:
304,152,47734,1,0,3:2:0:0:
360,128,47813,1,8,0:2:0:0:
136,224,47972,2,0,L|136:128,1,95,8|0,0:2|3:2,0:0:0:0:
376,64,48289,1,0,3:2:0:0:
264,64,48448,1,8,0:2:0:0:
152,64,48607,1,0,0:2:0:0:
392,168,48765,6,0,L|392:72,1,95,2|0,3:2|3:2,0:2:0:0:
160,320,49083,1,8,0:2:0:0:
304,272,49241,2,0,L|304:160,1,95,8|0,0:2|3:2,0:2:0:0:
64,208,49559,2,0,L|64:112,1,95,0|8,3:2|0:2,0:0:0:0:
304,272,49877,6,0,L|200:272,1,95,2|0,3:2|0:0,0:2:0:0:
448,192,50194,2,0,L|448:80,1,95,2|8,3:2|0:2,0:2:0:0:
208,96,50511,2,0,L|144:96,1,47.5,8|0,0:2|0:0,0:0:0:0:
352,96,50670,2,0,L|352:200,1,95,0|0,3:2|3:2,0:2:0:0:
128,160,50988,2,0,L|360:160,1,213.750008153916,2|0,3:2|0:0,0:2:0:0:
104,288,51305,6,0,P|48:240|104:192,1,142.5,6|0,0:2|0:0,0:2:0:0:
272,176,51623,1,8,0:2:0:0:
128,120,51781,1,8,0:2:0:0:
368,280,51940,2,0,L|368:176,1,95,0|0,3:2|3:2,0:0:0:0:
128,184,52258,1,8,0:2:0:0:
272,184,52416,6,0,L|272:80,1,95,2|0,3:2|0:2,0:2:0:0:
128,120,52734,1,0,3:2:0:0:
184,112,52813,1,0,3:2:0:0:
240,96,52892,1,8,0:2:0:0:
16,312,53051,2,0,L|16:208,1,95,8|0,0:2|3:2,0:0:0:0:
264,168,53369,1,0,3:2:0:0:
152,168,53527,1,8,0:2:0:0:
40,168,53686,1,0,0:2:0:0:
280,256,53845,6,0,L|280:136,1,95,2|0,3:2|3:2,0:0:0:0:
56,240,54162,1,8,0:2:0:0:
184,232,54321,2,0,L|304:232,1,95,8|0,0:2|3:2,0:0:0:0:
32,320,54638,2,0,L|32:224,1,95,0|8,3:2|0:2,0:0:0:0:
264,248,54956,6,0,L|368:248,1,95,2|0,3:2|0:0,0:2:0:0:
120,176,55274,2,0,L|120:104,1,47.5,2|0,3:2|0:0,0:0:0:0:
312,176,55432,1,8,0:2:0:0:
176,112,55591,1,8,0:2:0:0:
408,200,55750,2,0,L|408:88,1,95,0|0,0:0|3:2,0:0:0:0:
136,288,56067,2,0,L|352:288,1,213.750008153916,10|0,0:2|0:0,0:2:0:0:
112,224,56385,6,0,P|64:176|112:128,1,142.5,6|0,3:2|0:0,0:2:0:0:
296,192,56702,1,8,0:2:0:0:
152,128,56861,1,8,0:2:0:0:
392,296,57019,2,0,L|392:192,1,95,0|0,3:2|3:2,0:2:0:0:
152,184,57337,1,8,0:2:0:0:
296,192,57496,6,0,L|416:192,1,95,2|0,3:2|0:2,0:2:0:0:
248,120,57813,1,0,3:2:0:0:
392,80,57972,1,8,0:2:0:0:
152,288,58131,2,0,L|152:192,1,95,8|0,0:2|3:2,0:2:0:0:
392,184,58448,1,0,3:2:0:0:
280,192,58607,1,8,0:2:0:0:
168,192,58765,1,0,0:2:0:0:
392,272,58924,5,2,3:2:0:0:
248,224,59083,2,0,L|248:120,1,95,0|8,3:2|0:2,0:0:0:0:
488,192,59400,2,0,L|488:96,1,95,10|0,0:2|3:2,0:2:0:0:
248,160,59718,2,0,L|248:56,1,95,2|8,3:2|0:2,0:2:0:0:
488,256,60035,6,0,L|280:256,1,190,2|2,3:2|3:2,0:0:0:0:
448,336,60511,2,0,L|448:232,1,95,2|0,0:2|3:2,0:0:0:0:
200,200,60829,1,8,0:2:0:0:
448,336,60988,2,0,L|504:336,1,47.5,8|8,0:2|0:2,0:0:0:0:
304,208,61146,2,0,L|224:208,1,47.5,8|8,0:2|0:2,0:0:0:0:
448,280,61305,2,0,L|496:280,1,47.5,8|8,0:2|0:2,0:0:0:0:
304,288,61464,6,0,P|248:232|304:192,1,142.5,6|0,3:2|0:0,0:2:0:0:
448,224,61781,2,0,P|496:176|448:128,1,142.5,8|0,0:2|0:0,0:2:0:0:
272,184,62099,1,0,3:2:0:0:
408,128,62258,1,0,3:2:0:0:
168,200,62416,1,8,0:2:0:0:
312,152,62575,6,0,L|312:48,1,95,2|0,3:2|3:2,0:2:0:0:
72,144,62892,2,0,L|72:32,1,95,0|8,0:2|0:2,0:2:0:0:
312,304,63210,1,0,0:2:0:0:
176,232,63369,2,0,L|176:128,1,95,0|0,3:2|0:0,0:2:0:0:
312,232,63686,1,8,0:2:0:0:
176,232,63845,1,0,0:2:0:0:
408,232,64004,6,0,P|464:184|408:136,1,142.5,2|0,3:2|0:0,0:2:0:0:
240,120,64321,1,8,0:2:0:0:
376,64,64480,1,0,0:2:0:0:
136,272,64638,2,0,L|136:168,1,95,0|0,3:2|0:2,0:0:0:0:
272,288,64956,1,8,0:2:0:0:
32,192,65115,6,0,L|32:88,1,95,2|0,3:2|3:2,0:2:0:0:
272,136,65432,2,0,L|368:136,1,95,0|8,0:2|0:2,0:2:0:0:
128,240,65750,1,0,0:2:0:0:
264,192,65908,1,0,3:2:0:0:
128,184,66067,2,0,L|128:80,1,95,8|0,0:2|0:0,0:2:0:0:
264,128,66385,1,10,0:2:0:0:
32,144,66543,6,0,L|32:40,1,95,0|0,0:0|0:2,0:0:0:0:
280,240,66861,1,8,0:2:0:0:
144,240,67019,1,0,0:2:0:0:
280,240,67178,2,0,L|384:240,1,95,0|0,3:2|0:2,0:0:0:0:
136,104,67496,1,8,0:2:0:0:
272,136,67654,6,0,P|320:80|272:32,1,142.5,2|0,3:2|0:0,0:2:0:0:
96,80,67972,2,0,L|96:176,1,95,0|8,0:2|0:2,0:2:0:0:
328,232,68289,1,0,0:2:0:0:
192,224,68448,1,0,3:2:0:0:
328,232,68607,1,0,0:2:0:0:
96,152,68765,1,8,0:2:0:0:
232,136,68924,1,2,3:2:0:0:
472,296,69083,6,0,L|472:176,1,95,0|0,3:2|0:2,0:0:0:0:
368,168,69400,1,8,0:2:0:0:
152,192,69559,1,0,0:2:0:0:
288,160,69718,1,0,3:2:0:0:
152,144,69877,1,0,0:2:0:0:
384,184,70035,1,8,0:2:0:0:
248,168,70194,6,0,L|248:56,1,95,2|0,3:2|0:0,0:2:0:0:
384,120,70511,1,0,0:2:0:0:
248,112,70670,2,0,P|192:56|248:16,1,142.5,8|0,0:2|0:0,0:2:0:0:
416,128,70988,2,0,L|416:24,1,95,0|8,3:2|0:2,0:0:0:0:
352,128,71226,1,8,0:2:0:0:
168,192,71305,2,0,L|96:192,1,47.5,8|8,0:2|0:2,0:0:0:0:
312,208,71464,2,0,L|384:208,1,47.5,8|8,0:2|0:2,0:0:0:0:
168,272,71623,6,0,L|64:272,1,95,6|0,3:2|0:2,0:2:0:0:
312,312,71940,1,8,0:2:0:0:
168,248,72099,2,0,L|56:248,1,95,0|0,3:2|3:2,0:2:0:0:
312,200,72416,2,0,L|312:88,1,95,0|8,0:2|0:2,0:2:0:0:
176,80,72734,1,2,3:2:0:0:
416,264,72892,5,0,3:2:0:0:
280,192,73051,2,0,L|280:80,1,95,0|8,0:2|0:2,0:0:0:0:
416,200,73369,1,0,0:2:0:0:
176,184,73527,2,0,P|128:128|176:80,1,142.5,0|0,3:2|0:0,0:2:0:0:
352,192,73845,2,0,L|352:88,1,95,8|2,0:2|3:2,0:0:0:0:
104,192,74162,5,0,3:2:0:0:
240,144,74321,2,0,L|240:48,1,95,0|8,0:2|0:2,0:2:0:0:
104,104,74638,1,0,0:2:0:0:
344,304,74797,1,0,3:2:0:0:
208,256,74956,1,0,0:2:0:0:
344,240,75115,1,8,0:2:0:0:
104,184,75273,6,0,L|104:80,1,95,2|0,3:2|3:2,0:2:0:0:
240,72,75591,1,0,0:2:0:0:
16,312,75750,1,8,0:2:0:0:
152,320,75908,1,0,0:2:0:0:
16,264,76067,2,0,L|16:168,1,95,0|0,3:2|0:2,0:0:0:0:
256,192,76385,2,0,L|376:192,1,95,10|0,0:2|0:0,0:2:0:0:
112,128,76702,5,0,3:2:0:0:
248,120,76861,1,8,0:2:0:0:
112,176,77019,2,0,L|112:280,1,95,0|0,0:2|3:2,0:0:0:0:
176,176,77258,1,0,3:2:0:0:
368,176,77337,2,0,L|368:80,1,95,8|0,0:2|0:2,0:2:0:0:
232,152,77654,1,0,0:2:0:0:
368,160,77813,1,0,0:2:0:0:
80,96,77972,5,10,0:2:0:0:
64,296,79242,6,0,L|64:184,1,95,6|0,3:2|3:2,0:0:0:0:
296,136,79559,1,8,0:2:0:0:
160,136,79718,1,8,0:2:0:0:
296,176,79876,2,0,L|296:288,1,95,0|0,3:2|3:2,0:2:0:0:
64,80,80194,1,8,0:2:0:0:
296,240,80353,6,0,P|368:192|296:136,1,190,2|0,3:2|3:2,0:2:0:0:
256,128,80749,1,0,3:2:0:0:
64,144,80829,1,8,0:2:0:0:
200,96,80988,1,8,0:2:0:0:
64,208,81146,2,0,L|64:328,1,95,0|0,3:2|3:2,0:2:0:0:
296,136,81464,2,0,L|400:136,1,95,8|0,0:2|0:2,0:2:0:0:
152,160,81781,6,0,L|48:160,1,95,2|0,3:2|3:2,0:2:0:0:
296,80,82099,1,8,0:2:0:0:
160,80,82257,1,8,0:2:0:0:
296,144,82416,2,0,L|296:264,1,95,0|0,3:2|3:2,0:0:0:0:
48,40,82734,1,8,0:2:0:0:
296,200,82892,6,0,L|88:200,1,190,2|0,3:2|3:2,0:2:0:0:
160,152,83289,1,0,3:2:0:0:
352,120,83368,1,8,0:2:0:0:
216,80,83527,1,8,0:2:0:0:
352,176,83686,2,0,L|352:288,1,95,0|0,3:2|3:2,0:2:0:0:
120,128,84003,2,0,L|16:128,1,95,8|0,0:2|0:2,0:0:0:0:
264,232,84321,5,10,0:2:0:0:
128,152,84480,1,8,0:2:0:0:
368,320,84638,1,0,3:2:0:0:
464,272,84797,1,8,0:2:0:0:
464,184,84956,1,0,3:2:0:0:
368,136,85115,1,0,0:2:0:0:
232,104,85273,1,8,0:2:0:0:
472,344,85432,6,0,L|472:240,1,95,10|0,0:2|0:0,0:2:0:0:
232,160,85750,2,0,L|232:40,1,95,10|0,0:2|0:0,0:2:0:0:
368,144,86067,1,8,3:2:0:0:
232,208,86226,2,0,L|136:208,1,95,0|0,3:2|0:2,0:2:0:0:
272,64,86543,2,0,L|400:64,1,95,0|0,3:2|0:2,0:2:0:0:
128,320,86861,5,10,0:0:0:0:
264,272,87019,1,8,0:0:0:0:
24,224,87178,1,2,3:0:0:0:
24,128,87337,1,2,0:0:0:0:
160,104,87496,1,8,3:0:0:0:
24,104,87654,1,0,3:0:0:0:
272,144,87813,1,8,0:0:0:0:
24,56,87972,5,8,0:0:0:0:
256,192,88131,12,0,89400,0:0:0:0:
