osu file format v14

[General]
AudioFilename: blob.mp3
AudioLeadIn: 2000
PreviewTime: 40811
Countdown: 0
SampleSet: Soft
StackLeniency: 0.7
Mode: 0
LetterboxInBreaks: 0
WidescreenStoryboard: 1

[Editor]
Bookmarks: 50811
DistanceSpacing: 1.2
BeatDivisor: 4
GridSize: 4
TimelineZoom: 2.5

[Metadata]
Title:Goya no Machiawase (TV Size)
TitleUnicode:午夜の待ち合わせ (TV Size)
Artist:Hello Sleepwalkers
ArtistUnicode:Hello Sleepwalkers
Creator:Nevo
Version:Ultima Fox's Insane
Source:ノラガミ
Tags:opening anime Noragami spoes airincat noffy armin a_r_m_i_n agatsu ultima fox japanese rock
BeatmapID:1929398
BeatmapSetID:920346

[Difficulty]
HPDrainRate:5.7
CircleSize:6
OverallDifficulty:8.2
ApproachRate:9.2
SliderMultiplier:1.6
SliderTickRate:1

[Events]
//Background and Video events
Video,-200,"Noragami Opening 1 HD.avi"
0,0,"e61c267b02087bf47872e8a4f3d3572c10dfcf6f.jpg",0,0
//Break Periods
//Storyboard Layer 0 (Background)
//Storyboard Layer 1 (Fail)
//Storyboard Layer 2 (Pass)
//Storyboard Layer 3 (Foreground)
//Storyboard Sound Samples

[TimingPoints]
335,317.460317460317,4,2,1,70,1,0
2795,-100,4,2,1,5,0,0
2874,-100,4,2,1,70,0,0
5334,-100,4,2,1,70,0,0
5414,-100,4,2,1,70,0,0
7874,-100,4,2,1,5,0,0
7954,-100,4,2,1,70,0,0
10414,-100,4,2,1,5,0,0
10493,-125,4,2,1,60,0,0
11842,-125,4,2,1,5,0,0
11922,-125,4,2,1,60,0,0
12477,-125,4,2,1,5,0,0
12557,-125,4,2,1,60,0,0
13350,-125,4,2,1,60,0,0
14382,-125,4,2,1,5,0,0
14461,-125,4,2,1,60,0,0
16128,-125,4,2,1,60,0,0
16208,-125,4,2,1,60,0,0
17557,-125,4,2,1,5,0,0
17636,-125,4,2,1,60,0,0
18430,-125,4,2,1,60,0,0
19461,-125,4,2,1,60,0,0
19541,-125,4,2,1,60,0,0
19779,-125,4,2,1,60,0,0
19858,-125,4,2,1,60,0,0
20017,-166.666666666667,4,2,1,60,0,0
20652,-111.111111111111,4,2,1,60,0,0
20890,-111.111111111111,4,2,1,5,0,0
20969,-111.111111111111,4,2,1,60,0,0
21208,-111.111111111111,4,2,1,5,0,0
21287,-111.111111111111,4,2,1,60,0,0
22001,-111.111111111111,4,2,1,5,0,0
22080,-111.111111111111,4,2,1,60,0,0
23112,-111.111111111111,4,2,1,60,0,0
23192,-111.111111111111,4,2,1,60,0,0
26287,-111.111111111111,4,2,1,60,0,0
26366,-111.111111111111,4,2,1,60,0,0
30811,-166.666666666666,4,2,1,50,0,0
35890,-125,4,2,1,50,0,0
36128,-125,4,2,1,50,0,0
36208,-125,4,2,1,50,0,0
39700,-90.9090909090909,4,2,1,50,0,0
40652,-90.9090909090909,4,2,1,80,0,0
40890,-90.9090909090909,4,2,1,5,0,0
40969,-100,4,2,1,80,0,1
41208,-100,4,2,1,5,0,1
41287,-83.3333333333333,4,2,1,80,0,1
42081,-100,4,2,1,80,0,1
42954,-100,4,2,1,80,0,1
43033,-100,4,2,1,80,0,1
43509,-83.3333333333333,4,2,1,80,0,1
43985,-100,4,2,1,80,0,1
44223,-100,4,2,1,80,0,1
44303,-100,4,2,1,80,0,1
45731,-83.3333333333333,4,2,1,80,0,1
45969,-83.3333333333333,4,2,1,5,0,1
46048,-83.3333333333333,4,2,1,80,0,1
46049,-100,4,2,1,80,0,1
46287,-100,4,2,1,5,0,1
46366,-83.3333333333333,4,2,1,80,0,1
47160,-100,4,2,1,80,0,1
48588,-83.3333333333333,4,2,1,80,0,1
49065,-100,4,2,1,80,0,1
49303,-100,4,2,1,80,0,1
49382,-100,4,2,1,80,0,1
50811,-83.3333333333333,4,2,1,80,0,1
51049,-83.3333333333333,4,2,1,5,0,1
51128,-100,4,2,1,80,0,1
51366,-100,4,2,1,5,0,1
51445,-100,4,2,1,80,0,1
51446,-83.3333333333333,4,2,1,80,0,1
52239,-100,4,2,1,80,0,1
53112,-100,4,2,1,80,0,1
53192,-100,4,2,1,80,0,1
54382,-100,4,2,1,80,0,1
54461,-100,4,2,1,80,0,1
55890,-83.3333333333333,4,2,1,80,0,1
56128,-83.3333333333333,4,2,1,5,0,1
56207,-83.3333333333333,4,2,1,80,0,1
56208,-100,4,2,1,80,0,1
56446,-100,4,2,1,5,0,1
56525,-83.3333333333333,4,2,1,80,0,1
57319,-100,4,2,1,80,0,1
59938,-100,4,2,1,80,0,1
60017,-100,4,2,1,80,0,1
60255,-100,4,2,1,80,0,1
60334,-100,4,2,1,80,0,1
60573,-100,4,2,1,80,0,1
60652,-100,4,2,1,80,0,1
61287,-100,4,2,1,70,0,1
61525,-100,4,2,1,70,0,1
61604,-100,4,2,1,70,0,1
61842,-100,4,2,1,70,0,1
61922,-100,4,2,1,70,0,1
63430,-100,4,2,1,5,0,1
63509,-100,4,2,1,80,0,1
64065,-100,4,2,1,80,0,1
64144,-100,4,2,1,80,0,1
66128,-100,4,2,1,5,0,1
66207,-100,4,2,1,80,0,1
71684,-100,4,2,1,80,0,1
71763,-100,4,2,1,80,0,1
73588,-100,4,2,1,80,0,1
73668,-100,4,2,1,80,0,1
74382,-100,4,2,1,80,0,1
74461,-100,4,2,1,80,0,1
76208,-125,4,2,1,80,0,1
76446,-125,4,2,1,80,0,1
76525,-100,4,2,1,80,0,1
77795,-100,4,2,1,60,0,0
79065,-100,4,2,1,70,0,0
81525,-100,4,2,1,70,0,0
81604,-100,4,2,1,70,0,0
84065,-100,4,2,1,70,0,0
84144,-125,4,2,1,60,0,0
85493,-125,4,2,1,5,0,0
85573,-125,4,2,1,60,0,0
85811,-125,4,2,1,5,0,0
85891,-125,4,2,1,60,0,0
89223,-125,4,2,1,60,0,0

[Colours]
Combo1 : 128,255,128
Combo2 : 192,192,192
Combo3 : 255,128,192
Combo4 : 128,255,255

[HitObjects]
254,202,335,6,0,P|234:147|214:106,1,80,6|0,3:2|0:2,0:0:0:0:
324,172,652,1,8,0:2:0:0:
203,252,811,1,8,0:2:0:0:
251,306,969,2,0,P|286:295|333:284,2,80,0|0|8,3:2|3:2|0:2,0:0:0:0:
160,370,1446,6,0,P|155:320|37:272,1,160,2|0,3:2|3:2,0:0:0:0:
68,264,1842,1,0,3:2:0:0:
68,264,1922,1,8,0:2:0:0:
159,216,2081,1,8,0:2:0:0:
79,355,2239,2,0,P|26:349|-7:346,1,80,0|0,3:2|3:2,0:0:0:0:
164,202,2557,2,0,P|219:193|301:180,1,120,8|0,0:2|0:2,0:0:0:0:
296,188,2874,6,0,P|321:228|318:287,1,80,2|0,3:2|3:2,0:0:0:0:
370,138,3192,1,8,0:2:0:0:
370,138,3350,1,8,0:2:0:0:
483,218,3509,2,0,L|393:236,1,80,0|0,3:2|3:2,0:0:0:0:
285,104,3827,1,8,0:2:0:0:
318,278,3985,6,0,P|251:255|160:232,1,160,2|0,3:2|3:2,0:0:0:0:
164,232,4382,1,0,3:2:0:0:
164,232,4461,1,8,0:2:0:0:
200,149,4620,1,8,0:2:0:0:
117,103,4779,1,0,3:2:0:0:
88,189,4938,1,0,3:2:0:0:
198,66,5096,2,0,L|351:85,1,120,8|0,0:2|0:0,0:0:0:0:
336,94,5414,6,0,P|347:140|356:186,1,80,2|0,3:2|3:2,0:0:0:0:
308,253,5731,1,8,0:2:0:0:
420,233,5890,1,8,0:2:0:0:
329,328,6049,2,0,P|283:329|248:304,2,80,0|0|8,3:2|3:2|0:2,0:0:0:0:
432,372,6525,6,0,P|416:309|410:212,1,160,2|0,3:2|3:2,0:0:0:0:
409,214,6922,1,0,3:2:0:0:
409,214,7001,1,8,0:2:0:0:
490,173,7160,1,8,0:2:0:0:
423,102,7319,2,0,P|360:113|336:116,1,80,0|0,3:2|3:2,0:0:0:0:
203,120,7636,2,0,P|251:127|285:208,1,120,8|0,0:2|0:2,0:0:0:0:
305,193,7954,6,0,P|293:253|291:282,1,80,2|0,3:2|3:2,0:0:0:0:
356,341,8271,1,8,0:2:0:0:
356,341,8430,1,8,0:2:0:0:
275,382,8588,2,0,L|185:370,1,80,0|0,3:2|3:2,0:0:0:0:
135,277,8906,1,8,0:2:0:0:
68,364,9065,6,0,P|56:306|6:208,1,160,2|0,3:2|3:2,0:0:0:0:
11,215,9461,1,0,3:2:0:0:
11,215,9541,1,8,0:2:0:0:
116,262,9700,1,8,0:2:0:0:
156,171,9858,2,0,L|243:186,1,80,0|0,3:2|3:2,0:0:0:0:
284,279,10176,2,0,P|322:270|411:246,1,120,8|0,0:2|0:2,0:0:0:0:
418,263,10493,6,0,P|428:192|437:147,1,96,2|0,3:2|3:2,0:0:0:0:
446,152,10811,1,8,0:2:0:0:
357,87,11128,2,0,P|352:56|346:23,2,64,0|0|8,0:2|0:2|0:2,0:0:0:0:
318,144,11604,6,0,L|167:129,1,128,2|0,3:2|3:2,0:0:0:0:
144,79,12081,1,8,0:2:0:0:
144,79,12239,2,0,P|96:87|71:92,1,64,2|0,0:2|0:0,0:0:0:0:
14,152,12557,6,0,P|4:105|-3:81,2,64,0|8|0,0:2|0:2|0:2,0:0:0:0:
1,226,13033,2,0,P|39:219|99:253,1,96,2|0,3:2|0:2,0:0:0:0:
97,261,13350,1,8,0:2:0:0:
181,159,13668,2,0,P|186:198|194:229,1,64,0|0,0:2|0:2,0:0:0:0:
259,274,13985,5,8,0:2:0:0:
259,274,14144,2,0,P|268:217|282:144,1,128,2|0,3:2|3:2,0:0:0:0:
342,108,14620,2,0,L|412:100,1,64,8|0,0:2|0:2,0:0:0:0:
288,57,14938,1,2,0:2:0:0:
421,173,15255,2,0,P|409:220|402:248,1,64,8|0,0:2|0:0,0:0:0:0:
308,249,15573,6,0,P|321:309|327:335,1,64,2|0,3:2|0:2,0:0:0:0:
382,351,15811,1,0,3:2:0:0:
376,343,15890,2,0,P|342:339|284:377,1,96,8|0,0:2|0:0,0:0:0:0:
281,384,16208,2,0,L|204:374,1,64,2|0,0:2|0:2,0:0:0:0:
126,384,16525,5,8,0:2:0:0:
126,384,16684,2,0,P|145:329|158:256,1,128,2|0,3:2|3:2,0:0:0:0:
116,208,17160,1,8,0:2:0:0:
163,154,17319,2,0,L|242:166,1,64,0|0,0:2|0:0,0:0:0:0:
281,231,17636,2,0,P|324:223|352:217,2,64,0|8|0,0:2|0:2|0:2,0:0:0:0:
395,167,18112,6,0,P|407:112|423:61,1,96,2|0,3:2|3:2,0:0:0:0:
433,67,18430,1,8,0:2:0:0:
329,125,18747,2,0,P|289:123|258:104,1,64,0|0,0:2|0:2,0:0:0:0:
216,50,19065,5,8,0:2:0:0:
216,50,19223,2,0,L|113:63,1,96,2|0,3:2|0:0,0:0:0:0:
144,75,19541,2,0,L|41:88,1,96,0|0,3:0|0:0,0:0:0:0:
64,103,19858,1,0,0:0:0:0:
2,140,20017,2,0,P|-2:189|0:244,1,95.9999970703126,2|0,0:0|0:0,0:0:0:0:
0,235,20652,6,0,P|38:260|100:259,1,107.999996704102,6|0,3:2|0:2,0:0:0:0:
133,210,20969,2,0,P|171:185|233:186,1,107.999996704102,8|0,0:2|0:2,0:0:0:0:
248,200,21287,2,0,L|265:289,2,71.9999978027344,0|0|8,0:2|3:2|0:2,0:0:0:0:
329,185,21763,6,0,L|346:41,1,143.999995605469,2|0,3:2|3:2,0:0:0:0:
281,2,22239,1,8,0:2:0:0:
230,53,22398,2,0,P|190:49|156:21,1,71.9999978027344,2|0,3:2|0:0,0:0:0:0:
71,1,22715,1,0,3:2:0:0:
80,0,22795,1,0,3:2:0:0:
85,1,22874,2,0,P|93:57|51:103,1,107.999996704102,8|0,0:2|0:0,0:0:0:0:
47,102,23192,5,6,3:2:0:0:
98,157,23350,1,0,3:0:0:0:
98,157,23430,1,2,3:2:0:0:
98,157,23509,2,0,L|82:238,1,71.9999978027344,8|2,0:0|3:2,0:0:0:0:
18,256,23827,2,0,L|44:354,1,71.9999978027344,2|0,0:2|3:2,0:0:0:0:
96,376,24144,1,8,0:2:0:0:
151,323,24303,6,0,B|203:306|203:306|286:360,2,143.999995605469,2|2|0,3:2|3:2|3:2,0:0:0:0:
96,376,25096,1,0,3:2:0:0:
74,378,25176,1,0,3:0:0:0:
52,375,25255,1,0,3:0:0:0:
35,361,25334,1,0,3:0:0:0:
28,340,25414,1,8,0:2:0:0:
96,214,25731,6,0,L|231:236,1,107.999996704102,2|0,3:2|3:2,0:0:0:0:
231,173,26049,2,0,L|124:155,1,107.999996704102,8|0,0:2|0:0,0:0:0:0:
102,151,26366,1,0,0:2:0:0:
144,88,26525,2,0,P|182:86|220:82,1,71.9999978027344,0|8,3:2|0:2,0:0:0:0:
261,23,26842,2,0,P|190:14|119:4,2,143.999995605469,2|0|0,3:2|3:2|0:2,0:0:0:0:
331,4,27636,5,0,3:2:0:0:
371,59,27795,1,0,3:2:0:0:
371,59,27874,1,0,3:0:0:0:
371,59,27954,2,0,P|358:99|349:132,1,71.9999978027344,8|0,0:2|0:2,0:0:0:0:
289,158,28271,5,6,3:2:0:0:
348,198,28430,1,0,3:0:0:0:
348,198,28509,1,2,3:2:0:0:
348,198,28588,2,0,P|387:188|412:138,1,71.9999978027344,8|2,0:0|3:2,0:0:0:0:
458,100,28906,2,0,P|470:160|494:249,1,143.999995605469,0|8,0:2|0:2,0:0:0:0:
435,289,29382,6,0,P|395:269|351:277,1,71.9999978027344,2|0,3:2|0:0,0:0:0:0:
327,326,29700,2,0,P|287:346|243:338,1,71.9999978027344,2|0,3:2|0:0,0:0:0:0:
204,290,30017,1,2,3:2:0:0:
204,290,30176,2,0,L|188:216,1,71.9999978027344,8|0,0:2|3:2,0:0:0:0:
262,177,30493,1,8,0:2:0:0:
263,166,30573,1,8,0:2:0:0:
265,155,30652,1,8,0:2:0:0:
267,144,30731,1,8,0:2:0:0:
269,133,30811,6,0,L|278:82,1,47.9999985351563,2|0,3:2|0:2,0:0:0:0:
184,196,31128,2,0,L|175:145,1,47.9999985351563,0|0,3:2|0:2,0:0:0:0:
90,133,31446,2,0,L|99:82,2,47.9999985351563,0|0|0,3:2|0:2|3:2,0:0:0:0:
29,196,31922,6,0,P|60:201|82:218,1,47.9999985351563,0|2,0:2|3:2,0:0:0:0:
134,309,32239,2,0,P|122:279|126:252,1,47.9999985351563,0|0,0:2|3:2,0:0:0:0:
182,164,32557,2,0,P|162:188|136:198,1,47.9999985351563,0|0,0:2|3:2,0:0:0:0:
35,269,32874,5,0,0:2:0:0:
35,269,33033,2,0,L|26:332,1,47.9999985351563,0|0,3:2|0:2,0:0:0:0:
96,368,33350,2,0,P|130:366|155:355,1,47.9999985351563,0|2,3:2|0:2,0:0:0:0:
197,294,33668,2,0,P|231:296|256:307,1,47.9999985351563,0|2,3:2|0:2,0:0:0:0:
306,371,33985,2,0,P|323:345|393:325,1,95.9999970703126,0|0,3:2|3:2,0:0:0:0:
454,377,34461,6,0,L|463:329,1,47.9999985351563,2|0,0:2|3:2,0:0:0:0:
416,258,34779,2,0,L|425:210,1,47.9999985351563,2|0,0:2|3:2,0:0:0:0:
491,157,35096,1,0,0:2:0:0:
491,157,35255,2,0,L|471:45,1,95.9999970703126,0|0,3:2|3:2,0:0:0:0:
474,62,35890,6,0,P|431:66|387:23,1,96,4|0,3:2|3:0,0:0:0:0:
385,12,36208,2,0,L|293:21,1,64,8|0,3:0|3:0,0:0:0:0:
242,81,36525,1,8,3:0:0:0:
240,71,36604,1,0,3:0:0:0:
238,61,36684,1,0,3:0:0:0:
236,51,36763,1,0,3:0:0:0:
234,41,36842,1,0,3:0:0:0:
327,96,37001,6,0,P|319:139|314:169,1,64,0|8,3:0|3:0,0:0:0:0:
312,247,37319,2,0,P|276:225|243:214,1,64,0|8,3:0|3:0,0:0:0:0:
235,122,37636,2,0,P|199:144|166:155,1,64,0|8,3:0|3:0,0:0:0:0:
110,188,37954,5,0,3:0:0:0:
181,232,38112,1,8,0:0:0:0:
185,240,38192,1,0,3:0:0:0:
187,249,38271,1,0,3:0:0:0:
188,258,38350,1,0,3:0:0:0:
187,267,38430,5,0,3:2:0:0:
146,315,38747,5,0,3:2:0:0:
84,305,39065,5,0,3:2:0:0:
61,248,39382,5,0,3:2:0:0:
201,346,39700,6,0,L|294:335,5,88.000002685547,0|0|0|0|0|0,0:0|0:0|0:0|0:0|0:0|0:0,0:0:0:0:
370,297,40652,2,0,B|359:328|359:328|370:368|416:356,1,88.000002685547,2|0,0:2|0:0,0:0:0:0:
442,267,40969,6,0,P|431:215|418:144,1,120,6|0,3:2|0:2,0:0:0:0:
330,173,41287,2,0,P|346:96|352:59,1,95.9999970703126,8|8,0:2|0:2,0:0:0:0:
395,10,41604,1,0,3:2:0:0:
395,10,41763,1,0,3:2:0:0:
272,71,41922,1,8,0:2:0:0:
203,3,42081,6,0,P|151:12|115:17,1,80,2|0,3:2|0:2,0:0:0:0:
24,73,42398,2,0,L|67:89,1,40,0|0,3:2|3:2,0:0:0:0:
116,112,42557,1,8,0:2:0:0:
34,178,42715,2,0,P|27:224|14:298,1,120,8|0,0:2|0:0,0:0:0:0:
53,343,43033,5,0,3:2:0:0:
131,281,43192,1,8,0:2:0:0:
131,281,43350,1,0,0:2:0:0:
186,363,43509,6,0,P|236:370|278:335,2,95.9999970703126,2|0|8,3:2|3:2|0:2,0:0:0:0:
196,231,43985,2,0,P|243:254|312:264,1,120,8|0,0:2|0:0,0:0:0:0:
357,226,44303,1,0,3:2:0:0:
401,303,44461,1,8,0:2:0:0:
458,239,44620,6,0,P|448:184|442:143,1,80,2|0,3:2|0:2,0:0:0:0:
360,118,44938,1,0,3:2:0:0:
360,118,45017,1,0,3:2:0:0:
360,118,45096,1,8,0:2:0:0:
437,70,45255,1,8,0:2:0:0:
364,20,45414,2,0,P|318:17|266:10,1,80,0|0,3:2|3:2,0:0:0:0:
169,8,45731,6,0,B|202:41|202:41|197:66|177:88,1,95.9999970703126,10|0,0:2|0:0,0:0:0:0:
49,148,46049,6,0,P|105:145|162:202,1,120,6|0,3:2|0:2,0:0:0:0:
210,257,46366,2,0,P|255:257|296:222,1,95.9999970703126,8|8,0:2|0:2,0:0:0:0:
231,176,46684,1,0,3:2:0:0:
231,176,46842,1,0,3:2:0:0:
131,263,47001,1,8,0:2:0:0:
200,348,47160,6,0,P|253:339|299:332,1,80,2|0,3:2|0:2,0:0:0:0:
366,373,47477,1,0,3:2:0:0:
366,373,47557,1,0,3:2:0:0:
366,373,47636,1,8,0:2:0:0:
323,254,47795,2,0,P|376:263|422:270,1,80,8|0,0:2|3:2,0:0:0:0:
493,177,48112,5,0,3:2:0:0:
434,204,48271,1,8,0:2:0:0:
484,244,48430,1,0,0:2:0:0:
388,135,48588,6,0,P|399:84|410:33,2,95.9999970703126,2|0|8,3:2|3:2|0:2,0:0:0:0:
321,197,49065,2,0,P|273:200|220:126,1,120,8|0,0:2|0:0,0:0:0:0:
248,85,49382,1,0,3:2:0:0:
146,155,49541,5,8,0:2:0:0:
146,155,49700,2,0,P|162:199|173:238,1,80,2|0,3:2|0:2,0:0:0:0:
244,323,50017,2,0,P|255:284|269:247,1,80,2|8,3:2|0:2,0:0:0:0:
156,318,50334,1,8,0:2:0:0:
261,174,50493,2,0,P|301:180|338:225,1,80,0|0,3:2|3:2,0:0:0:0:
412,357,50811,6,0,B|384:338|384:338|374:298|410:279,1,95.9999970703126,2|0,3:2|0:0,0:0:0:0:
498,224,51128,6,0,P|472:191|479:98,1,120,6|0,0:2|0:2,0:0:0:0:
508,29,51446,2,0,P|458:53|408:42,1,95.9999970703126,8|8,0:2|0:2,0:0:0:0:
319,1,51763,1,0,3:2:0:0:
319,1,51922,1,0,3:2:0:0:
359,105,52081,1,8,0:2:0:0:
257,77,52239,6,0,P|250:133|243:182,1,80,2|0,3:2|0:2,0:0:0:0:
313,244,52557,2,0,L|272:257,1,40,0|0,3:2|3:2,0:0:0:0:
217,273,52715,1,8,0:2:0:0:
327,167,52874,2,0,P|372:182|463:197,1,120,8|0,0:2|0:0,0:0:0:0:
499,160,53192,5,0,3:2:0:0:
417,258,53350,1,8,0:2:0:0:
417,258,53509,1,0,0:2:0:0:
506,344,53668,6,0,P|459:344|427:366,1,80,2|0,3:2|3:2,0:0:0:0:
356,316,53985,1,8,0:2:0:0:
261,380,54144,2,0,P|218:378|165:318,1,120,8|0,0:2|0:0,0:0:0:0:
183,263,54461,1,0,3:2:0:0:
98,316,54620,1,8,0:2:0:0:
244,308,54779,6,0,P|256:241|265:207,1,80,2|0,3:2|0:2,0:0:0:0:
126,162,55096,1,2,3:2:0:0:
126,162,55176,1,0,0:0:0:0:
126,162,55255,2,0,P|117:201|111:240,1,80,8|8,0:2|0:2,0:0:0:0:
216,139,55573,1,0,0:0:0:0:
216,139,55731,1,0,3:2:0:0:
124,75,55890,6,0,B|93:66|93:66|50:78|61:139,1,95.9999970703126,10|0,0:2|0:0,0:0:0:0:
203,216,56208,6,0,P|249:210|287:143,1,120,6|0,3:2|0:2,0:0:0:0:
241,61,56525,2,0,L|345:87,1,95.9999970703126,8|8,0:2|0:2,0:0:0:0:
451,150,56842,1,0,3:2:0:0:
451,150,57001,1,0,3:2:0:0:
371,222,57160,1,8,0:2:0:0:
439,308,57319,6,0,P|387:320|345:335,1,80,2|0,3:2|0:2,0:0:0:0:
268,248,57636,2,0,L|246:293,1,40,0|0,3:2|0:0,0:0:0:0:
221,343,57795,1,8,0:2:0:0:
136,263,57954,2,0,P|129:180|126:157,1,80,8|0,0:2|3:2,0:0:0:0:
72,73,58271,5,0,3:2:0:0:
67,142,58430,1,8,0:2:0:0:
129,111,58588,1,0,0:2:0:0:
219,230,58747,6,0,L|342:215,1,120,2|0,3:2|0:0,0:0:0:0:
362,157,59065,1,8,0:2:0:0:
431,269,59223,2,0,P|443:205|454:163,1,80,10|0,0:2|3:2,0:0:0:0:
295,44,59541,2,0,P|283:108|272:150,1,80,2|8,3:2|0:2,0:0:0:0:
212,236,59858,6,0,P|186:235|158:217,1,40,2|0,3:2|0:0,0:0:0:0:
117,145,60176,6,0,P|129:168|127:201,1,40,2|0,3:2|0:0,0:0:0:0:
86,271,60493,6,0,P|99:248|129:233,1,40,0|0,3:2|0:0,0:0:0:0:
202,168,60652,5,8,0:2:0:0:
276,247,60811,1,8,0:2:0:0:
287,245,60890,1,8,0:2:0:0:
298,243,60969,1,8,0:2:0:0:
309,241,61049,1,8,0:2:0:0:
320,239,61128,1,8,0:2:0:0:
413,126,61287,6,0,L|281:103,1,120,6|0,3:2|0:0,0:0:0:0:
275,121,61604,2,0,L|393:141,1,120,8|0,0:2|0:0,0:0:0:0:
475,98,61922,1,0,3:2:0:0:
441,188,62081,1,0,3:2:0:0:
494,234,62239,1,8,0:2:0:0:
426,306,62398,6,0,L|344:292,1,80,2|0,3:2|3:2,0:0:0:0:
302,212,62715,2,0,L|220:226,1,80,0|8,0:2|0:2,0:0:0:0:
157,307,63033,1,0,0:2:0:0:
157,307,63192,2,0,P|150:254|81:212,1,120,0|0,3:2|0:2,0:0:0:0:
82,218,63509,1,8,0:2:0:0:
157,152,63668,1,0,0:2:0:0:
79,98,63827,6,0,P|115:67|211:78,1,120,2|0,3:2|0:0,0:0:0:0:
199,75,64144,2,0,L|298:61,1,80,8|0,0:2|0:2,0:0:0:0:
418,85,64461,1,0,3:2:0:0:
349,43,64620,1,0,0:2:0:0:
414,8,64779,1,8,0:2:0:0:
496,96,64938,6,0,P|483:151|478:187,1,80,2|0,3:2|3:2,0:0:0:0:
509,266,65255,1,0,0:2:0:0:
509,266,65414,2,0,L|418:277,1,80,8|0,0:2|0:2,0:0:0:0:
372,192,65731,1,0,3:2:0:0:
325,329,65890,2,0,P|311:274|300:234,1,80,8|0,0:2|0:0,0:0:0:0:
433,87,66208,2,0,P|443:125|453:164,1,80,10|0,0:2|0:0,0:0:0:0:
453,164,66684,5,8,0:2:0:0:
372,192,66842,1,0,0:2:0:0:
449,178,67001,1,0,3:2:0:0:
368,206,67159,1,0,0:2:0:0:
433,259,67319,1,8,0:2:0:0:
366,123,67477,6,0,P|310:115|274:108,1,80,2|0,3:2|3:2,0:0:0:0:
250,195,67795,2,0,P|194:203|158:210,1,80,0|8,0:2|0:2,0:0:0:0:
131,115,68112,1,0,0:2:0:0:
56,181,68271,2,0,P|66:222|76:269,2,80,0|0|8,3:2|0:2|0:2,0:0:0:0:
96,51,68747,6,0,P|147:45|206:143,1,160,2|0,3:2|0:2,0:0:0:0:
278,40,69223,2,0,L|366:56,1,80,8|0,0:2|0:2,0:0:0:0:
470,147,69541,1,0,3:2:0:0:
416,103,69700,1,0,0:2:0:0:
456,34,69858,1,8,0:2:0:0:
338,125,70017,6,0,P|358:187|386:288,1,160,2|0,3:2|0:2,0:0:0:0:
348,375,70493,2,0,P|385:359|434:352,1,80,8|0,0:2|0:2,0:0:0:0:
308,282,70811,1,0,3:2:0:0:
254,352,70969,1,8,0:2:0:0:
235,359,71049,1,8,0:2:0:0:
215,360,71128,1,8,0:2:0:0:
195,354,71208,1,8,0:2:0:0:
178,342,71287,1,8,0:2:0:0:
224,277,71446,6,0,P|214:209|197:134,1,120,6|0,3:2|0:0,0:0:0:0:
190,145,71763,1,8,0:2:0:0:
287,218,71922,2,0,P|329:212|361:179,1,80,0|0,3:2|3:2,0:0:0:0:
414,100,72239,2,0,P|362:80|326:61,1,80,0|8,0:2|0:2,0:0:0:0:
268,7,72557,6,0,P|228:50|131:77,1,160,2|0,3:2|0:2,0:0:0:0:
27,51,73033,1,8,0:2:0:0:
76,129,73192,1,0,0:2:0:0:
10,188,73350,2,0,P|27:240|46:315,1,120,0|0,3:2|0:0,0:0:0:0:
39,320,73668,1,8,0:2:0:0:
114,222,73827,6,0,P|153:221|191:248,1,80,2|0,3:2|3:2,0:0:0:0:
232,341,74144,2,0,P|261:295|353:286,1,120,0|0,0:2|0:0,0:0:0:0:
338,287,74461,1,0,0:2:0:0:
444,353,74620,2,0,L|353:369,2,80,0|0|8,3:2|0:2|0:2,0:0:0:0:
504,273,75096,6,0,P|445:250|413:223,1,80,2|0,3:2|3:2,0:0:0:0:
345,172,75414,1,0,0:2:0:0:
395,92,75573,2,0,L|420:183,1,80,8|0,0:2|0:2,0:0:0:0:
344,258,75890,5,0,3:2:0:0:
276,217,76049,1,0,0:2:0:0:
216,269,76208,2,0,P|187:268|136:229,1,96,10|0,0:2|0:0,0:0:0:0:
133,210,76525,5,0,3:2:0:0:
208,184,76684,1,8,0:2:0:0:
153,98,76842,1,0,0:2:0:0:
277,127,77001,1,0,3:2:0:0:
277,127,77081,1,0,3:2:0:0:
277,127,77160,2,0,L|256:43,2,80,8|0|0,0:2|0:2|0:2,0:0:0:0:
398,149,77636,5,0,0:2:0:0:
328,193,77795,1,10,0:2:0:0:
328,193,79065,6,0,P|280:190|236:188,1,80,6|0,3:2|3:2,0:0:0:0:
197,156,79382,1,8,0:2:0:0:
275,251,79541,1,8,0:2:0:0:
326,128,79700,2,0,L|406:115,2,80,0|0|8,3:2|3:2|0:2,0:0:0:0:
242,61,80176,6,0,P|167:48|81:22,1,160,2|0,3:2|3:2,0:0:0:0:
86,24,80573,1,0,3:2:0:0:
86,24,80652,1,8,0:2:0:0:
15,89,80811,1,8,0:2:0:0:
95,134,80969,2,0,P|106:182|114:222,1,80,0|0,3:2|3:2,0:0:0:0:
78,318,81287,2,0,P|124:290|195:318,1,120,8|0,0:2|0:0,0:0:0:0:
196,323,81604,6,0,P|232:342|284:334,1,80,2|0,3:2|3:2,0:0:0:0:
332,267,81922,1,8,0:2:0:0:
332,267,82081,1,8,0:2:0:0:
391,382,82239,2,0,P|410:320|422:291,1,80,0|0,3:2|3:2,0:0:0:0:
506,237,82557,1,8,0:2:0:0:
414,207,82715,6,0,P|400:156|395:38,1,160,2|0,3:2|3:2,0:0:0:0:
393,49,83112,1,0,3:2:0:0:
393,49,83192,1,8,0:2:0:0:
323,130,83350,1,8,0:2:0:0:
263,59,83509,2,0,P|210:67|181:71,1,80,0|0,3:2|3:2,0:0:0:0:
57,60,83827,2,0,P|93:90|93:184,1,120,8|0,0:2|0:0,0:0:0:0:
88,175,84144,5,10,0:2:0:0:
88,175,84303,1,8,0:2:0:0:
214,246,84461,2,0,L|146:257,1,64,0|8,3:2|0:2,0:0:0:0:
128,332,84779,2,0,L|191:321,2,64,0|0|8,3:2|0:2|0:2,0:0:0:0:
243,378,85255,5,10,0:2:0:0:
243,378,85573,1,10,0:2:0:0:
336,301,85731,2,0,L|357:380,1,64,0|8,0:0|3:2,0:0:0:0:
266,305,86049,2,0,L|249:243,2,64,0|0|0,3:2|0:2|3:2,0:0:0:0:
375,132,86684,5,10,0:0:0:0:
375,132,86842,1,8,0:0:0:0:
311,172,87001,2,0,P|274:175|240:156,1,64,2|2,3:0|0:0,0:0:0:0:
207,106,87319,2,0,P|170:103|136:122,1,64,8|0,3:0|3:0,0:0:0:0:
123,180,87636,1,8,0:0:0:0:
235,39,87795,1,8,0:0:0:0:
256,192,87954,12,0,89223,0:0:0:0:
