osu file format v14

[General]
AudioFilename: blob.mp3
AudioLeadIn: 2000
PreviewTime: 40811
Countdown: 0
SampleSet: Soft
StackLeniency: 0.7
Mode: 0
LetterboxInBreaks: 0
WidescreenStoryboard: 1

[Editor]
Bookmarks: 335,52795
DistanceSpacing: 1
BeatDivisor: 2
GridSize: 4
TimelineZoom: 0.9999999

[Metadata]
Title:Goya no Machiawase (TV Size)
TitleUnicode:午夜の待ち合わせ (TV Size)
Artist:Hello Sleepwalkers
ArtistUnicode:Hello Sleepwalkers
Creator:Nevo
Version:Noffy's Normal
Source:ノラガミ
Tags:opening anime Noragami spoes airincat noffy armin a_r_m_i_n agatsu ultima fox japanese rock
BeatmapID:1922285
BeatmapSetID:920346

[Difficulty]
HPDrainRate:2
CircleSize:3
OverallDifficulty:4
ApproachRate:4
SliderMultiplier:1.2
SliderTickRate:1

[Events]
//Background and Video events
0,0,"e61c267b02087bf47872e8a4f3d3572c10dfcf6f.jpg",0,0
Video,-200,"Noragami Opening 1 HD.avi"
//Break Periods
//Storyboard Layer 0 (Background)
//Storyboard Layer 1 (Fail)
//Storyboard Layer 2 (Pass)
//Storyboard Layer 3 (Foreground)
//Storyboard Sound Samples

[TimingPoints]
335,317.460317460317,4,2,1,70,1,0
2795,-100,4,2,1,5,0,0
2874,-100,4,2,1,70,0,0
7874,-100,4,2,1,5,0,0
7954,-100,4,2,1,70,0,0
10414,-100,4,2,1,5,0,0
10493,-100,4,2,1,60,0,0
11842,-100,4,2,1,5,0,0
11922,-100,4,2,1,60,0,0
12477,-100,4,2,1,5,0,0
12557,-100,4,2,1,60,0,0
13271,-100,4,2,1,5,0,0
13350,-100,4,2,1,60,0,0
14382,-100,4,2,1,5,0,0
14461,-100,4,2,1,60,0,0
17557,-100,4,2,1,5,0,0
17636,-100,4,2,1,60,0,0
18350,-100,4,2,1,5,0,0
18430,-100,4,2,1,60,0,0
20890,-100,4,2,1,5,0,0
20969,-100,4,2,1,60,0,0
21208,-100,4,2,1,5,0,0
21287,-100,4,2,1,60,0,0
22001,-100,4,2,1,5,0,0
22080,-100,4,2,1,60,0,0
30811,-100,4,2,1,50,0,0
40652,-100,4,2,1,80,0,0
40890,-100,4,2,1,5,0,0
40969,-100,4,2,1,80,0,1
41208,-100,4,2,1,5,0,1
41287,-100,4,2,1,80,0,1
45969,-100,4,2,1,5,0,1
46048,-100,4,2,1,80,0,1
46287,-100,4,2,1,5,0,1
46366,-100,4,2,1,80,0,1
51049,-100,4,2,1,5,0,1
51128,-100,4,2,1,80,0,1
51366,-100,4,2,1,5,0,1
51445,-100,4,2,1,80,0,1
56128,-100,4,2,1,5,0,1
56207,-100,4,2,1,80,0,1
56446,-100,4,2,1,5,0,1
56525,-100,4,2,1,80,0,1
61287,-100,4,2,1,70,0,1
63430,-100,4,2,1,5,0,1
63509,-100,4,2,1,80,0,1
66128,-100,4,2,1,5,0,1
66207,-100,4,2,1,80,0,1
77795,-100,4,2,1,60,0,0
79065,-100,4,2,1,70,0,0
84144,-100,4,2,1,60,0,0
85493,-100,4,2,1,5,0,0
85573,-100,4,2,1,60,0,0
85811,-100,4,2,1,5,0,0
85891,-100,4,2,1,60,0,0

[Colours]
Combo1 : 255,192,0
Combo2 : 128,128,128
Combo3 : 18,124,255
Combo4 : 242,24,57

[HitObjects]
112,46,335,5,6,3:2:0:0:
147,161,653,1,8,0:2:0:0:
114,275,970,2,0,P|173:285|241:322,1,120,0|8,3:2|0:2,0:0:0:0:
325,378,1604,5,0,0:0:0:0:
398,283,1921,1,8,0:2:0:0:
299,211,2239,2,0,P|260:167|236:110,1,120,0|8,3:2|0:2,0:0:0:0:
298,8,2874,5,2,3:2:0:0:
394,78,3191,1,8,0:2:0:0:
418,194,3509,2,0,L|418:319,1,120,0|8,3:2|0:2,0:0:0:0:
367,346,3985,6,0,P|313:323|193:358,1,180,2|8,3:2|0:2,0:0:0:0:
81,330,4779,2,0,L|70:210,1,120,0|8,3:2|0:2,0:0:0:0:
159,125,5414,5,2,3:2:0:0:
173,243,5731,1,8,0:2:0:0:
262,322,6048,2,0,P|328:316|394:344,1,120,0|8,3:2|0:2,0:0:0:0:
491,294,6683,5,0,0:0:0:0:
507,175,7000,1,8,0:2:0:0:
482,57,7318,2,0,B|428:30|428:30|347:45,1,120,0|8,3:2|0:2,0:0:0:0:
311,144,7953,5,2,3:2:0:0:
294,262,8270,1,8,0:2:0:0:
208,346,8588,2,0,B|149:356|149:356|95:329,1,120,0|8,3:2|0:2,0:0:0:0:
43,298,9065,6,0,L|58:106,1,180,2|8,3:2|0:2,0:0:0:0:
171,81,9858,2,0,P|228:104|282:77,1,120,0|8,3:2|0:2,0:0:0:0:
400,46,10493,5,2,3:2:0:0:
365,161,10811,1,8,0:2:0:0:
398,275,11128,2,0,P|339:285|271:322,1,120,0|8,0:2|0:2,0:0:0:0:
225,309,11604,2,0,L|225:177,2,120,2|0|2,3:2|3:2|0:2,0:0:0:0:
109,345,12557,2,0,P|65:294|57:269,1,60,0|8,0:2|0:2,0:0:0:0:
37,185,13033,5,2,3:2:0:0:
119,98,13350,1,8,0:2:0:0:
239,98,13668,2,0,L|312:98,1,60,0|0,0:2|0:2,0:0:0:0:
348,207,14144,2,0,P|348:266|372:323,1,120,2|0,3:2|3:2,0:0:0:0:
491,320,14779,2,0,L|491:260,1,60,0|2,0:2|0:2,0:0:0:0:
428,27,15573,5,2,3:2:0:0:
316,71,15891,1,8,0:2:0:0:
207,19,16208,2,0,P|183:77|140:123,1,120,2|8,0:2|0:2,0:0:0:0:
92,147,16684,2,0,L|-8:39,2,120,2|0|0,3:2|3:2|0:2,0:0:0:0:
195,243,17637,2,0,L|239:195,1,60,0|8,0:2|0:2,0:0:0:0:
318,111,18113,5,2,3:2:0:0:
430,70,18430,1,8,0:2:0:0:
430,190,18748,2,0,L|430:252,1,60,0|0,0:2|0:2,0:0:0:0:
349,338,19223,2,0,P|289:337|234:314,1,120,2|0,3:2|3:0,0:0:0:0:
122,270,19859,2,0,B|137:234|168:218|168:218|115:181|106:111|138:58,1,240,0|0,0:0|0:2,0:0:0:0:
166,17,20652,5,6,3:2:0:0:
265,84,20969,1,8,0:2:0:0:
385,90,21287,2,0,P|424:167|423:219,1,120,0|8,0:2|0:2,0:0:0:0:
419,259,21763,5,2,3:2:0:0:
312,313,22080,1,0,3:2:0:0:
270,197,22398,2,0,P|208:144|146:204,1,180,2|8,3:2|0:2,0:0:0:0:
129,318,23192,6,0,P|70:306|12:321,2,120,6|8|2,3:2|0:2|0:2,0:0:0:0:
243,355,24144,1,8,0:2:0:0:
309,255,24461,2,0,P|381:267|438:247,1,120,0|8,0:2|0:2,0:0:0:0:
509,169,25096,1,0,3:2:0:0:
298,53,25731,5,2,3:2:0:0:
366,151,26048,1,8,0:2:0:0:
309,255,26366,2,0,P|232:294|180:293,1,120,0|8,0:2|0:2,0:0:0:0:
139,294,26842,5,2,3:2:0:0:
79,189,27159,1,0,3:2:0:0:
143,87,27477,2,0,P|206:34|266:89,1,180,0|8,0:2|0:2,0:0:0:0:
277,209,28271,6,0,L|234:337,2,120,6|8|0,3:2|0:2|0:2,0:0:0:0:
374,138,29223,1,8,0:2:0:0:
480,193,29541,2,0,L|437:321,1,120,0|8,0:0|0:2,0:0:0:0:
339,369,30175,1,8,0:2:0:0:
374,138,30811,5,2,3:2:0:0:
294,227,31128,1,0,3:2:0:0:
253,339,31446,2,0,P|195:344|138:323,1,120,0|0,3:2|3:2,0:0:0:0:
91,285,31922,5,0,0:2:0:0:
11,196,32239,1,0,0:2:0:0:
77,95,32557,2,0,B|114:133|114:133|189:133|189:133|226:95,1,180,0|0,0:2|3:2,0:0:0:0:
334,145,33350,6,0,B|304:224|304:224|310:287,2,120,0|0|0,3:2|3:2|3:2,0:0:0:0:
332,24,34302,1,0,3:2:0:0:
443,66,34620,2,0,P|468:123|460:191,1,120,0|0,3:2|3:2,0:0:0:0:
432,294,35254,1,0,3:2:0:0:
224,173,35890,5,4,3:2:0:0:
224,53,36207,1,8,3:0:0:0:
106,76,36525,2,0,L|106:201,1,120,8|0,3:0|3:0,0:0:0:0:
106,256,37001,5,0,3:0:0:0:
182,351,37318,1,0,3:0:0:0:
297,302,37636,2,0,B|334:340|334:340|371:325|408:340|408:340|445:302,1,180,0|8,3:0|0:0,0:0:0:0:
370,207,38430,6,0,P|344:131|304:95,1,120,0|0,3:2|3:2,0:0:0:0:
195,103,39065,2,0,P|156:148|142:206,1,120,0|0,3:2|3:2,0:0:0:0:
113,324,39700,6,0,B|149:359|219:359|184:287|326:287|291:359|362:359|397:325,1,300,0|0,0:0|0:0,0:0:0:0:
439,278,40652,5,2,0:2:0:0:
380,173,40969,2,0,B|435:146|435:146|465:73,1,120,6|8,3:2|0:2,0:0:0:0:
347,42,41604,2,0,P|305:65|227:73,1,120,0|8,3:2|0:2,0:0:0:0:
175,58,42081,1,2,3:2:0:0:
125,166,42398,1,0,3:2:0:0:
81,277,42715,1,8,0:2:0:0:
201,279,43033,6,0,P|269:289|319:323,1,120,0|0,3:2|0:2,0:0:0:0:
358,353,43509,1,2,3:2:0:0:
476,373,43827,2,0,L|482:313,1,60,8|8,0:2|0:2,0:0:0:0:
500,194,44303,1,0,3:2:0:0:
405,120,44620,2,0,L|389:264,1,120,2|0,3:2|3:2,0:0:0:0:
288,300,45255,2,0,L|294:240,1,60,8|0,0:2|3:2,0:0:0:0:
197,169,45731,5,10,0:2:0:0:
103,92,46049,2,0,P|162:55|233:54,1,120,6|8,3:2|0:2,0:0:0:0:
312,114,46684,2,0,B|369:134|369:134|447:127,1,120,0|8,3:2|0:2,0:0:0:0:
487,115,47160,1,2,3:2:0:0:
465,232,47477,1,0,3:2:0:0:
441,349,47794,1,8,0:2:0:0:
326,318,48112,6,0,P|265:322|194:294,1,120,0|0,3:2|0:2,0:0:0:0:
151,290,48588,2,0,L|65:389,2,120,2|8|0,3:2|0:2|3:2,0:0:0:0:
158,230,49382,1,0,3:2:0:0:
110,119,49700,1,2,3:2:0:0:
228,101,50017,2,0,P|287:132|353:128,1,120,2|8,3:2|0:2,0:0:0:0:
397,116,50493,1,0,3:2:0:0:
432,230,50811,5,2,3:2:0:0:
319,274,51128,2,0,B|259:274|259:274|205:313,1,120,6|8,0:2|0:2,0:0:0:0:
93,334,51763,2,0,P|66:301|65:213,1,120,0|8,3:2|0:2,0:0:0:0:
74,167,52240,1,2,3:2:0:0:
183,117,52557,1,0,3:2:0:0:
293,69,52874,1,8,0:2:0:0:
387,142,53192,6,0,P|390:225|364:283,1,120,0|0,3:2|0:2,0:0:0:0:
330,296,53668,1,2,3:2:0:0:
210,283,53986,2,0,L|135:264,1,60,8|8,0:2|0:2,0:0:0:0:
86,167,54462,1,0,3:2:0:0:
183,96,54779,2,0,L|300:125,1,120,2|2,3:2|3:2,0:0:0:0:
419,115,55414,2,0,L|419:175,1,60,8|0,0:2|0:0,0:0:0:0:
419,295,55890,5,10,0:2:0:0:
298,298,56208,2,0,P|247:302|184:337,1,120,6|8,3:2|0:2,0:0:0:0:
69,356,56842,2,0,B|49:299|49:299|54:239,1,120,0|8,3:2|0:2,0:0:0:0:
59,179,57319,1,2,3:2:0:0:
51,59,57636,1,0,3:2:0:0:
157,113,57953,1,8,0:2:0:0:
256,178,58271,6,0,P|338:200|396:181,1,120,0|0,3:2|0:2,0:0:0:0:
426,171,58747,2,0,B|396:109|449:108|428:46,2,120,2|8|0,3:2|0:2|3:2,0:0:0:0:
469,212,59541,1,2,3:2:0:0:
423,323,59859,1,2,3:2:0:0:
310,362,60176,2,0,L|296:303,1,60,2|2,3:2|0:2,0:0:0:0:
265,187,60652,2,0,L|238:69,1,120,8|8,0:2|0:2,0:0:0:0:
121,96,61287,6,0,L|158:242,1,120,6|8,3:2|0:2,0:0:0:0:
202,320,61922,2,0,P|277:336|340:308,1,120,0|8,3:2|0:2,0:0:0:0:
366,290,62398,1,2,3:2:0:0:
309,184,62715,1,2,0:2:0:0:
293,64,63033,2,0,L|359:30,1,60,2|2,0:2|3:2,0:0:0:0:
465,54,63509,1,8,0:2:0:0:
480,176,63827,5,2,3:2:0:0:
432,286,64144,1,8,0:2:0:0:
315,315,64461,2,0,P|257:302|196:315,1,120,0|8,3:2|0:2,0:0:0:0:
138,323,64938,2,0,P|96:265|84:204,1,120,2|2,3:2|0:2,0:0:0:0:
93,99,65573,2,0,B|144:127|144:127|220:127,1,120,2|10,0:2|0:2,0:0:0:0:
256,17,66208,1,10,0:2:0:0:
337,177,66684,6,0,L|360:311,1,120,8|0,0:2|3:2,0:0:0:0:
262,369,67319,1,8,0:2:0:0:
214,332,67477,2,0,P|225:271|212:212,1,120,2|2,3:2|0:2,0:0:0:0:
93,205,68112,1,2,0:0:0:0:
51,161,68271,2,0,P|40:100|53:41,1,120,2|8,3:2|0:2,0:0:0:0:
109,25,68747,6,0,B|162:17|192:49|192:49|233:26|293:41,1,180,2|8,3:2|0:2,0:0:0:0:
392,79,69541,2,0,P|403:137|391:196,1,120,0|8,3:2|0:2,0:0:0:0:
276,233,70176,2,0,P|264:291|275:350,2,120,0|8|0,0:0|0:2|3:2,0:0:0:0:
268,18,71446,6,0,B|215:48|215:48|151:41,1,120,6|8,3:2|0:2,0:0:0:0:
105,72,71922,2,0,P|81:130|38:176,1,120,0|0,3:2|0:2,0:0:0:0:
105,275,72557,1,2,3:2:0:0:
217,315,72874,1,2,0:2:0:0:
334,287,73192,2,0,L|334:221,1,60,2|2,0:2|3:2,0:0:0:0:
334,106,73668,1,10,0:2:0:0:
439,49,73986,5,0,3:2:0:0:
496,154,74303,1,8,0:2:0:0:
496,273,74620,2,0,P|471:320|403:354,1,120,0|8,3:2|0:2,0:0:0:0:
355,340,75097,2,0,L|214:318,1,120,2|2,3:2|0:2,0:0:0:0:
177,309,75573,1,10,0:2:0:0:
118,204,75890,1,2,3:2:0:0:
118,83,76208,1,10,0:2:0:0:
357,83,76842,6,0,P|385:140|385:207,1,120,0|8,0:2|0:2,0:0:0:0:
304,283,77477,1,0,0:2:0:0:
200,221,77795,2,0,P|121:153|16:224,1,240,10|0,0:2|0:0,0:0:0:0:
215,353,79065,5,6,3:2:0:0:
330,318,79383,1,8,0:2:0:0:
444,351,79700,2,0,P|454:292|491:224,1,120,0|8,3:2|0:2,0:0:0:0:
495,119,80334,5,0,0:0:0:0:
382,77,80652,1,8,0:2:0:0:
327,183,80969,2,0,P|317:242|280:310,1,120,0|8,3:2|0:2,0:0:0:0:
170,295,81604,5,2,3:2:0:0:
60,346,81922,1,8,0:2:0:0:
14,234,82239,2,0,L|13:112,1,120,0|8,3:2|0:2,0:0:0:0:
66,86,82715,6,0,P|147:119|231:84,1,180,2|8,3:2|0:2,0:0:0:0:
331,38,83509,2,0,P|384:15|438:38,1,120,0|8,3:2|0:2,0:0:0:0:
419,156,84144,6,0,B|419:222|419:222|457:298,1,120,10|0,0:2|3:2,0:0:0:0:
352,352,84779,2,0,P|305:334|216:343,1,120,0|8,3:2|0:2,0:0:0:0:
176,332,85255,2,0,L|104:232,1,120,10|10,0:2|0:2,0:0:0:0:
419,50,86684,6,0,L|419:133,1,60,10|8,0:0|0:0,0:0:0:0:
170,287,87636,6,0,L|152:222,1,60,8|8,0:0|0:0,0:0:0:0:
