osu file format v14

[General]
AudioFilename: blob.mp3
AudioLeadIn: 2000
PreviewTime: 40811
Countdown: 0
SampleSet: Soft
StackLeniency: 0.7
Mode: 0
LetterboxInBreaks: 0
WidescreenStoryboard: 1

[Editor]
DistanceSpacing: 1.2
BeatDivisor: 4
GridSize: 4
TimelineZoom: 2.4

[Metadata]
Title:Goya no Machiawase (TV Size)
TitleUnicode:午夜の待ち合わせ (TV Size)
Artist:Hello Sleepwalkers
ArtistUnicode:Hello Sleepwalkers
Creator:Nevo
Version:A r M i N's Extra
Source:ノラガミ
Tags:opening anime Noragami spoes airincat noffy armin a_r_m_i_n agatsu ultima fox japanese rock
BeatmapID:1922284
BeatmapSetID:920346

[Difficulty]
HPDrainRate:6
CircleSize:4
OverallDifficulty:8.6
ApproachRate:9.3
SliderMultiplier:1.8
SliderTickRate:1

[Events]
//Background and Video events
Video,-200,"Noragami Opening 1 HD.avi"
0,0,"e61c267b02087bf47872e8a4f3d3572c10dfcf6f.jpg",0,0
//Break Periods
//Storyboard Layer 0 (Background)
//Storyboard Layer 1 (Fail)
//Storyboard Layer 2 (Pass)
//Storyboard Layer 3 (Foreground)
//Storyboard Sound Samples

[TimingPoints]
335,317.460317460317,4,2,1,70,1,0
2795,-100,4,2,1,5,0,0
2874,-100,4,2,1,70,0,0
7874,-100,4,2,1,5,0,0
7954,-100,4,2,1,70,0,0
10414,-100,4,2,1,5,0,0
10493,-125,4,2,1,60,0,0
11842,-125,4,2,1,5,0,0
11922,-125,4,2,1,60,0,0
12477,-125,4,2,1,5,0,0
12557,-125,4,2,1,60,0,0
13271,-125,4,2,1,5,0,0
13350,-125,4,2,1,60,0,0
14382,-125,4,2,1,5,0,0
14461,-125,4,2,1,60,0,0
17557,-125,4,2,1,5,0,0
17636,-125,4,2,1,60,0,0
18350,-125,4,2,1,5,0,0
18430,-125,4,2,1,60,0,0
19858,-166.666666666667,4,2,1,60,0,0
20652,-111.111111111111,4,2,1,60,0,0
20969,-111.111111111111,4,2,1,60,0,0
21208,-111.111111111111,4,2,1,5,0,0
21287,-111.111111111111,4,2,1,60,0,0
22001,-111.111111111111,4,2,1,5,0,0
22080,-111.111111111111,4,2,1,60,0,0
30811,-111.111111111111,4,2,1,50,0,0
35890,-111.111111111111,4,2,1,50,0,0
36208,-111.111111111111,4,2,1,50,0,0
36525,-111.111111111111,4,2,1,50,0,0
36842,-111.111111111111,4,2,1,50,0,0
37160,-111.111111111111,4,2,1,50,0,0
37477,-111.111111111111,4,2,1,50,0,0
37795,-90.9090909090908,4,2,1,50,0,0
38112,-90.9090909090908,4,2,1,50,0,0
38430,-142.857142857143,4,2,1,50,0,0
39700,-200,4,2,1,50,0,0
40652,-66.6666666666667,4,2,1,80,0,0
40890,-66.6666666666667,4,2,1,5,0,0
40969,-90.9090909090909,4,2,1,80,0,1
41208,-90.9090909090909,4,2,1,5,0,1
41287,-66.6666666666667,4,2,1,80,0,1
41604,-90.9090909090909,4,2,1,80,0,1
45731,-66.6666666666667,4,2,1,80,0,1
45969,-66.6666666666667,4,2,1,5,0,1
46048,-66.6666666666667,4,2,1,80,0,1
46049,-90.9090909090909,4,2,1,80,0,1
46287,-90.9090909090909,4,2,1,5,0,1
46366,-66.6666666666667,4,2,1,80,0,1
46684,-90.9090909090909,4,2,1,80,0,1
50811,-66.6666666666667,4,2,1,80,0,1
51049,-66.6666666666667,4,2,1,5,0,1
51128,-90.9090909090909,4,2,1,80,0,1
51366,-90.9090909090909,4,2,1,5,0,1
51445,-90.9090909090909,4,2,1,80,0,1
51446,-66.6666666666667,4,2,1,80,0,1
51763,-90.9090909090909,4,2,1,80,0,1
55890,-66.6666666666667,4,2,1,80,0,1
56128,-66.6666666666667,4,2,1,5,0,1
56207,-66.6666666666667,4,2,1,80,0,1
56208,-90.9090909090909,4,2,1,80,0,1
56446,-90.9090909090909,4,2,1,5,0,1
56525,-66.6666666666667,4,2,1,80,0,1
56842,-90.9090909090909,4,2,1,80,0,1
61287,-90.9090909090909,4,2,1,70,0,1
63430,-90.9090909090909,4,2,1,5,0,1
63509,-90.9090909090909,4,2,1,80,0,1
66128,-90.9090909090909,4,2,1,5,0,1
66207,-90.9090909090909,4,2,1,80,0,1
68906,-90.9090909090909,4,2,1,80,0,1
69065,-90.9090909090909,4,2,1,80,0,1
70176,-90.9090909090909,4,2,1,80,0,1
70334,-90.9090909090909,4,2,1,80,0,1
77795,-100,4,2,1,60,0,0
79065,-100,4,2,1,70,0,0
84144,-100,4,2,1,60,0,0
85493,-100,4,2,1,5,0,0
85573,-100,4,2,1,60,0,0
85811,-100,4,2,1,5,0,0
85891,-100,4,2,1,60,0,0
89223,-100,4,2,1,60,0,0

[Colours]
Combo1 : 255,192,0
Combo2 : 128,128,128
Combo3 : 18,124,255
Combo4 : 242,24,57

[HitObjects]
339,126,335,6,0,P|409:143|483:66,1,180,6|8,3:2|0:2,0:0:0:0:
393,53,811,1,8,0:2:0:0:
498,204,969,2,0,P|491:253|484:293,1,90,0|0,3:2|3:2,0:0:0:0:
422,358,1287,1,8,0:2:0:0:
266,164,1446,6,0,P|278:262|292:341,1,180,2|0,3:2|3:2,0:0:0:0:
292,341,1842,1,0,3:2:0:0:
292,341,1922,1,8,0:2:0:0:
405,157,2081,1,8,0:2:0:0:
484,293,2239,2,0,P|439:287|394:279,1,90,0|0,3:2|3:2,0:0:0:0:
266,164,2557,1,8,0:2:0:0:
185,260,2715,1,0,0:0:0:0:
46,79,2874,6,0,P|90:71|135:65,1,90,2|0,3:2|3:2,0:0:0:0:
266,164,3192,1,8,0:2:0:0:
347,68,3350,1,8,0:2:0:0:
484,293,3509,2,0,P|439:287|394:279,1,90,0|0,3:2|3:2,0:0:0:0:
266,164,3827,1,8,0:2:0:0:
131,333,3985,6,0,P|201:350|275:273,1,180,2|0,3:2|3:2,0:0:0:0:
274,282,4382,1,0,3:2:0:0:
274,282,4461,1,8,0:2:0:0:
151,103,4620,1,8,0:2:0:0:
185,260,4779,1,0,3:2:0:0:
144,70,4938,1,0,3:2:0:0:
355,150,5096,2,0,P|310:157|265:163,1,90,8|0,0:2|0:2,0:0:0:0:
185,260,5414,5,2,3:2:0:0:
144,70,5573,1,0,3:2:0:0:
0,246,5731,2,0,P|44:240|89:232,1,90,8|8,0:2|0:2,0:0:0:0:
144,70,6049,1,0,3:2:0:0:
199,183,6208,1,0,3:2:0:0:
307,34,6366,1,8,0:2:0:0:
439,218,6525,6,0,P|350:233|261:244,1,180,2|0,3:2|3:2,0:0:0:0:
261,244,6922,1,0,3:2:0:0:
261,244,7001,1,8,0:2:0:0:
375,132,7160,1,8,0:2:0:0:
478,303,7319,2,0,P|433:312|389:319,1,90,0|0,3:2|3:2,0:0:0:0:
261,244,7636,1,8,0:2:0:0:
180,340,7794,1,0,0:0:0:0:
41,159,7954,6,0,P|85:151|130:145,1,90,2|0,3:2|3:2,0:0:0:0:
261,244,8272,1,8,0:2:0:0:
342,148,8430,1,8,0:2:0:0:
478,303,8588,2,0,P|470:258|461:214,1,90,0|0,3:2|3:2,0:0:0:0:
317,58,8906,1,8,0:2:0:0:
187,250,9065,6,0,P|199:151|213:72,1,180,2|0,3:2|3:2,0:0:0:0:
213,72,9461,1,0,3:2:0:0:
213,72,9541,1,8,0:2:0:0:
306,220,9700,1,8,0:2:0:0:
405,41,9858,2,0,P|360:48|316:57,1,90,0|0,3:2|3:2,0:0:0:0:
198,165,10176,2,0,P|153:157|109:148,1,90,8|0,0:2|0:0,0:0:0:0:
238,248,10493,6,0,P|281:202|274:114,2,144,2|8|0,3:2|0:2|0:2,0:0:0:0:
198,165,11287,1,0,0:2:0:0:
130,315,11446,1,8,0:2:0:0:
30,231,11604,6,0,P|65:223|100:217,1,72,2|0,3:2|0:0,0:0:0:0:
211,320,11922,2,0,P|246:327|282:334,1,72,0|8,3:2|0:2,0:0:0:0:
354,178,12239,2,0,P|424:165|495:150,1,144,2|0,0:2|0:2,0:0:0:0:
481,229,12715,1,8,0:2:0:0:
373,101,12874,1,0,0:2:0:0:
268,200,13033,6,0,P|212:190|157:178,1,108,2|0,3:2|0:2,0:0:0:0:
131,154,13350,2,0,P|95:160|60:167,1,72,8|0,0:2|0:2,0:0:0:0:
12,231,13668,1,0,0:2:0:0:
112,68,13827,2,0,P|147:74|182:81,1,72,0|8,0:2|0:2,0:0:0:0:
268,200,14144,6,0,P|338:203|391:158,1,144,2|0,3:2|3:2,0:0:0:0:
387,65,14620,1,8,0:2:0:0:
309,117,14779,1,0,0:2:0:0:
182,81,14938,2,0,P|111:93|40:108,1,144,2|8,0:2|0:2,0:0:0:0:
7,179,15414,1,0,0:0:0:0:
112,306,15573,6,0,P|106:270|99:235,1,72,2|0,3:2|0:2,0:0:0:0:
240,121,15890,2,0,P|226:191|211:262,1,144,8|2,0:2|0:2,0:0:0:0:
331,321,16366,2,0,P|325:285|318:250,1,72,0|8,0:2|0:2,0:0:0:0:
324,83,16684,6,0,P|271:35|201:37,1,144,2|0,3:2|3:2,0:0:0:0:
240,121,17160,1,8,0:2:0:0:
136,226,17319,2,0,P|149:296|164:367,1,144,0|0,0:2|0:2,0:0:0:0:
232,327,17795,1,8,0:2:0:0:
66,268,17954,1,0,0:2:0:0:
240,121,18112,6,0,P|310:134|381:149,2,144,2|8|0,3:2|0:2|0:2,0:0:0:0:
136,226,18906,2,0,P|172:220|207:213,1,72,0|8,0:2|0:2,0:0:0:0:
302,339,19223,2,0,P|266:331|231:326,1,72,2|0,3:2|0:0,0:0:0:0:
379,233,19541,6,0,P|391:305|405:376,1,144,0|0,3:0|0:0,0:0:0:0:
460,207,20017,2,0,P|416:156|300:201,1,188.999994232178,0|0,0:0|0:0,0:0:0:0:
293,221,20652,6,0,P|230:209|169:197,1,121.499996292114,6|0,3:2|0:2,0:0:0:0:
146,168,20969,2,0,P|101:175|58:184,1,80.9999975280763,8|0,0:2|3:0,0:0:0:0:
24,270,21287,1,0,0:2:0:0:
171,362,21446,2,0,P|163:317|154:274,1,80.9999975280763,0|8,3:2|0:2,0:0:0:0:
16,126,21763,6,0,P|24:81|33:38,1,80.9999975280763,2|0,3:2|0:0,0:0:0:0:
170,158,22081,1,0,3:2:0:0:
74,219,22239,1,8,0:2:0:0:
139,52,22398,2,0,P|218:67|298:82,1,161.999995056153,2|0,3:2|3:2,0:0:0:0:
324,113,22795,1,0,3:2:0:0:
324,113,22874,2,0,P|383:101|443:89,1,121.499996292114,8|0,0:2|0:0,0:0:0:0:
479,70,23192,6,0,P|467:129|455:189,1,121.499996292114,6|2,3:2|3:2,0:0:0:0:
436,224,23509,1,8,0:2:0:0:
324,113,23668,1,2,3:2:0:0:
256,229,23827,2,0,P|295:221|335:213,1,80.9999975280763,2|0,0:2|3:2,0:0:0:0:
194,115,24144,1,8,0:2:0:0:
108,281,24303,6,0,P|99:241|92:201,1,80.9999975280763,2|0,3:2|0:2,0:0:0:0:
209,35,24620,2,0,P|201:74|193:114,1,80.9999975280763,2|8,3:2|0:2,0:0:0:0:
256,229,24938,1,0,3:2:0:0:
383,60,25096,1,0,3:2:0:0:
407,62,25175,1,0,3:0:0:0:
431,65,25254,1,0,3:0:0:0:
455,67,25334,1,0,3:0:0:0:
479,69,25414,2,0,P|467:128|455:188,1,121.499996292114,8|0,0:2|0:0,0:0:0:0:
426,216,25731,6,0,P|438:275|450:335,1,121.499996292114,2|0,3:2|3:2,0:0:0:0:
429,370,26049,2,0,P|388:363|349:355,1,80.9999975280763,8|0,0:2|3:2,0:0:0:0:
256,229,26366,1,0,0:2:0:0:
182,334,26525,2,0,P|222:327|261:319,1,80.9999975280763,0|8,3:2|0:2,0:0:0:0:
194,162,26842,6,0,P|169:202|169:255,1,80.9999975280763,2|0,3:2|0:2,0:0:0:0:
317,325,27160,1,0,3:2:0:0:
256,229,27318,1,8,0:2:0:0:
147,353,27477,1,0,0:2:0:0:
86,257,27636,1,0,3:2:0:0:
76,234,27715,1,0,3:0:0:0:
73,210,27794,1,0,3:2:0:0:
74,186,27874,1,0,3:0:0:0:
80,162,27954,2,0,P|92:102|72:44,1,121.499996292114,8|0,0:2|0:0,0:0:0:0:
40,23,28271,6,0,P|99:17|160:11,1,121.499996292114,6|2,3:2|3:2,0:0:0:0:
198,26,28588,1,8,0:2:0:0:
262,141,28747,1,2,3:2:0:0:
387,52,28906,2,0,P|346:45|307:37,1,80.9999975280763,0|0,0:2|3:2,0:0:0:0:
392,194,29223,1,8,0:2:0:0:
182,155,29382,6,0,P|221:148|261:140,1,80.9999975280763,2|0,3:2|0:0,0:0:0:0:
161,251,29700,1,2,3:2:0:0:
198,26,29858,5,8,0:2:0:0:
277,226,30017,1,2,3:2:0:0:
307,37,30176,5,8,0:2:0:0:
161,251,30334,1,0,3:2:0:0:
347,321,30493,5,8,0:2:0:0:
371,319,30573,1,8,0:2:0:0:
395,317,30653,1,8,0:0:0:0:
419,314,30732,1,8,0:2:0:0:
443,312,30811,6,0,P|451:272|457:232,1,80.9999975280763,2|0,3:2|0:2,0:0:0:0:
321,116,31128,2,0,P|312:76|306:36,1,80.9999975280763,0|0,3:2|0:2,0:0:0:0:
410,150,31446,1,0,3:2:0:0:
277,226,31604,2,0,P|237:219|197:211,1,80.9999975280763,0|0,0:2|3:2,0:0:0:0:
319,312,31922,6,0,P|353:285|371:244,1,80.9999975280763,0|2,0:2|3:2,0:0:0:0:
212,296,32239,2,0,P|218:335|226:375,1,80.9999975280763,0|0,0:2|3:2,0:0:0:0:
277,226,32557,2,0,P|222:200|127:253,1,161.999995056153,0|0,0:2|0:2,0:0:0:0:
212,296,33033,1,0,3:2:0:0:
293,122,33192,1,0,0:2:0:0:
369,251,33350,5,0,3:2:0:0:
197,113,33509,1,2,0:2:0:0:
212,296,33668,1,0,3:2:0:0:
389,152,33827,1,2,0:2:0:0:
197,113,33985,2,0,P|137:101|77:88,1,121.499996292114,0|0,3:2|0:0,0:0:0:0:
37,88,34303,1,0,3:2:0:0:
97,257,34461,6,0,P|105:217|111:177,1,80.9999975280763,2|0,0:2|3:2,0:0:0:0:
197,113,34779,1,2,0:2:0:0:
286,253,34938,2,0,P|294:292|300:332,1,80.9999975280763,0|0,3:2|0:2,0:0:0:0:
182,192,35255,2,0,P|190:152|196:112,1,80.9999975280763,0|0,3:2|0:2,0:0:0:0:
229,87,35493,1,0,0:0:0:0:
229,87,35573,2,0,P|222:47|214:7,1,80.9999975280763,0|0,3:2|0:2,0:0:0:0:
111,177,35890,5,4,3:2:0:0:
109,201,35969,1,0,3:0:0:0:
116,225,36048,1,0,3:0:0:0:
131,244,36128,1,0,3:0:0:0:
151,258,36207,1,8,3:0:0:0:
181,278,36287,1,0,3:0:0:0:
197,309,36366,1,0,3:0:0:0:
197,345,36446,1,0,3:0:0:0:
179,377,36525,5,8,3:0:0:0:
192,339,36604,1,0,3:0:0:0:
221,311,36683,1,0,3:0:0:0:
260,300,36763,1,0,3:0:0:0:
299,309,36842,1,0,3:0:0:0:
341,321,36922,1,0,3:0:0:0:
385,314,37001,1,0,3:0:0:0:
421,289,37081,1,0,3:0:0:0:
442,250,37160,5,8,3:0:0:0:
449,202,37239,1,0,3:0:0:0:
431,158,37318,1,0,3:0:0:0:
392,129,37398,1,0,3:0:0:0:
338,113,37477,1,8,3:0:0:0:
291,128,37557,1,0,3:0:0:0:
245,114,37636,1,0,3:0:0:0:
212,72,37716,1,0,3:0:0:0:
179,30,37795,5,8,3:0:0:0:
133,16,37874,1,0,3:0:0:0:
86,31,37954,2,0,P|66:71|44:97,1,49.5000015106202,0|0,3:0|0:0,0:0:0:0:
0,156,38113,2,0,P|20:195|42:221,1,49.5000015106202,8|0,0:0|3:0,0:0:0:0:
86,281,38271,2,0,P|66:320|44:346,1,49.5000015106202,0|0,3:0|3:0,0:0:0:0:
112,196,38430,5,0,3:2:0:0:
112,196,38747,5,0,3:2:0:0:
112,196,39065,5,0,3:2:0:0:
112,196,39382,5,0,3:2:0:0:
333,292,39700,6,0,L|328:348,1,45,0|0,0:0|0:0,0:0:0:0:
337,247,40017,2,0,L|332:303,1,45,0|0,0:0|0:0,0:0:0:0:
341,202,40334,2,0,L|336:258,1,45,0|0,0:0|0:0,0:0:0:0:
353,67,40652,6,0,L|340:202,1,135.000005149842,2|0,0:2|0:0,0:0:0:0:
179,356,40969,6,0,P|173:304|169:257,1,99.0000030212403,6|0,3:2|0:0,0:0:0:0:
194,49,41287,5,8,0:2:0:0:
194,49,41446,1,8,0:2:0:0:
12,233,41604,6,0,P|6:182|2:134,1,99.0000030212403,0|0,3:2|3:2,0:0:0:0:
194,49,41922,1,8,0:2:0:0:
268,266,42081,6,0,P|217:262|169:256,1,99.0000030212403,2|0,3:2|0:2,0:0:0:0:
346,137,42398,1,0,3:2:0:0:
346,137,42477,1,0,3:2:0:0:
346,137,42557,1,8,0:2:0:0:
337,345,42715,2,0,P|233:336|136:325,1,198.000006042481,8|0,0:2|3:2,0:0:0:0:
216,124,43192,1,8,0:2:0:0:
268,266,43350,1,0,0:2:0:0:
62,189,43509,6,0,P|111:183|160:179,1,99.0000030212403,2|0,3:2|3:2,0:0:0:0:
268,266,43827,1,8,0:2:0:0:
401,85,43985,2,0,P|351:79|302:75,1,99.0000030212403,8|0,0:2|3:2,0:0:0:0:
387,254,44303,2,0,P|436:250|485:244,1,99.0000030212403,0|8,3:2|0:2,0:0:0:0:
313,203,44620,6,0,P|344:254|253:343,1,198.000006042481,2|0,3:2|3:2,0:0:0:0:
264,344,45017,1,0,3:2:0:0:
264,344,45096,1,8,0:2:0:0:
401,169,45255,1,8,0:2:0:0:
302,75,45414,2,0,P|252:78|203:84,1,99.0000030212403,0|0,3:2|3:2,0:0:0:0:
133,253,45731,6,0,P|199:258|266:265,1,135.000005149842,10|0,0:2|0:0,0:0:0:0:
451,165,46049,6,0,P|401:168|352:174,1,99.0000030212403,6|0,3:2|0:0,0:0:0:0:
203,84,46366,5,8,0:2:0:0:
203,84,46525,1,8,0:2:0:0:
133,253,46684,6,0,P|182:249|231:243,1,99.0000030212403,0|0,3:2|3:2,0:0:0:0:
404,369,47001,1,8,0:2:0:0:
451,165,47160,6,0,P|447:115|441:66,1,99.0000030212403,2|0,3:2|0:2,0:0:0:0:
359,254,47477,1,0,3:2:0:0:
359,254,47557,1,0,3:2:0:0:
359,254,47636,1,8,0:2:0:0:
203,84,47795,2,0,P|191:182|184:281,1,198.000006042481,8|0,0:2|3:2,0:0:0:0:
268,228,48271,1,8,0:2:0:0:
121,101,48430,1,0,0:2:0:0:
365,34,48588,6,0,P|315:28|266:24,1,99.0000030212403,2|0,3:2|3:2,0:0:0:0:
121,101,48906,1,8,0:2:0:0:
268,228,49065,2,0,P|273:178|277:129,1,99.0000030212403,8|0,0:2|3:2,0:0:0:0:
182,39,49382,1,0,3:2:0:0:
72,229,49541,1,8,0:2:0:0:
277,129,49700,6,0,P|375:136|474:147,1,198.000006042481,2|2,3:2|3:2,0:0:0:0:
409,223,50176,1,8,0:2:0:0:
308,20,50334,1,8,0:2:0:0:
308,20,50414,1,0,0:0:0:0:
308,20,50493,1,0,3:2:0:0:
200,196,50652,1,0,3:2:0:0:
47,26,50811,6,0,P|113:31|180:38,1,135.000005149842,2|0,3:2|0:0,0:0:0:0:
298,186,51128,6,0,P|248:191|199:195,1,99.0000030212403,6|0,0:2|0:0,0:0:0:0:
36,328,51446,5,8,0:2:0:0:
36,328,51604,1,8,0:2:0:0:
11,121,51763,6,0,P|5:170|1:219,1,99.0000030212403,0|0,3:2|3:2,0:0:0:0:
163,357,52081,1,8,0:2:0:0:
216,116,52239,6,0,P|165:120|117:125,1,99.0000030212403,2|0,3:2|0:2,0:0:0:0:
294,245,52556,1,0,3:2:0:0:
294,245,52636,1,0,3:2:0:0:
294,245,52715,1,8,0:2:0:0:
285,37,52874,2,0,P|181:45|84:56,1,198.000006042481,8|0,0:2|3:2,0:0:0:0:
164,258,53351,1,8,0:2:0:0:
216,116,53509,1,0,0:2:0:0:
10,193,53668,6,0,P|59:198|108:202,1,99.0000030212403,2|0,3:2|3:2,0:0:0:0:
216,116,53985,1,8,0:2:0:0:
350,292,54144,2,0,P|300:297|251:301,1,99.0000030212403,8|0,0:2|3:2,0:0:0:0:
332,122,54461,2,0,P|381:125|430:131,1,99.0000030212403,0|8,3:2|0:2,0:0:0:0:
207,211,54779,6,0,P|108:203|9:192,1,198.000006042481,2|2,3:2|3:2,0:0:0:0:
70,113,55255,1,8,0:2:0:0:
170,292,55414,1,8,0:2:0:0:
294,178,55573,2,0,P|343:181|392:187,1,99.0000030212403,0|0,0:0|3:2,0:0:0:0:
194,76,55890,6,0,P|199:142|206:209,1,135.000005149842,10|0,0:2|0:0,0:0:0:0:
383,285,56208,6,0,P|389:235|392:186,1,99.0000030212403,6|0,3:2|0:0,0:0:0:0:
194,76,56525,5,8,0:2:0:0:
194,76,56684,1,8,0:2:0:0:
107,219,56842,6,0,P|156:215|205:209,1,99.0000030212403,0|0,3:2|3:2,0:0:0:0:
301,21,57160,1,8,0:2:0:0:
392,186,57319,6,0,P|389:235|383:285,1,99.0000030212403,2|0,3:2|0:2,0:0:0:0:
275,100,57636,1,0,3:2:0:0:
275,100,57715,1,0,0:0:0:0:
275,100,57795,1,8,0:2:0:0:
107,219,57954,2,0,P|96:120|88:21,1,198.000006042481,8|0,0:2|3:2,0:0:0:0:
205,209,58430,1,8,0:2:0:0:
275,100,58588,1,0,0:2:0:0:
383,285,58747,6,0,P|333:281|284:275,1,99.0000030212403,2|0,3:2|3:2,0:0:0:0:
476,170,59065,1,8,0:2:0:0:
457,367,59223,2,0,P|467:268|475:169,1,198.000006042481,10|2,0:2|3:2,0:0:0:0:
419,87,59700,1,8,0:2:0:0:
284,275,59858,1,2,3:2:0:0:
284,275,60176,5,2,3:2:0:0:
328,52,60334,1,2,0:2:0:0:
475,169,60493,1,0,3:2:0:0:
284,275,60652,6,0,P|259:273|234:270,1,49.5000015106202,8|0,0:2|0:0,0:0:0:0:
178,203,60811,1,8,0:2:0:0:
129,212,60890,1,8,0:2:0:0:
82,199,60969,1,8,0:2:0:0:
45,167,61049,1,8,0:2:0:0:
27,121,61128,1,8,0:2:0:0:
30,72,61207,1,8,0:2:0:0:
55,30,61287,5,6,3:2:0:0:
12,242,61446,1,0,0:2:0:0:
239,114,61604,2,0,P|189:107|140:104,1,99.0000030212403,8|0,0:2|0:2,0:0:0:0:
290,223,61922,1,0,3:2:0:0:
250,26,62081,1,0,3:2:0:0:
130,186,62239,1,8,0:2:0:0:
337,104,62398,6,0,P|287:107|238:113,1,99.0000030212403,2|0,3:2|3:2,0:0:0:0:
341,312,62715,2,0,P|390:308|439:302,1,99.0000030212403,0|8,0:2|0:2,0:0:0:0:
290,223,63033,1,0,0:2:0:0:
458,105,63192,2,0,P|450:203|439:302,1,198.000006042481,0|8,3:2|0:2,0:0:0:0:
290,223,63668,1,0,0:2:0:0:
150,367,63827,6,0,P|199:373|248:376,1,99.0000030212403,2|0,3:2|0:2,0:0:0:0:
371,232,64144,1,8,0:2:0:0:
371,232,64303,1,0,0:2:0:0:
238,113,64461,1,0,3:2:0:0:
191,232,64620,2,0,P|240:228|289:222,1,99.0000030212403,0|8,0:2|0:2,0:0:0:0:
436,77,64938,6,0,P|366:129|372:234,1,198.000006042481,2|0,3:2|0:2,0:0:0:0:
454,176,65414,1,8,0:2:0:0:
304,57,65573,1,0,0:2:0:0:
191,232,65731,1,0,3:2:0:0:
95,41,65890,2,0,P|88:90|85:139,1,99.0000030212403,8|0,0:2|0:0,0:0:0:0:
191,232,66208,1,10,0:2:0:0:
304,57,66366,6,0,P|402:64|501:75,1,198.000006042481,0|8,0:0|0:2,0:0:0:0:
388,265,66842,1,0,0:2:0:0:
346,161,67001,1,0,3:2:0:0:
224,348,67160,2,0,P|273:344|322:338,1,99.0000030212403,0|8,0:2|0:2,0:0:0:0:
215,153,67477,6,0,P|116:142|17:134,1,198.000006042481,2|0,3:2|0:2,0:0:0:0:
137,323,67954,2,0,P|133:274|127:225,1,99.0000030212403,8|0,0:2|0:2,0:0:0:0:
17,134,68271,1,0,3:2:0:0:
223,29,68430,1,0,0:2:0:0:
126,224,68588,1,8,0:2:0:0:
34,11,68747,1,2,3:2:0:0:
215,153,68906,6,0,P|313:145|412:134,1,198.000006042481,0|8,3:2|0:2,0:0:0:0:
344,62,69382,1,0,0:2:0:0:
252,231,69541,2,0,P|256:280|262:329,1,99.0000030212403,0|0,3:2|0:2,0:0:0:0:
329,145,69858,1,8,0:2:0:0:
154,68,70017,6,0,P|59:58|0:133,1,198.000006042481,2|0,3:2|0:2,0:0:0:0:
98,150,70493,1,8,0:2:0:0:
234,13,70652,1,0,0:2:0:0:
329,145,70811,1,0,3:2:0:0:
465,8,70969,5,8,0:2:0:0:
463,57,71048,1,8,0:2:0:0:
461,106,71127,1,8,0:2:0:0:
459,156,71207,1,8,0:2:0:0:
458,205,71286,1,8,0:2:0:0:
456,255,71365,1,8,0:2:0:0:
454,304,71445,5,6,3:2:0:0:
329,145,71604,1,0,0:2:0:0:
254,376,71763,1,8,0:2:0:0:
458,205,71922,1,0,3:2:0:0:
234,95,72081,1,0,3:2:0:0:
332,277,72239,1,0,0:2:0:0:
424,29,72398,1,8,0:2:0:0:
264,197,72557,6,0,P|165:189|66:178,1,198.000006042481,2|0,3:2|0:2,0:0:0:0:
234,95,73033,1,8,0:2:0:0:
332,277,73192,1,0,0:2:0:0:
491,64,73350,1,0,3:2:0:0:
334,120,73509,1,0,0:2:0:0:
506,269,73668,1,8,0:2:0:0:
321,375,73827,6,0,P|325:326|331:277,1,99.0000030212403,2|0,3:2|3:2,0:0:0:0:
334,120,74144,1,0,0:2:0:0:
179,306,74303,1,8,0:2:0:0:
331,276,74461,1,0,0:2:0:0:
114,181,74620,1,0,3:2:0:0:
262,30,74779,2,0,P|258:79|252:128,1,99.0000030212403,0|8,0:2|0:2,0:0:0:0:
331,276,75096,6,0,P|426:286|485:211,1,198.000006042481,2|0,3:2|0:2,0:0:0:0:
357,28,75573,1,8,0:2:0:0:
387,194,75731,1,0,0:2:0:0:
506,12,75890,1,0,3:2:0:0:
484,212,76049,1,0,0:2:0:0:
251,128,76208,6,0,P|152:135|53:146,1,198.000006042481,10|0,0:2|3:2,0:0:0:0:
119,219,76684,1,8,0:2:0:0:
184,35,76842,2,0,P|180:84|174:133,1,99.0000030212403,0|0,0:2|3:2,0:0:0:0:
173,133,77081,1,0,3:2:0:0:
173,133,77160,1,8,0:2:0:0:
387,194,77319,2,0,P|380:144|376:95,1,99.0000030212403,0|0,0:2|0:2,0:0:0:0:
257,250,77636,1,0,0:2:0:0:
501,324,77795,5,10,0:2:0:0:
339,126,79065,6,0,P|409:143|483:66,1,180,6|8,3:2|0:2,0:0:0:0:
393,53,79541,1,8,0:2:0:0:
498,204,79699,2,0,P|491:253|484:293,1,90,0|0,3:2|3:2,0:0:0:0:
422,358,80017,1,8,0:2:0:0:
266,164,80176,6,0,P|278:262|292:341,1,180,2|0,3:2|3:2,0:0:0:0:
292,341,80572,1,0,3:2:0:0:
292,341,80652,1,8,0:2:0:0:
405,157,80811,1,8,0:2:0:0:
484,293,80969,2,0,P|439:287|394:279,1,90,0|0,3:2|3:2,0:0:0:0:
266,164,81287,1,8,0:2:0:0:
185,260,81445,1,0,0:2:0:0:
46,79,81604,6,0,P|90:71|135:65,1,90,2|0,3:2|3:2,0:0:0:0:
266,164,81922,1,8,0:2:0:0:
347,68,82080,1,8,0:2:0:0:
484,293,82239,2,0,P|439:287|394:279,1,90,0|0,3:2|3:2,0:0:0:0:
266,164,82557,1,8,0:2:0:0:
131,333,82715,6,0,P|201:350|275:273,1,180,2|0,3:2|3:2,0:0:0:0:
274,282,83112,1,0,3:2:0:0:
274,282,83191,1,8,0:2:0:0:
151,103,83350,1,8,0:2:0:0:
185,260,83509,1,0,3:2:0:0:
144,70,83668,1,0,3:2:0:0:
355,150,83826,2,0,P|310:157|265:163,1,90,8|0,0:2|0:2,0:0:0:0:
428,24,84144,5,10,0:2:0:0:
484,293,84303,1,8,0:2:0:0:
129,116,85255,5,10,0:2:0:0:
355,150,85573,1,10,0:2:0:0:
76,289,86684,5,10,0:0:0:0:
125,53,86843,1,8,0:0:0:0:
214,245,87001,1,2,3:0:0:0:
67,123,87160,1,2,0:0:0:0:
76,289,87319,1,8,3:0:0:0:
205,124,87478,1,0,3:0:0:0:
166,338,87636,5,8,0:0:0:0:
125,53,87795,1,8,0:0:0:0:
256,192,87954,12,0,89223,0:0:0:0:
