osu file format v14

[General]
AudioFilename: audio.mp3
AudioLeadIn: 2000
PreviewTime: 40811
Countdown: 0
SampleSet: Normal
StackLeniency: 0.7
Mode: 2
LetterboxInBreaks: 0
WidescreenStoryboard: 1

[Editor]
Bookmarks: 52795
DistanceSpacing: 1.1
BeatDivisor: 4
GridSize: 4
TimelineZoom: 2.3

[Metadata]
Title:Goya no Machiawase (TV Size)
TitleUnicode:午夜の待ち合わせ (TV Size)
Artist:Hello Sleepwalkers
ArtistUnicode:Hello Sleepwalkers
Creator:Hirikoshi
Version:Overdose
Source:ノラガミ
Tags:opening anime HabiHolic Noragami tutuhaha
BeatmapID:996338
BeatmapSetID:465404

[Difficulty]
HPDrainRate:7
CircleSize:4.2
OverallDifficulty:9.6
ApproachRate:9.6
SliderMultiplier:2.1
SliderTickRate:1

[Events]
//Background and Video events
0,0,"liquid_swords__noragami__by_hatsoff_designs-d847mso.jpg",0,0
//Break Periods
//Storyboard Layer 0 (Background)
//Storyboard Layer 1 (Fail)
//Storyboard Layer 2 (Pass)
//Storyboard Layer 3 (Foreground)
//Storyboard Sound Samples

[TimingPoints]
335,317.460317460317,4,1,1,60,1,0
19223,-133.333333333333,4,1,1,50,0,0
20652,-100,4,1,1,50,0,0
30811,-133.333333333333,4,1,1,50,0,0
35890,-100,4,1,1,50,0,0
40969,-100,4,1,1,60,0,1
41287,-83.3333333333333,4,1,1,60,0,1
43509,-100,4,1,1,60,0,1
45731,-66.6666666666667,4,1,1,60,0,1
46049,-100,4,1,1,60,0,1
46366,-83.3333333333333,4,1,1,60,0,1
49065,-100,4,1,1,60,0,1
49700,-83.3333333333333,4,1,1,60,0,1
50811,-66.6666666666667,4,1,1,60,0,1
51128,-100,4,1,1,60,0,1
51446,-83.3333333333333,4,1,1,60,0,1
53668,-100,4,1,1,60,0,1
55890,-66.6666666666667,4,1,1,60,0,1
56208,-100,4,1,1,60,0,1
56525,-83.3333333333333,4,1,1,60,0,1
65731,-66.6666666666667,4,1,1,60,0,1
66366,-83.3333333333333,4,1,1,60,0,1
79065,-100,4,1,1,60,0,0
84461,-133.333333333333,4,1,1,60,0,0
88906,-133.333333333333,4,2,1,5,0,0

[Colours]
Combo1 : 0,0,0
Combo2 : 128,128,128
Combo3 : 192,192,192
Combo4 : 255,255,255

[HitObjects]
108,356,335,6,0,P|156:308|92:192,1,210,0|8,0:0|0:0,0:0:0:0:
20,112,811,1,8,0:0:0:0:
40,248,969,1,0,0:0:0:0:
280,176,1128,1,0,0:0:0:0:
480,248,1287,1,8,0:0:0:0:
184,276,1446,6,0,P|112:264|88:140,1,210
360,112,1922,2,0,P|408:92|464:92,1,105,8|0,0:0|0:0,0:0:0:0:
204,172,2239,2,0,P|156:152|100:152,1,105
412,268,2557,2,0,P|460:248|516:248,1,105,8|0,0:0|0:0,0:0:0:0:
148,368,2874,6,0,P|76:320|108:212,1,210,0|8,0:0|0:0,0:0:0:0:
428,272,3350,1,0,0:0:0:0:
276,340,3509,1,0,0:0:0:0:
204,172,3668,1,0,0:0:0:0:
48,92,3827,1,8,0:0:0:0:
284,136,3985,6,0,P|348:140|364:-4,1,210
217,74,4382,1,0,0:0:0:0:
217,74,4461,2,0,P|196:119|207:176,1,105,8|8,0:0|0:0,0:0:0:0:
472,212,4779,1,0,0:0:0:0:
184,352,4938,1,0,0:0:0:0:
312,240,5096,2,0,B|301:242|301:242|304:253|304:253|293:256|293:256|296:267|296:267|285:270|285:270|288:281|288:281|277:284|277:284|280:295|280:295|269:298|269:298|272:309|272:309|261:312|261:312|264:323|264:323|253:326|253:326|256:336|256:336|245:339|245:339|248:350|248:350|237:353|237:353,1,157.5,8|0,0:0|0:0,0:0:0:0:
112,232,5414,6,0,P|60:224|44:92,1,210,0|8,0:0|0:0,0:0:0:0:
100,28,5890,1,0,0:0:0:0:
72,144,6049,1,0,0:0:0:0:
400,164,6208,1,0,0:0:0:0:
100,28,6366,1,8,0:0:0:0:
252,144,6525,6,0,P|272:72|392:68,1,210
488,124,7001,2,0,P|436:140|400:180,1,105,8|0,0:0|0:0,0:0:0:0:
84,252,7319,2,0,P|132:226|185:229,1,105
512,320,7636,2,0,P|460:336|424:376,1,105,8|0,0:0|0:0,0:0:0:0:
112,152,7954,6,0,P|182:206|125:312,1,210,0|8,0:0|0:0,0:0:0:0:
420,320,8430,1,0,0:0:0:0:
300,204,8588,1,0,0:0:0:0:
92,224,8747,1,0,0:0:0:0:
248,288,8906,1,8,0:0:0:0:
400,228,9065,6,0,P|360:172|224:216,1,210
122,202,9461,1,0,0:0:0:0:
122,202,9541,2,0,P|172:199|228:176,1,105,8|8,0:0|0:0,0:0:0:0:
512,128,9858,2,0,P|462:130|396:152,1,105
316,284,10176,2,0,B|326:281|326:281|324:270|324:270|334:267|334:267|332:256|332:256|342:253|342:253|340:242|340:242|350:239|350:239|348:228|348:228|358:225|358:225|356:214|356:214|366:211|366:211|364:200|364:200|374:197|374:197|372:187|372:187|382:184|382:184|380:173|380:173|390:170|390:170,1,157.5,8|0,0:0|0:0,0:0:0:0:
244,160,10493,5,0,0:0:0:0:
388,164,10652,1,0,0:0:0:0:
504,236,10811,1,8,0:0:0:0:
212,228,11128,2,0,P|164:212|132:168,1,105
80,68,11446,1,8,0:0:0:0:
128,228,11604,6,0,P|140:292|4:352,1,210
52,196,12081,1,8,0:0:0:0:
212,228,12239,2,0,P|200:164|336:104,1,210
455,154,12715,1,8,0:0:0:0:
308,92,12874,1,0,0:0:0:0:
455,154,13033,5,0,0:0:0:0:
196,360,13350,1,8,0:0:0:0:
455,154,13668,1,0,0:0:0:0:
384,256,13827,1,0,0:0:0:0:
124,272,13985,1,8,0:0:0:0:
304,268,14144,6,0,P|248:280|168:160,2,210,0|8|0,0:0|0:0|0:0,0:0:0:0:
276,152,14938,1,0,0:0:0:0:
276,152,15096,1,0,0:0:0:0:
476,240,15255,1,8,0:0:0:0:
476,240,15414,1,0,0:0:0:0:
272,360,15573,5,0,0:0:0:0:
116,296,15731,1,0,0:0:0:0:
252,260,15890,1,8,0:0:0:0:
296,24,16208,2,0,P|328:68|332:124,1,105
320,232,16525,1,8,0:0:0:0:
348,56,16684,6,0,P|376:112|468:160,1,157.5
488,92,17001,2,0,P|464:144|464:204,1,105,0|8,0:0|0:0,0:0:0:0:
420,368,17319,2,0,P|452:320|424:176,1,210
248,68,17795,1,8,0:0:0:0:
356,232,17954,1,0,0:0:0:0:
80,228,18112,5,0,0:0:0:0:
324,144,18430,2,0,B|260:132|216:148|216:148|228:160|236:200,1,157.5,8|0,0:0|0:0,0:0:0:0:
107,146,18747,2,0,P|66:178|16:192,2,105,0|0|8,0:0|0:0|0:0,0:0:0:0:
248,68,19223,2,0,B|232:128|200:172|200:172|236:200|228:244|204:288|136:276|124:232|124:232|84:260|20:268|20:268|92:296|80:356|80:356|168:380|232:340,1,669.375025534631
360,324,20652,22,0,P|340:252|376:156,1,157.5
480,128,20969,2,0,P|494:176|464:240,1,105,8|0,0:0|0:0,0:0:0:0:
284,132,21287,1,0,0:0:0:0:
168,64,21446,1,0,0:0:0:0:
52,44,21604,1,8,0:0:0:0:
200,80,21763,6,0,P|185:127|200:192,1,105,0|0,0:0|0:0,0:0:0:0:
114,323,22081,2,0,P|126:267|106:219,1,105,0|8,0:0|0:0,0:0:0:0:
284,132,22398,2,0,P|336:80|420:80,1,157.5,0|0,0:0|0:0,0:0:0:0:
432,64,22715,1,0,0:0:0:0:
168,248,22874,2,0,P|108:268|24:208,1,157.5,8|0,0:0|0:0,0:0:0:0:
332,44,23192,6,0,P|362:83|373:148,1,105
340,216,23509,1,8,0:0:0:0:
156,384,23668,2,0,P|162:334|204:280,1,105
200,196,23985,1,0,0:0:0:0:
388,136,24144,1,8,0:0:0:0:
200,196,24303,6,0,P|160:226|100:226,1,105
28,292,24620,1,0,0:0:0:0:
184,96,24779,2,0,P|233:102|284:136,1,105,8|0,0:0|0:0,0:0:0:0:
376,160,25096,1,0,0:0:0:0:
424,152,25176,1,0,0:0:0:0:
472,140,25255,1,0,0:0:0:0:
176,76,25414,2,0,P|120:108|20:80,1,157.5,8|0,0:0|0:0,0:0:0:0:
336,64,25731,6,0,P|356:136|320:232,1,157.5
96,164,26049,2,0,P|83:212|108:272,1,105,8|0,0:0|0:0,0:0:0:0:
232,276,26366,1,0,0:0:0:0:
332,260,26525,1,0,0:0:0:0:
416,208,26684,1,8,0:0:0:0:
232,276,26842,6,0,P|217:229|228:168,1,105
400,140,27160,2,0,P|412:196|392:244,1,105,0|8,0:0|0:0,0:0:0:0:
48,120,27477,1,0,0:0:0:0:
52,88,27557,1,0,0:0:0:0:
64,60,27636,2,0,P|72:32|88:16,1,52.5
144,172,27795,2,0,P|164:151|186:145,1,52.5
292,132,27954,2,0,P|320:124|342:130,1,52.5
448,164,28112,2,0,P|476:172|492:187,1,52.5
256,212,28271,6,0,P|320:224|340:312,1,157.5
164,320,28588,2,0,P|124:272|116:224,1,105,8|0,0:0|0:0,0:0:0:0:
284,144,28906,1,0,0:0:0:0:
88,20,29065,2,0,P|48:68|40:116,1,105,0|8,0:0|0:0,0:0:0:0:
12,200,29382,1,0,0:0:0:0:
84,264,29541,5,0,0:0:0:0:
276,260,29700,1,0,0:0:0:0:
168,312,29858,1,8,0:0:0:0:
368,320,30017,1,0,0:0:0:0:
108,192,30176,2,0,L|56:192,1,52.5
212,192,30334,2,0,L|268:192,1,52.5
408,192,30493,2,0,L|460:192,1,52.5,8|0,0:0|0:0,0:0:0:0:
317,192,30652,2,0,L|261:192,1,52.5,8|0,0:0|0:0,0:0:0:0:
88,144,30811,6,0,P|68:116|60:64,1,78.7500030040742
240,28,31128,2,0,P|220:56|212:108,1,78.7500030040742
324,254,31446,2,0,P|292:239|260:198,1,78.7500030040742
44,192,31763,2,0,P|40:226|59:275,1,78.7500030040742
308,364,32081,5,0,0:0:0:0:
448,296,32239,1,0,0:0:0:0:
180,288,32398,1,0,0:0:0:0:
308,364,32557,1,0,0:0:0:0:
248,196,32715,5,0,0:0:0:0:
436,256,32874,1,0,0:0:0:0:
248,196,33033,1,0,0:0:0:0:
408,192,33192,1,0,0:0:0:0:
156,268,33350,5,0,0:0:0:0:
408,236,33509,1,0,0:0:0:0:
132,272,33668,1,0,0:0:0:0:
356,272,33827,1,0,0:0:0:0:
368,160,33985,2,0,P|324:120|256:104,1,118.125004506111
224,104,34303,1,0,0:0:0:0:
44,180,34461,6,0,P|40:228|112:324,1,157.500006008148
244,292,34938,1,0,0:0:0:0:
68,256,35096,1,0,0:0:0:0:
204,152,35255,2,0,B|248:144|276:92|276:92|288:132|356:136|356:136|348:92|388:84|388:84|412:96,1,275.62501051426
380,244,35890,6,0,P|320:232|264:200,1,105
203,152,36128,1,0,0:0:0:0:
203,152,36208,2,0,P|174:111|156:40,1,105,8|0,0:0|0:0,0:0:0:0:
108,160,36446,1,0,0:0:0:0:
72,212,36525,2,0,L|76:280,1,52.5
180,264,36684,2,0,L|177:212,1,52.5
280,96,36842,2,0,L|284:164,1,52.5,8|0,0:0|0:0,0:0:0:0:
376,304,37001,1,0,0:0:0:0:
448,244,37081,1,0,0:0:0:0:
392,168,37160,5,0,0:0:0:0:
340,88,37239,1,0,0:0:0:0:
248,56,37319,1,0,0:0:0:0:
148,104,37398,1,0,0:0:0:0:
104,188,37477,1,8,0:0:0:0:
180,264,37557,1,0,0:0:0:0:
280,264,37636,1,0,0:0:0:0:
376,248,37715,1,0,0:0:0:0:
196,220,37795,6,0,L|204:156,1,52.5
384,72,37954,2,0,L|400:20,1,52.5
112,264,38112,2,0,L|120:200,1,52.5,8|0,0:0|0:0,0:0:0:0:
432,248,38271,2,0,L|444:192,1,52.5
64,236,38430,5,0,0:0:0:0:
304,340,38747,1,0,0:0:0:0:
76,52,39065,1,0,0:0:0:0:
188,384,39382,1,0,0:0:0:0:
256,192,39700,12,8,40652,0:0:0:0:
464,96,40969,22,0,P|412:48|300:36,1,157.5
32,132,41287,2,0,B|88:148|120:128|120:128|116:108|124:84,1,125.999996154785,8|8,0:0|0:0,0:0:0:0:
440,240,41604,1,0,0:0:0:0:
360,300,41763,1,0,0:0:0:0:
222,64,41922,1,8,0:0:0:0:
264,328,42081,6,0,P|184:372|76:256,1,251.999992309571
76,240,42477,1,0,0:0:0:0:
84,204,42557,1,8,0:0:0:0:
470,52,42715,2,0,P|534:128|474:264,1,251.999992309571,8|0,0:0|0:0,0:0:0:0:
68,56,43192,1,8,0:0:0:0:
421,32,43350,1,0,0:0:0:0:
252,216,43509,6,0,P|180:149|172:64,1,157.5
172,52,43827,1,8,0:0:0:0:
415,149,43985,1,8,0:0:0:0:
176,280,44144,1,0,0:0:0:0:
463,147,44303,1,0,0:0:0:0:
176,280,44461,1,8,0:0:0:0:
434,336,44620,6,0,P|412:240|314:180,1,210
88,320,45096,1,8,0:0:0:0:
312,348,45255,1,8,0:0:0:0:
188,228,45414,2,0,L|176:280,1,52.5
20,102,45573,2,0,L|8:50,1,52.5
256,176,45731,6,0,B|288:180|288:180|300:192|300:192|312:184|312:184|328:176|396:132|344:32,1,236.250009012223,8|0,0:0|0:0,0:0:0:0:
38,95,46049,6,0,P|78:183|142:239,1,157.5
260,88,46366,2,0,B|296:64|300:20|300:20|316:16|344:44,1,125.999996154785,8|8,0:0|0:0,0:0:0:0:
458,199,46684,1,0,0:0:0:0:
348,37,46842,1,0,0:0:0:0:
231,322,47001,1,8,0:0:0:0:
151,41,47160,6,0,P|80:82|88:270,1,251.999992309571
208,272,47557,1,0,0:0:0:0:
276,280,47636,1,8,0:0:0:0:
438,166,47795,2,0,P|418:58|286:50,1,251.999992309571,8|0,0:0|0:0,0:0:0:0:
53,212,48271,1,8,0:0:0:0:
440,144,48430,1,0,0:0:0:0:
62,45,48588,6,0,P|66:107|109:173,1,125.999996154785
156,176,48827,1,0,0:0:0:0:
220,188,48906,1,8,0:0:0:0:
452,304,49065,1,8,0:0:0:0:
140,260,49223,1,0,0:0:0:0:
432,156,49382,1,0,0:0:0:0:
144,104,49541,1,8,0:0:0:0:
308,256,49700,6,0,B|368:288|412:368|412:368|428:332|480:300,2,251.999992309571,0|8|0,0:0|0:0|0:0,0:0:0:0:
55,213,50493,2,0,P|36:191|16:131,1,62.9999980773926
208,260,50652,2,0,P|193:234|183:172,1,62.9999980773926
336,152,50811,6,0,B|336:120|360:68|360:68|392:68|448:80|452:188,1,236.250009012223,8|0,0:0|0:0,0:0:0:0:
256,320,51128,6,0,P|228:264|264:160,1,157.5
468,79,51446,2,0,B|460:127|432:159|432:159|416:135|380:131,1,125.999996154785,8|8,0:0|0:0,0:0:0:0:
28,280,51763,1,0,0:0:0:0:
168,284,51922,1,0,0:0:0:0:
304,296,52081,1,8,0:0:0:0:
0,45,52239,6,0,P|108:45|208:177,1,251.999992309571
370,146,52636,1,0,0:0:0:0:
482,246,52715,1,8,0:0:0:0:
228,272,52874,2,0,P|164:196|224:60,1,251.999992309571,8|0,0:0|0:0,0:0:0:0:
431,254,53350,1,8,0:0:0:0:
72,368,53509,1,0,0:0:0:0:
210,110,53668,6,0,P|282:177|290:262,1,157.5
187,349,53985,1,8,0:0:0:0:
479,196,54144,1,8,0:0:0:0:
304,67,54303,1,0,0:0:0:0:
28,252,54461,1,0,0:0:0:0:
416,148,54620,1,8,0:0:0:0:
118,164,54779,6,0,P|54:132|26:-4,1,210
238,77,55255,1,8,0:0:0:0:
137,344,55414,1,8,0:0:0:0:
496,99,55573,2,0,L|468:159,1,52.5
174,221,55731,2,0,L|146:161,1,52.5
403,211,55890,6,0,B|387:227|387:227|387:239|387:239|375:243|375:243|379:263|371:351|515:351,1,236.250009012223,8|0,0:0|0:0,0:0:0:0:
128,61,56208,6,0,P|44:61|-4:125,1,157.5
443,124,56525,2,0,B|483:100|499:68|499:68|483:48|499:0,1,125.999996154785,8|8,0:0|0:0,0:0:0:0:
252,32,56842,1,0,0:0:0:0:
357,337,57001,1,0,0:0:0:0:
29,146,57160,1,8,0:0:0:0:
503,228,57319,6,0,P|407:268|279:200,1,251.999992309571
116,156,57715,1,0,0:0:0:0:
59,60,57795,1,8,0:0:0:0:
372,85,57954,2,0,P|456:121|432:261,1,251.999992309571,8|0,0:0|0:0,0:0:0:0:
168,228,58430,1,8,0:0:0:0:
320,72,58588,1,0,0:0:0:0:
110,293,58747,6,0,P|82:313|42:317,1,62.9999980773926
82,60,58906,2,0,P|102:60|150:76,1,62.9999980773926
512,32,59065,1,8,0:0:0:0:
228,343,59223,2,0,B|296:331|344:363|344:363|416:343|416:251,1,251.999992309571,8|0,0:0|0:0,0:0:0:0:
320,72,59700,1,8,0:0:0:0:
118,321,59858,5,0,0:0:0:0:
480,40,60176,1,0,0:0:0:0:
168,148,60493,1,0,0:0:0:0:
440,168,60652,6,0,P|440:196|428:232,1,62.9999980773926
105,100,60811,2,0,P|95:70|94:38,1,62.9999980773926
370,304,60969,2,0,P|370:332|358:368,1,62.9999980773926,8|0,0:0|0:0,0:0:0:0:
22,351,61128,2,0,P|12:321|11:289,1,62.9999980773926,8|0,0:0|0:0,0:0:0:0:
387,177,61287,5,0,0:0:0:0:
77,39,61446,1,0,0:0:0:0:
357,339,61604,1,8,0:0:0:0:
104,260,61763,1,0,0:0:0:0:
414,81,61922,2,0,P|446:69|510:-7,1,125.999996154785
96,96,62239,1,8,0:0:0:0:
386,206,62398,6,0,P|458:186|522:202,2,125.999996154785
127,324,62874,2,0,P|55:344|-9:328,1,125.999996154785,8|0,0:0|0:0,0:0:0:0:
391,10,63192,2,0,P|459:42|507:154,1,188.999994232178
32,272,63509,2,0,P|20:200|48:152,1,125.999996154785,8|0,0:0|0:0,0:0:0:0:
496,154,63827,6,0,P|524:230|456:310,1,188.999994232178
20,40,64144,2,0,P|78:18|138:36,1,125.999996154785,8|0,0:0|0:0,0:0:0:0:
445,300,64461,1,0,0:0:0:0:
113,75,64620,1,0,0:0:0:0:
447,91,64779,1,8,0:0:0:0:
141,309,64938,6,0,P|165:241|17:189,1,251.999992309571
337,26,65334,2,0,L|325:106,1,62.9999980773926,0|8,0:0|0:0,0:0:0:0:
88,368,65573,1,0,0:0:0:0:
35,111,65731,6,0,B|-5:83|-26:44|-26:44|9:17|47:19,1,157.500006008148
412,140,66049,2,0,B|452:112|473:73|473:73|438:46|400:48,1,157.500006008148,8|0,0:0|0:0,0:0:0:0:
100,48,66366,6,0,P|32:80|52:224,1,188.999994232178
445,254,66684,2,0,P|418:198|361:175,1,125.999996154785,8|0,0:0|0:0,0:0:0:0:
132,296,66922,1,0,0:0:0:0:
132,296,67001,2,0,L|232:204,1,125.999996154785
458,103,67319,1,8,0:0:0:0:
32,149,67477,6,0,P|28:93|44:20,2,125.999996154785
401,117,67954,1,8,0:0:0:0:
60,184,68112,1,0,0:0:0:0:
418,245,68271,2,0,P|478:285|502:349,1,125.999996154785
452,159,68509,1,0,0:0:0:0:
332,276,68588,1,8,0:0:0:0:
12,169,68747,6,0,P|8:101|160:61,1,251.999992309571
378,312,69223,1,8,0:0:0:0:
68,356,69382,1,0,0:0:0:0:
216,336,69541,1,0,0:0:0:0:
512,291,69700,1,0,0:0:0:0:
36,293,69858,1,8,0:0:0:0:
375,160,70017,6,0,P|447:160|519:124,1,125.999996154785
95,125,70334,2,0,P|32:89|-12:21,2,125.999996154785,0|8|0,0:0|0:0|0:0,0:0:0:0:
396,88,70811,1,0,0:0:0:0:
290,271,70969,1,0,0:0:0:0:
424,170,71049,1,0,0:0:0:0:
219,162,71128,2,0,P|183:142|143:134,1,62.9999980773926,8|0,0:0|0:0,0:0:0:0:
15,275,71287,2,0,P|54:264|95:267,1,62.9999980773926,8|0,0:0|0:0,0:0:0:0:
228,312,71446,5,0,0:0:0:0:
506,194,71604,1,0,0:0:0:0:
108,328,71763,1,8,0:0:0:0:
470,133,71922,1,0,0:0:0:0:
440,313,72081,5,0,0:0:0:0:
121,157,72239,1,0,0:0:0:0:
384,75,72398,1,8,0:0:0:0:
24,156,72557,6,0,P|68:100|52:28,1,125.999996154785
482,123,72874,1,0,0:0:0:0:
63,99,73033,2,0,P|19:155|35:227,1,125.999996154785,8|0,0:0|0:0,0:0:0:0:
485,349,73350,2,0,B|473:297|405:257|405:257|333:289|273:233,1,251.999992309571,0|8,0:0|0:0,0:0:0:0:
32,69,73827,6,0,L|103:174,1,125.999996154785
488,296,74144,2,0,L|417:191,1,125.999996154785,0|8,0:0|0:0,0:0:0:0:
172,68,74461,1,0,0:0:0:0:
445,277,74620,1,0,0:0:0:0:
39,332,74779,1,0,0:0:0:0:
456,40,74938,1,8,0:0:0:0:
160,110,75096,6,0,B|80:90|76:6|76:6|64:70|-4:74,1,251.999992309571
165,312,75493,1,0,0:0:0:0:
236,319,75573,2,0,P|288:371|360:383,1,125.999996154785,8|0,0:0|0:0,0:0:0:0:
488,161,75890,1,0,0:0:0:0:
43,307,76049,1,0,0:0:0:0:
512,201,76208,2,0,B|488:149|416:117|416:117|392:137|328:113,1,188.999994232178,8|0,0:0|0:0,0:0:0:0:
0,62,76525,6,0,P|60:73|83:143,1,125.999996154785,0|8,0:0|0:0,0:0:0:0:
220,328,76842,1,0,0:0:0:0:
227,56,77001,1,8,0:0:0:0:
199,132,77081,1,0,0:0:0:0:
287,164,77160,2,0,P|375:196|491:92,1,251.999992309571
25,95,77636,1,8,0:0:0:0:
397,120,77795,1,4,0:0:0:0:
64,208,78112,5,0,0:0:0:0:
484,180,78430,1,0,0:0:0:0:
20,164,78747,1,0,0:0:0:0:
260,156,78985,1,0,0:0:0:0:
104,104,79065,6,0,P|56:152|120:268,1,210,0|8,0:0|0:0,0:0:0:0:
224,212,79541,1,0,0:0:0:0:
424,156,79700,1,0,0:0:0:0:
300,260,79858,1,0,0:0:0:0:
152,200,80017,1,8,0:0:0:0:
368,46,80176,6,0,P|440:58|464:182,1,210
152,272,80652,2,0,P|104:292|48:292,1,105,8|0,0:0|0:0,0:0:0:0:
328,256,80969,2,0,P|376:276|432:276,1,105
104,144,81287,2,0,P|56:164|0:164,1,105,8|0,0:0|0:0,0:0:0:0:
296,56,81604,6,0,P|368:104|336:212,1,210,0|8,0:0|0:0,0:0:0:0:
236,164,82081,1,0,0:0:0:0:
116,48,82239,1,0,0:0:0:0:
364,72,82398,1,0,0:0:0:0:
236,96,82557,1,8,0:0:0:0:
392,136,82715,6,0,P|452:180|436:324,1,210
192,312,83112,1,0,0:0:0:0:
125,307,83192,2,0,P|96:264|144:192,1,105,8|8,0:0|0:0,0:0:0:0:
54,59,83509,1,0,0:0:0:0:
184,136,83668,1,0,0:0:0:0:
328,140,83826,2,0,B|338:137|338:137|336:126|336:126|346:123|346:123|344:112|344:112|354:109|354:109|352:98|352:98|362:95|362:95|360:84|360:84|370:81|370:81|368:70|368:70|378:67|378:67|376:56|376:56|386:53|386:53|384:43|384:43|394:40|394:40|392:29|392:29|402:26|402:26,1,157.5,8|0,0:0|0:0,0:0:0:0:
156,24,84144,5,0,0:0:0:0:
296,60,84303,1,8,0:0:0:0:
196,136,84461,2,0,P|192:168|208:224,1,78.7500030040742,0|8,0:0|0:0,0:0:0:0:
8,136,84779,2,0,P|12:168|-4:224,1,78.7500030040742
172,248,85096,1,8,0:0:0:0:
30,340,85255,5,0,0:0:0:0:
492,248,85573,5,8,0:0:0:0:
432,280,85731,1,0,0:0:0:0:
364,296,85890,1,0,0:0:0:0:
288,300,86049,1,0,0:0:0:0:
216,276,86208,1,0,0:0:0:0:
152,232,86366,1,0,0:0:0:0:
444,144,86684,5,0,0:0:0:0:
18,71,86842,1,8,0:0:0:0:
416,280,87001,2,0,P|388:244|344:228,1,78.7500030040742,0|8,0:0|0:0,0:0:0:0:
112,200,87319,1,0,0:0:0:0:
445,73,87477,1,8,0:0:0:0:
24,32,87636,1,0,0:0:0:0:
512,376,87795,1,12,0:0:0:0:
256,192,87874,12,0,88906,0:0:0:0:
