osu file format v14

[General]
AudioFilename: audio.mp3
AudioLeadIn: 0
PreviewTime: 61704
Countdown: 0
SampleSet: Soft
StackLeniency: 0.7
Mode: 0
LetterboxInBreaks: 0
WidescreenStoryboard: 1

[Editor]
DistanceSpacing: 0.9
BeatDivisor: 4
GridSize: 4
TimelineZoom: 1

[Metadata]
Title:Goya no Machiawase
TitleUnicode:午夜の待ち合わせ
Artist:Hello Sleepwalkers
ArtistUnicode:Hello Sleepwalkers
Creator:Shirahane Suou
Version:Hard
Source:ノラガミ
Tags:noragami opening full version anime japanese rock
BeatmapID:2114147
BeatmapSetID:1009913

[Difficulty]
HPDrainRate:4
CircleSize:4
OverallDifficulty:5
ApproachRate:8
SliderMultiplier:1.4
SliderTickRate:1

[Events]
//Background and Video events
0,0,"eF9e4yR.png",0,0
//Break Periods
2,41992,51201
2,92786,102020
//Storyboard Layer 0 (Background)
//Storyboard Layer 1 (Fail)
//Storyboard Layer 2 (Pass)
//Storyboard Layer 3 (Foreground)
//Storyboard Layer 4 (Overlay)
//Storyboard Sound Samples

[TimingPoints]
6236,317.460317460317,4,2,1,60,1,0
6236,-111.111111111111,4,2,1,70,0,0
16395,-111.111111111111,4,2,1,50,0,0
36713,-111.111111111111,4,2,1,70,0,0
41792,-111.111111111111,4,2,1,50,0,0
62109,-100,4,2,1,80,0,1
72267,-100,4,2,1,80,0,0
82427,-111.111111111111,4,2,1,70,0,0
97691,317.460317460317,4,2,1,50,1,0
106579,316.622691292876,4,2,1,50,1,0
107845,-111.111111111111,4,2,1,50,0,0
111951,317.460317460317,4,2,1,50,1,0
111951,-100,4,2,1,50,0,0
112268,317.460317460317,4,2,1,80,1,0
112268,-100,4,2,1,80,0,1
149093,-100,4,2,1,80,0,0
150363,-111.111111111111,4,2,1,70,0,0
164331,-111.111111111111,4,2,1,5,0,0

[Colours]
Combo1 : 91,116,215
Combo2 : 158,158,158
Combo3 : 64,150,255
Combo4 : 212,175,55

[HitObjects]
401,290,6235,6,0,P|408:221|410:151,1,140,4|4,3:2|3:2,0:0:0:0:
366,80,6713,1,8,0:2:0:0:
366,79,6871,2,0,P|334:79|303:74,1,62.9999980773926,0|0,3:2|3:2,0:0:0:0:
222,58,7189,1,8,0:2:0:0:
222,58,7348,6,0,P|262:77|252:159,1,125.999996154785,0|0,3:2|3:2,0:0:0:0:
206,211,7824,2,0,P|174:212|143:207,1,62.9999980773926,8|8,0:2|0:2,0:0:0:0:
65,232,8141,2,0,P|65:200|60:169,1,62.9999980773926,0|0,3:2|3:2,0:0:0:0:
22,96,8459,1,8,0:2:0:0:
22,96,8776,6,0,P|59:125|138:97,1,125.999996154785,0|8,3:2|0:2,0:0:0:0:
167,33,9252,1,8,0:2:0:0:
167,33,9411,2,0,L|241:25,1,62.9999980773926,0|0,3:2|3:2,0:0:0:0:
299,78,9729,1,8,0:2:0:0:
299,78,9887,6,0,B|352:86|352:86|369:75|369:75|420:82,1,125.999996154785,0|0,3:2|3:2,0:0:0:0:
492,121,10363,2,0,P|502:150|499:181,1,62.9999980773926,8|8,0:2|0:2,0:0:0:0:
445,243,10681,2,0,L|378:253,1,62.9999980773926,0|0,3:2|3:2,0:0:0:0:
309,215,10998,1,8,0:2:0:0:
309,215,11316,6,0,P|287:190|196:208,1,125.999996154785,4|8,3:2|0:2,0:0:0:0:
121,190,11792,1,8,0:2:0:0:
121,190,11951,2,0,L|128:266,1,62.9999980773926,0|0,3:2|3:2,0:0:0:0:
93,332,12268,1,8,0:2:0:0:
93,332,12427,6,0,P|114:303|202:312,1,125.999996154785,0|0,3:2|3:2,0:0:0:0:
276,288,12903,2,0,P|269:318|272:349,1,62.9999980773926,8|8,0:2|0:2,0:0:0:0:
356,351,13221,2,0,P|362:320|359:289,1,62.9999980773926,0|0,3:2|3:2,0:0:0:0:
319,217,13538,1,8,0:2:0:0:
319,217,13856,6,0,B|337:189|361:170|361:170|394:183|421:183,1,125.999996154785,0|8,3:2|0:2,0:0:0:0:
505,209,14332,1,8,0:2:0:0:
505,209,14490,2,0,L|499:280,1,62.9999980773926,0|0,3:2|3:2,0:0:0:0:
473,353,14808,1,8,0:2:0:0:
473,353,14967,6,0,P|437:333|360:364,1,125.999996154785,0|0,3:2|3:2,0:0:0:0:
297,310,15443,2,0,P|267:321|236:324,1,62.9999980773926,8|8,0:2|0:2,0:0:0:0:
169,371,15760,2,0,P|137:367|108:357,1,62.9999980773926,0|0,3:2|3:2,0:0:0:0:
60,289,16078,1,8,0:2:0:0:
60,289,16395,6,0,P|70:226|75:164,1,125.999996154785,6|10,3:2|0:2,0:0:0:0:
169,29,17030,2,0,P|139:38|108:35,2,62.9999980773926,2|2|10,0:2|0:2|0:2,0:0:0:0:
250,18,17506,6,0,P|197:48|196:109,1,125.999996154785,2|2,3:2|3:2,0:0:0:0:
244,186,17983,1,8,0:2:0:0:
244,186,18141,1,2,0:2:0:0:
147,318,18459,2,0,P|117:309|91:292,2,62.9999980773926,2|10|2,0:2|0:2|0:2,0:0:0:0:
183,244,18935,6,0,P|239:223|278:268,1,125.999996154785,2|10,3:2|0:2,0:0:0:0:
410,363,19570,2,0,L|416:292,1,62.9999980773926,2|2,0:2|0:2,0:0:0:0:
462,233,19887,1,8,0:2:0:0:
462,233,20046,6,0,L|450:99,1,125.999996154785,2|2,3:2|3:2,0:0:0:0:
392,49,20522,1,8,0:2:0:0:
391,49,20681,2,0,P|414:27|444:20,1,62.9999980773926,2|2,0:2|0:2,0:0:0:0:
359,160,21157,1,8,0:2:0:0:
229,59,21475,6,0,P|167:67|108:46,1,125.999996154785,6|10,3:2|0:2,0:0:0:0:
9,177,22110,2,0,P|37:163|68:160,2,62.9999980773926,2|2|10,0:2|0:2|0:2,0:0:0:0:
7,259,22586,6,0,B|59:266|59:266|69:285|69:285|120:293,1,125.999996154785,2|2,3:2|3:2,0:0:0:0:
205,269,23062,1,10,0:2:0:0:
205,269,23221,1,2,0:2:0:0:
68,160,23538,2,0,L|4:151,2,62.9999980773926,2|10|2,0:2|0:2|0:2,0:0:0:0:
156,202,24014,6,0,P|147:167|208:100,1,125.999996154785,2|10,3:2|0:2,0:0:0:0:
329,2,24649,2,0,L|338:71,1,62.9999980773926,2|2,0:2|0:2,0:0:0:0:
403,123,24967,1,8,0:2:0:0:
403,123,25125,6,0,P|373:107|303:155,2,125.999996154785,2|2|2,3:2|3:2|0:2,0:0:0:0:
468,173,25919,1,2,0:2:0:0:
468,173,26554,6,0,B|436:196|436:196|430:282,1,125.999996154785,6|10,3:2|0:2,0:0:0:0:
292,371,27189,2,0,P|299:340|292:309,1,62.9999980773926,2|2,0:2|3:2,0:0:0:0:
232,253,27506,1,10,0:2:0:0:
232,253,27665,6,0,B|290:280|290:280|333:234,2,125.999996154785,2|2|2,3:2|3:2|3:2,0:0:0:0:
172,196,28459,2,0,L|181:117,1,62.9999980773926,0|2,3:2|3:2,0:0:0:0:
190,52,28776,1,10,0:2:0:0:
190,52,29094,6,0,P|136:21|77:37,1,125.999996154785,2|8,3:2|0:2,0:0:0:0:
22,98,29570,1,2,3:2:0:0:
22,97,29729,2,0,P|28:160|31:223,1,125.999996154785,2|10,0:2|0:2,0:0:0:0:
98,268,30205,6,0,B|129:258|159:270|159:270|191:285|220:271,2,125.999996154785,2|2|2,3:2|3:2|3:2,0:0:0:0:
24,303,30998,2,0,P|23:334|31:363,1,62.9999980773926,2|0,3:2|3:2,0:0:0:0:
118,383,31316,1,8,0:2:0:0:
118,383,31633,6,0,B|169:385|169:385|188:368|188:368|237:370,1,125.999996154785,6|10,3:2|0:2,0:0:0:0:
351,251,32268,2,0,P|371:282|381:324,1,62.9999980773926,2|2,0:2|3:2,0:0:0:0:
432,375,32586,1,10,0:2:0:0:
431,376,32744,6,0,P|379:344|320:362,2,125.999996154785,2|2|2,3:2|3:2|3:2,0:0:0:0:
512,379,33538,2,0,P|509:347|497:318,1,62.9999980773926,2|2,3:2|3:2,0:0:0:0:
446,253,33856,1,10,0:2:0:0:
512,103,34173,6,0,B|511:144|491:171|491:171|471:162|439:160,1,125.999996154785,2|8,3:2|0:2,0:0:0:0:
360,135,34649,1,2,3:2:0:0:
360,135,34808,2,0,P|332:177|369:239,1,125.999996154785,2|10,0:2|0:2,0:0:0:0:
446,253,35284,6,0,P|434:311|424:384,2,125.999996154785,2|2|2,3:2|3:2|3:2,0:0:0:0:
493,179,36078,2,0,P|465:164|434:160,1,62.9999980773926,10|0,0:2|3:2,0:0:0:0:
360,135,36395,2,0,P|328:138|301:153,1,62.9999980773926,8|8,0:2|0:2,0:0:0:0:
246,214,36713,6,0,B|253:180|269:153|269:153|238:143|215:124,1,125.999996154785,4|8,3:2|0:2,0:0:0:0:
189,46,37189,1,8,0:2:0:0:
189,46,37348,2,0,L|262:38,1,62.9999980773926,0|0,3:2|3:2,0:0:0:0:
337,46,37665,1,8,0:2:0:0:
337,46,37824,6,0,P|369:19|440:48,1,125.999996154785,0|0,3:2|3:2,0:0:0:0:
506,94,38300,2,0,L|496:165,1,62.9999980773926,8|8,0:2|0:2,0:0:0:0:
460,229,38617,2,0,L|389:239,1,62.9999980773926,0|0,3:2|3:2,0:0:0:0:
318,213,38935,1,8,0:2:0:0:
318,213,39252,6,0,P|309:275|303:338,1,125.999996154785,0|8,3:2|0:2,0:0:0:0:
229,375,39729,1,8,0:2:0:0:
229,375,39887,2,0,P|189:376|161:366,1,62.9999980773926,0|0,3:2|3:2,0:0:0:0:
85,363,40205,1,8,0:2:0:0:
85,363,40363,5,0,3:2:0:0:
199,245,40681,1,0,3:2:0:0:
40,206,40998,1,0,3:2:0:0:
430,82,41792,5,4,3:2:0:0:
402,143,51951,6,0,P|388:110|303:89,1,125.999996154785,4|0,3:2|3:2,0:0:0:0:
152,31,52586,2,0,P|130:59|154:143,1,125.999996154785,0|0,3:2|3:2,0:0:0:0:
280,242,53221,1,0,3:2:0:0:
171,364,53538,1,0,3:2:0:0:
43,260,53856,2,0,L|168:265,1,125.999996154785,0|0,3:2|3:2,0:0:0:0:
297,367,54490,6,0,L|422:361,1,125.999996154785,0|0,3:2|3:2,0:0:0:0:
504,218,55125,2,0,P|496:171|412:146,1,125.999996154785,0|0,3:2|3:2,0:0:0:0:
313,255,55760,1,0,3:2:0:0:
189,147,56078,1,0,3:2:0:0:
292,19,56395,2,0,P|355:28|418:31,1,125.999996154785,0|0,3:2|3:2,0:0:0:0:
503,172,57030,6,0,B|454:186|454:186|443:208|443:208|394:220,1,125.999996154785,4|0,3:2|3:2,0:0:0:0:
241,281,57665,2,0,P|210:270|175:270,2,62.9999980773926,0|0|0,3:2|3:2|3:2,0:0:0:0:
308,233,58141,1,0,3:2:0:0:
308,233,58300,6,0,L|293:92,1,125.999996154785,0|0,3:2|3:2,0:0:0:0:
156,19,58935,1,0,3:2:0:0:
156,19,59094,2,0,P|186:24|217:16,2,62.9999980773926,0|0|0,3:2|3:2|3:2,0:0:0:0:
85,61,59570,6,0,B|115:117|115:117|90:174,1,125.999996154785,0|0,3:2|3:2,0:0:0:0:
214,281,60205,2,0,B|184:225|184:225|214:156,1,125.999996154785,0|0,3:2|3:2,0:0:0:0:
474,310,61792,5,6,0:2:0:0:
474,310,62109,6,0,P|451:271|352:267,1,140,6|10,3:2|0:2,0:0:0:0:
290,218,62586,1,8,0:2:0:0:
290,218,62744,2,0,L|281:301,1,70,2|0,3:2|3:2,0:0:0:0:
305,369,63062,1,10,0:2:0:0:
305,369,63221,6,0,B|266:312|266:312|176:338,1,140,2|2,3:2|3:2,0:0:0:0:
127,285,63697,2,0,P|107:250|117:210,1,70,10|10,0:2|0:2,0:0:0:0:
79,143,64014,1,0,3:2:0:0:
79,143,64173,1,2,3:2:0:0:
135,81,64332,2,0,P|170:79|205:83,1,70,10|2,0:2|0:2,0:0:0:0:
260,148,64649,6,0,P|294:149|329:145,1,70,2|2,3:2|3:2,0:0:0:0:
413,133,64967,1,10,0:2:0:0:
413,133,65125,2,0,P|396:102|375:74,1,70,10|0,0:2|3:2,0:0:0:0:
319,10,65443,2,0,P|300:39|286:71,1,70,2|8,3:2|0:2,0:0:0:0:
205,83,65760,6,0,P|221:150|222:220,1,140,2|2,3:2|3:2,0:0:0:0:
278,282,66236,2,0,P|262:312|232:330,1,70,10|10,0:2|0:2,0:0:0:0:
153,301,66554,1,0,3:2:0:0:
153,301,66713,1,0,3:2:0:0:
113,374,66871,5,14,0:2:0:0:
113,374,67189,6,0,B|125:338|117:302|117:302|76:297|57:274,1,140,6|10,3:2|0:2,0:0:0:0:
17,201,67665,1,8,0:2:0:0:
17,200,67824,2,0,P|51:194|86:191,1,70,2|0,3:2|3:2,0:0:0:0:
130,120,68141,1,10,0:2:0:0:
129,120,68300,6,0,P|199:131|268:137,1,140,2|2,3:2|3:2,0:0:0:0:
318,70,68776,2,0,P|348:53|383:50,1,70,10|10,0:2|0:2,0:0:0:0:
462,88,69094,1,0,3:2:0:0:
462,88,69252,1,2,3:2:0:0:
409,153,69411,2,0,L|405:222,1,70,10|2,0:2|0:2,0:0:0:0:
438,300,69729,6,0,L|368:303,1,70,2|2,3:2|3:2,0:0:0:0:
300,353,70046,1,10,0:2:0:0:
300,353,70205,2,0,P|283:322|280:287,1,70,10|0,0:2|3:2,0:0:0:0:
200,261,70522,2,0,P|218:231|246:211,1,70,2|8,3:2|0:2,0:0:0:0:
327,185,70840,6,0,P|261:177|248:113,2,140,2|2|2,3:2|3:2|3:2,0:0:0:0:
395,136,71633,1,10,0:2:0:0:
269,24,71951,2,0,P|234:24|200:33,1,70,8|8,0:2|0:2,0:0:0:0:
117,17,72267,6,0,B|163:36|163:36|155:147,1,140,6|0,3:2|3:2,0:0:0:0:
95,184,72744,1,2,0:2:0:0:
95,184,72903,2,0,P|137:165|210:223,1,140,2|0,3:2|3:2,0:0:0:0:
291,223,73379,1,2,0:2:0:0:
291,223,73538,6,0,L|275:339,2,105,2|2|2,3:2|0:2|0:2,0:0:0:0:
337,153,74173,1,0,3:2:0:0:
411,303,74490,1,0,3:2:0:0:
509,167,74808,6,0,P|476:109|410:111,1,140,2|0,3:2|3:2,0:0:0:0:
337,153,75284,1,2,0:2:0:0:
337,153,75443,2,0,P|265:142|192:138,1,140,2|0,3:2|3:2,0:0:0:0:
139,198,75919,1,2,0:2:0:0:
139,198,76078,6,0,P|98:206|46:144,2,105,2|2|2,3:2|0:2|0:2,0:0:0:0:
198,137,76713,2,0,P|196:70|142:29,1,140,2|0,3:2|3:2,0:0:0:0:
50,169,77348,6,0,L|32:323,1,140,6|0,3:2|3:2,0:0:0:0:
0,384,77824,1,2,0:2:0:0:
0,384,77983,2,0,P|26:351|128:369,1,140,2|0,3:2|3:2,0:0:0:0:
184,307,78459,1,2,0:2:0:0:
184,307,78617,6,0,L|294:320,2,105,2|2|2,3:2|0:2|0:2,0:0:0:0:
134,238,79252,1,2,3:2:0:0:
278,151,79570,1,0,3:2:0:0:
120,93,79887,6,0,P|186:102|229:50,1,140,2|2,3:2|3:2,0:0:0:0:
387,108,80522,2,0,P|320:98|277:150,1,140,2|2,3:2|3:2,0:0:0:0:
369,289,81157,2,0,L|504:254,2,140,2|2|2,3:2|3:2|3:2,0:0:0:0:
207,336,82110,1,2,0:2:0:0:
206,336,82427,6,0,P|229:279|193:231,1,125.999996154785,4|8,3:2|0:2,0:0:0:0:
217,153,82903,1,8,0:2:0:0:
217,153,83062,2,0,L|141:146,1,62.9999980773926,0|0,3:2|3:2,0:0:0:0:
79,181,83379,1,8,0:2:0:0:
79,181,83538,6,0,P|40:163|49:79,1,125.999996154785,0|0,3:2|3:2,0:0:0:0:
36,6,84014,2,0,P|67:5|93:21,1,62.9999980773926,8|8,0:2|0:2,0:0:0:0:
162,67,84332,2,0,P|193:67|219:51,1,62.9999980773926,0|0,3:2|3:2,0:0:0:0:
293,14,84649,1,8,0:2:0:0:
293,14,84967,6,0,P|320:41|309:128,1,125.999996154785,0|8,3:2|0:2,0:0:0:0:
248,172,85443,1,8,0:2:0:0:
247,171,85602,2,0,P|253:202|256:234,1,62.9999980773926,0|0,3:2|3:2,0:0:0:0:
326,286,85919,1,8,0:2:0:0:
326,286,86078,6,0,P|314:326|380:383,1,125.999996154785,0|0,3:2|3:2,0:0:0:0:
440,348,86554,2,0,P|446:316|444:285,1,62.9999980773926,8|8,0:2|0:2,0:0:0:0:
401,215,86871,2,0,P|399:183|404:152,1,62.9999980773926,0|0,3:2|3:2,0:0:0:0:
453,86,87189,1,8,0:2:0:0:
453,86,87506,6,0,B|433:113|401:123|401:123|378:92|351:88,1,125.999996154785,4|8,3:2|0:2,0:0:0:0:
291,32,87983,1,8,0:2:0:0:
291,32,88141,2,0,P|272:57|269:88,1,62.9999980773926,0|0,3:2|3:2,0:0:0:0:
202,136,88459,1,8,0:2:0:0:
202,136,88617,6,0,P|240:126|296:187,1,125.999996154785,0|0,3:2|3:2,0:0:0:0:
273,261,89094,2,0,L|201:267,1,62.9999980773926,8|8,0:2|0:2,0:0:0:0:
147,213,89411,2,0,P|117:201|86:203,1,62.9999980773926,0|0,3:2|3:2,0:0:0:0:
6,224,89729,1,8,0:2:0:0:
6,224,90046,6,0,L|20:80,1,125.999996154785,0|8,3:2|0:2,0:0:0:0:
63,30,90522,1,8,0:2:0:0:
62,30,90681,2,0,P|91:17|123:19,1,62.9999980773926,0|0,3:2|3:2,0:0:0:0:
176,81,90998,2,0,P|204:93|236:91,1,62.9999980773926,8|0,0:2|3:2,0:0:0:0:
303,138,91316,6,0,P|286:95|311:58,2,94.499997116089,0|0|8,0:0|3:2|0:2,0:0:0:0:
361,196,91951,2,0,L|431:189,1,62.9999980773926,0|0,3:2|3:2,0:0:0:0:
505,181,92268,1,8,0:2:0:0:
506,16,92586,5,4,3:2:0:0:
133,170,102770,6,0,B|199:194|199:194|252:150,1,140,4|0,3:2|3:2,0:0:0:0:
386,252,103405,2,0,B|319:227|319:227|266:271,1,140,0|0,3:2|3:2,0:0:0:0:
124,361,104040,1,0,3:2:0:0:
18,230,104357,1,0,3:2:0:0:
94,80,104675,2,0,P|162:68|232:58,1,140,0|0,3:2|3:2,0:0:0:0:
393,104,105310,6,0,P|352:94|295:178,1,140,0|0,3:2|3:2,0:0:0:0:
178,282,105944,2,0,P|189:322|291:329,1,140,0|0,3:2|3:2,0:0:0:0:
439,382,106579,1,0,3:2:0:0:
388,221,106895,1,0,3:2:0:0:
505,100,107212,2,0,L|353:91,1,140,0|0,3:2|3:2,0:0:0:0:
224,34,107845,6,0,P|257:57|244:140,1,125.999996154785,4|0,3:2|3:2,0:0:0:0:
104,209,108478,2,0,L|111:280,2,62.9999980773926,0|0|0,3:2|3:2|3:2,0:0:0:0:
36,162,108953,1,0,3:2:0:0:
36,162,109111,6,0,L|48:36,1,125.999996154785,0|0,3:2|3:2,0:0:0:0:
212,38,109745,1,0,3:2:0:0:
212,38,109903,2,0,P|188:17|158:11,2,62.9999980773926,0|0|0,3:2|3:2|3:2,0:0:0:0:
273,92,110378,1,0,3:2:0:0:
225,248,110695,1,0,3:2:0:0:
385,212,111011,1,0,3:2:0:0:
337,368,111328,1,0,3:2:0:0:
89,129,111951,5,6,0:2:0:0:
88,128,112268,6,0,P|139:172|199:144,1,140,6|10,3:2|0:2,0:0:0:0:
284,150,112744,1,8,0:2:0:0:
283,150,112902,2,0,P|279:115|262:85,1,70,2|0,3:2|3:2,0:0:0:0:
275,1,113220,1,10,0:2:0:0:
275,1,113379,6,0,P|232:58|169:40,1,140,2|2,3:2|3:2,0:3:0:0:
98,7,113855,2,0,P|63:12|30:23,1,70,10|10,0:2|0:2,0:0:0:0:
5,103,114172,1,0,3:2:0:0:
5,103,114331,1,2,3:2:0:0:
65,161,114490,2,0,L|73:234,1,70,10|2,0:2|0:2,0:0:0:0:
79,314,114807,6,0,P|112:296|154:299,1,70,2|0,3:2|3:2,0:0:0:0:
224,332,115124,1,10,0:2:0:0:
224,332,115283,2,0,P|224:297|231:262,1,70,10|0,0:2|3:2,0:0:0:0:
158,219,115601,2,0,P|157:184|150:149,1,70,2|8,3:2|0:2,0:0:0:0:
229,110,115918,6,0,P|205:61|269:9,1,140,2|2,3:2|3:2,0:0:0:0:
330,52,116394,2,0,L|340:130,1,70,8|10,0:2|0:2,0:0:0:0:
399,187,116712,1,2,3:2:0:0:
399,187,116871,1,0,3:2:0:0:
462,132,117029,5,14,0:2:0:0:
462,132,117347,6,0,P|483:173|439:264,1,140,6|10,3:2|0:2,0:0:0:0:
390,313,117823,1,8,0:2:0:0:
390,313,117982,2,0,L|308:306,1,70,2|0,3:2|3:2,0:0:0:0:
266,242,118299,1,10,0:2:0:0:
266,242,118458,6,0,B|231:227|214:196|214:196|189:223|153:227,1,140,2|2,3:2|3:2,0:0:0:0:
79,186,118934,2,0,L|67:258,1,70,10|10,0:2|0:2,0:0:0:0:
57,339,119252,1,0,3:2:0:0:
57,339,119410,1,2,3:2:0:0:
140,327,119569,2,0,L|212:315,1,70,10|2,0:2|0:2,0:0:0:0:
280,361,119887,6,0,L|352:373,1,70,2|2,3:2|3:2,0:0:0:0:
421,330,120204,1,10,0:2:0:0:
421,329,120363,2,0,P|433:297|429:263,1,70,10|0,0:2|3:2,0:0:0:0:
502,221,120680,2,0,P|480:193|448:180,1,70,2|8,3:2|0:2,0:0:0:0:
446,95,120998,6,0,P|410:100|368:195,1,140,2|2,3:2|3:2,0:0:0:0:
312,249,121474,1,8,0:2:0:0:
312,249,121633,1,2,3:2:0:0:
250,192,121791,2,0,P|216:183|181:183,1,70,10|0,0:2|3:2,0:0:0:0:
106,222,122109,5,14,0:2:0:0:
106,222,122426,6,0,P|141:190|111:107,1,140,6|10,3:2|0:2,0:0:0:0:
88,32,122902,1,8,0:2:0:0:
88,32,123061,2,0,L|166:23,1,70,2|0,3:2|3:2,0:0:0:0:
229,68,123379,1,10,0:2:0:0:
229,68,123537,6,0,B|283:77|283:77|302:63|302:63|373:74,1,140,2|2,3:2|3:2,0:0:0:0:
428,126,124014,2,0,P|438:159|433:193,1,70,10|10,0:2|0:2,0:0:0:0:
376,256,124331,1,0,3:2:0:0:
376,256,124490,1,2,3:2:0:0:
300,220,124648,2,0,L|227:231,1,70,10|2,0:2|0:2,0:0:0:0:
228,315,124966,6,0,L|155:304,1,70,2|0,3:2|3:2,0:0:0:0:
81,337,125283,1,10,0:2:0:0:
81,337,125442,2,0,L|72:253,1,70,10|0,0:2|3:2,0:0:0:0:
117,195,125760,2,0,P|128:155|122:122,1,70,2|8,3:2|0:2,0:0:0:0:
66,65,126077,6,0,B|125:103|125:103|197:54,1,140,2|2,3:2|3:2,0:0:0:0:
255,105,126553,2,0,L|263:35,1,70,8|10,0:2|0:2,0:0:0:0:
341,4,126871,1,2,3:2:0:0:
341,4,127029,1,0,3:2:0:0:
400,70,127188,5,14,0:2:0:0:
400,70,127506,6,0,P|348:112|360:178,1,140,6|10,3:2|0:2,0:0:0:0:
336,259,127982,1,8,0:2:0:0:
336,259,128141,2,0,L|415:272,1,70,2|0,3:2|3:2,0:0:0:0:
479,318,128458,1,10,0:2:0:0:
479,318,128617,6,0,L|490:161,1,140,2|2,3:2|3:2,0:0:0:0:
498,94,129093,2,0,P|466:78|431:78,1,70,10|10,0:2|0:2,0:0:0:0:
373,138,129410,1,0,3:2:0:0:
373,138,129569,1,2,3:2:0:0:
315,76,129728,2,0,L|234:67,1,70,10|2,0:2|0:2,0:0:0:0:
178,119,130045,6,0,L|97:128,1,70,2|0,3:2|3:2,0:0:0:0:
38,173,130363,1,10,0:2:0:0:
38,173,130521,2,0,P|60:198|93:210,1,70,10|0,0:2|3:2,0:0:0:0:
162,259,130839,2,0,P|184:233|217:221,1,70,2|8,3:2|0:2,0:0:0:0:
288,177,131156,6,0,B|249:203|249:203|274:306,1,140,2|2,3:2|3:2,0:0:0:0:
245,374,131633,2,0,P|287:323|351:341,1,140,2|10,0:2|0:2,0:0:0:0:
426,302,132109,1,8,0:2:0:0:
426,302,132267,2,0,L|432:223,1,70,8|8,0:2|0:2,0:0:0:0:
436,146,132585,6,0,P|377:113|314:137,1,140,6|10,3:2|0:2,0:0:0:0:
179,35,133220,2,0,P|218:35|254:23,2,70,2|2|10,3:2|0:2|0:2,0:0:0:0:
97,14,133696,1,2,0:2:0:0:
97,14,133855,6,0,P|137:39|124:127,1,140,0|8,3:2|0:2,0:0:0:0:
152,205,134331,1,2,0:2:0:0:
152,205,134490,2,0,P|105:157|41:178,1,140,2|10,3:2|0:2,2:0:0:0:
9,254,134966,1,2,0:2:0:0:
9,254,135125,6,0,B|15:349|15:349|64:369,1,140,2|10,3:2|0:2,0:0:0:0:
207,290,135760,2,0,L|280:280,2,70,2|2|10,3:2|0:2|0:2,0:0:0:0:
130,250,136236,1,2,0:2:0:0:
130,250,136394,6,0,B|108:231|106:184|106:184|138:168|150:137,1,140,0|8,3:2|0:2,0:0:0:0:
206,73,136871,1,2,0:2:0:0:
276,117,137029,2,0,P|269:152|273:186,1,70,2|10,3:2|0:2,0:0:0:0:
357,188,137347,2,0,P|363:153|359:119,1,70,0|10,3:2|0:2,0:0:0:0:
325,42,137664,6,0,L|480:42,1,140,4|10,3:2|0:2,0:0:0:0:
501,206,138299,2,0,L|513:130,2,70,2|2|10,3:2|0:2|0:2,0:0:0:0:
482,288,138775,1,2,0:2:0:0:
482,288,138934,6,0,B|447:276|416:290|416:290|386:306|347:291,1,140,0|8,3:2|0:2,0:0:0:0:
274,334,139410,1,2,0:2:0:0:
273,333,139569,2,0,P|240:323|205:319,1,70,2|2,3:2|0:2,0:0:0:0:
158,249,139887,2,0,P|123:252|89:263,1,70,10|2,0:2|0:2,0:0:0:0:
25,317,140204,6,0,B|60:255|60:255|3:194,1,140,2|10,3:2|0:2,0:0:0:0:
74,47,140839,2,0,L|5:38,2,70,2|2|10,3:2|0:2|0:2,0:0:0:0:
136,110,141315,1,2,0:2:0:0:
136,110,141474,6,0,P|167:80|269:109,2,140,0|10|2,3:2|0:2|3:2,0:0:0:0:
100,186,142267,1,8,0:2:0:0:
100,186,142426,2,0,L|182:198,1,70,8|10,0:2|0:2,0:0:0:0:
221,262,142744,6,0,L|359:241,1,140,6|10,3:2|0:2,0:0:0:0:
489,348,143379,2,0,L|509:209,1,140,0|8,3:2|0:2,0:0:0:0:
470,134,143855,1,2,0:2:0:0:
470,134,144014,6,0,P|432:105|329:134,1,140,0|8,3:2|0:2,0:0:0:0:
273,73,144490,1,2,0:2:0:0:
273,73,144648,2,0,P|258:104|261:139,1,70,2|0,3:2|0:0,0:0:0:0:
191,187,144966,2,0,P|205:218|202:253,1,70,10|2,0:2|0:2,0:0:0:0:
157,324,145283,6,0,P|210:284|270:312,1,140,0|8,3:2|0:2,0:0:0:0:
424,380,145918,2,0,P|407:349|406:315,2,70,2|2|10,3:2|0:2|0:2,0:0:0:0:
508,382,146394,1,2,0:2:0:0:
508,382,146553,6,0,L|508:235,1,140,0|10,3:2|0:2,0:0:0:0:
466,168,147029,1,2,0:2:0:0:
466,168,147188,2,0,P|450:133|454:96,1,70,2|2,3:2|0:2,0:0:0:0:
486,24,147506,1,10,0:2:0:0:
341,109,147823,5,0,3:2:0:0:
341,109,147982,1,8,0:2:0:0:
268,151,148141,2,0,P|254:118|256:84,1,70,2|2,3:2|3:2,0:0:0:0:
250,0,148458,2,0,P|284:4|313:23,1,70,10|0,0:2|3:2,0:0:0:0:
389,61,148775,2,0,P|367:88|336:104,1,70,2|2,0:2|3:2,0:0:0:0:
256,84,149093,5,12,0:2:0:0:
256,84,150363,6,0,B|206:89|206:89|190:104|190:104|136:107,1,125.999996154785,4|8,3:2|0:2,0:0:0:0:
69,59,150839,1,8,0:2:0:0:
69,59,150998,2,0,P|55:87|52:118,1,62.9999980773926,0|0,3:2|3:2,0:0:0:0:
9,188,151315,1,8,0:2:0:0:
9,188,151474,6,0,P|46:206|55:289,1,125.999996154785,0|0,3:2|3:2,0:0:0:0:
24,358,151950,2,0,L|96:369,1,62.9999980773926,8|8,0:2|0:2,0:0:0:0:
157,327,152267,2,0,L|229:316,1,62.9999980773926,0|0,3:2|3:2,0:0:0:0:
295,360,152585,1,8,0:2:0:0:
295,360,152902,6,0,B|254:312|254:312|288:244,1,125.999996154785,0|8,3:2|0:2,0:0:0:0:
340,196,153379,1,8,0:2:0:0:
340,196,153537,2,0,P|377:189|403:199,1,62.9999980773926,0|0,3:2|3:2,0:0:0:0:
480,166,153855,1,8,0:2:0:0:
480,166,154014,6,0,L|470:298,1,125.999996154785,0|0,3:2|3:2,0:0:0:0:
420,356,154490,2,0,P|392:371|361:373,1,62.9999980773926,8|8,0:2|0:2,0:0:0:0:
331,297,154807,2,0,P|358:281|389:279,1,62.9999980773926,0|0,3:2|3:2,0:0:0:0:
470,291,155125,1,8,0:2:0:0:
507,131,155442,5,12,0:2:0:0:
507,131,155601,1,8,0:2:0:0:
427,152,155760,2,0,L|273:134,2,125.999996154785,0|0|0,3:2|3:2|3:2,0:0:0:0:
440,71,156553,6,0,P|413:29|334:42,1,125.999996154785,8|8,0:2|0:2,0:0:0:0:
265,5,157029,2,0,L|255:78,1,62.9999980773926,0|0,3:2|0:0,0:0:0:0:
174,78,157347,2,0,L|184:151,1,62.9999980773926,0|0,3:2|0:0,0:0:0:0:
104,165,157664,2,0,L|132:232,1,62.9999980773926,0|0,3:2|0:0,0:0:0:0:
175,290,157982,5,0,3:2:0:0:
175,290,158141,1,0,3:2:0:0:
126,355,158299,2,0,L|59:345,1,62.9999980773926,8|8,0:2|0:2,0:0:0:0:
9,283,158617,2,0,L|-1:216,1,62.9999980773926,8|8,0:2|0:2,0:0:0:0:
13,139,158934,1,8,0:2:0:0:
13,139,159093,5,4,3:2:0:0:
256,192,159252,12,0,164331,0:0:0:0:
