osu file format v14

[General]
AudioFilename: audio.mp3
AudioLeadIn: 0
PreviewTime: 61704
Countdown: 0
SampleSet: Soft
StackLeniency: 0.7
Mode: 0
LetterboxInBreaks: 0
WidescreenStoryboard: 1

[Editor]
DistanceSpacing: 0.9
BeatDivisor: 4
GridSize: 4
TimelineZoom: 1

[Metadata]
Title:Goya no Machiawase
TitleUnicode:午夜の待ち合わせ
Artist:Hello Sleepwalkers
ArtistUnicode:Hello Sleepwalkers
Creator:Shirahane Suou
Version:Extreme
Source:ノラガミ
Tags:noragami opening full version anime japanese rock
BeatmapID:2114146
BeatmapSetID:1009913

[Difficulty]
HPDrainRate:6
CircleSize:4
OverallDifficulty:9.4
ApproachRate:9.4
SliderMultiplier:2.2
SliderTickRate:1

[Events]
//Background and Video events
0,0,"eF9e4yR.png",0,0
//Break Periods
2,92786,102230
//Storyboard Layer 0 (Background)
//Storyboard Layer 1 (Fail)
//Storyboard Layer 2 (Pass)
//Storyboard Layer 3 (Foreground)
//Storyboard Layer 4 (Overlay)
//Storyboard Sound Samples

[TimingPoints]
6236,317.460317460317,4,2,1,60,1,0
6236,-111.111111111111,4,2,1,70,0,0
16395,-133.333333333333,4,2,1,50,0,0
25919,-200,4,2,1,50,0,0
26475,-200,4,2,1,5,0,0
26554,-125,4,2,1,50,0,0
28776,-333.333333333333,4,2,1,50,0,0
29014,-333.333333333333,4,2,1,5,0,0
29094,-125,4,2,1,50,0,0
33856,-333.333333333333,4,2,1,50,0,0
34094,-333.333333333333,4,2,1,5,0,0
34173,-125,4,2,1,50,0,0
36713,-111.111111111111,4,2,1,70,0,0
41157,-133.333333333333,4,2,1,70,0,0
41792,-111.111111111111,4,2,1,70,0,0
46871,-133.333333333333,4,2,1,50,0,0
57030,-111.111111111111,4,2,1,50,0,0
60840,-499.999999999997,4,2,1,70,0,0
61792,-76.9230769230769,4,2,1,80,0,0
62030,-76.9230769230769,4,2,1,5,0,0
62109,-100,4,2,1,80,0,1
66871,-76.9230769230769,4,2,1,80,0,1
67110,-76.9230769230769,4,2,1,5,0,1
67189,-100,4,2,1,80,0,1
72267,-100,4,2,1,80,0,0
82348,-100,4,2,1,5,0,0
82427,-117.647058823529,4,2,1,70,0,0
92506,-117.647058823529,4,2,1,5,0,0
92586,-117.647058823529,4,2,1,70,0,0
97691,317.460317460317,4,2,1,70,1,0
102770,-111.111111111111,4,2,1,50,0,0
106579,316.622691292876,4,2,1,50,1,0
106579,-111.111111111111,4,2,1,50,0,0
111951,317.460317460317,4,2,1,80,1,0
111951,-76.9230769230769,4,2,1,80,0,0
112189,-76.9230769230769,4,2,1,5,0,0
112268,317.460317460317,4,2,1,80,1,0
112268,-100,4,2,1,80,0,1
117029,-76.9230769230769,4,2,1,80,0,1
117268,-76.9230769230769,4,2,1,5,0,1
117347,-100,4,2,1,80,0,1
122109,-76.9230769230769,4,2,1,80,0,1
122347,-76.9230769230769,4,2,1,5,0,1
122426,-100,4,2,1,80,0,1
127188,-76.9230769230769,4,2,1,80,0,1
127426,-76.9230769230769,4,2,1,5,0,1
127506,-100,4,2,1,80,0,1
149093,-100,4,2,1,80,0,0
150363,-111.111111111111,4,2,1,70,0,0
164331,-111.111111111111,4,2,1,5,0,0

[Colours]
Combo1 : 91,116,215
Combo2 : 158,158,158
Combo3 : 64,150,255
Combo4 : 212,175,55

[HitObjects]
426,256,6236,6,0,P|390:209|338:188,1,98.9999969787599,4|4,3:2|3:2,0:0:0:0:
143,158,6553,1,8,0:2:0:0:
330,86,6712,1,8,0:2:0:0:
203,247,6870,1,0,3:2:0:0:
203,247,7029,1,0,3:2:0:0:
171,32,7189,1,8,0:2:0:0:
355,191,7348,6,0,B|276:184|276:184|249:156|249:156|169:150,1,197.99999395752,0|0,3:2|3:2,0:0:0:0:
0,271,7744,1,0,3:2:0:0:
19,273,7824,2,0,P|64:256|88:214,1,98.9999969787599,8|8,0:2|0:2,0:0:0:0:
29,0,8141,1,0,3:2:0:0:
5,188,8300,1,0,3:2:0:0:
186,58,8459,2,0,L|77:66,1,98.9999969787599,8|0,0:2|0:0,0:0:0:0:
225,253,8776,6,0,P|274:253|323:260,1,98.9999969787599,0|0,3:2|3:2,0:0:0:0:
506,212,9093,1,8,0:2:0:0:
331,365,9251,1,8,0:2:0:0:
362,157,9410,1,0,3:2:0:0:
362,157,9569,1,0,3:2:0:0:
470,324,9729,1,8,0:2:0:0:
225,253,9887,6,0,B|209:204|230:155|230:155|253:105|231:60,1,197.99999395752,0|0,3:2|3:2,0:0:0:0:
60,24,10284,1,0,3:2:0:0:
68,49,10363,2,0,P|96:88|143:102,1,98.9999969787599,8|8,0:2|0:2,0:0:0:0:
339,0,10681,1,0,3:2:0:0:
149,12,10840,1,0,3:2:0:0:
303,204,10998,2,0,P|321:168|309:105,1,98.9999969787599,8|0,0:2|0:0,0:0:0:0:
200,364,11316,6,0,L|298:356,1,98.9999969787599,4|0,3:2|3:2,0:0:0:0:
171,174,11632,1,8,0:2:0:0:
64,372,11791,1,8,0:2:0:0:
220,266,11950,1,0,3:0:0:0:
220,266,12109,1,0,3:0:0:0:
0,251,12268,1,8,0:2:0:0:
54,36,12427,6,0,B|58:59|87:83|87:83|67:114|69:171|69:171|35:134,1,197.99999395752,0|0,3:2|3:2,0:0:0:0:
142,10,12824,1,0,3:2:0:0:
169,5,12903,2,0,P|218:6|263:25,1,98.9999969787599,8|8,0:2|0:2,0:0:0:0:
413,200,13221,1,0,3:2:0:0:
389,4,13379,1,0,3:2:0:0:
238,162,13538,2,0,L|230:266,1,98.9999969787599,8|0,0:2|0:0,0:0:0:0:
497,238,13856,6,0,P|460:205|412:199,1,98.9999969787599,0|0,3:2|3:2,0:0:0:0:
230,260,14172,1,8,0:2:0:0:
365,102,14331,1,8,0:2:0:0:
320,294,14489,1,0,3:2:0:0:
320,294,14649,1,0,3:2:0:0:
213,94,14808,1,8,0:2:0:0:
440,184,14967,6,0,B|475:146|475:146|454:-13,1,197.99999395752,0|0,3:2|3:2,0:0:0:0:
353,182,15363,1,0,3:2:0:0:
354,202,15443,2,0,P|380:242|424:266,1,98.9999969787599,8|8,0:2|0:2,0:0:0:0:
361,76,15760,1,0,3:2:0:0:
211,251,15919,1,0,3:2:0:0:
81,82,16078,2,0,L|179:90,1,98.9999969787599,8|0,0:2|0:0,0:0:0:0:
56,265,16395,6,0,L|179:254,1,123.750004720688,6|0,3:2|3:2,0:0:0:0:
211,251,16713,2,0,P|228:213|226:173,1,82.5000031471254,10|0,0:2|0:0,0:0:0:0:
307,36,17030,1,2,0:2:0:0:
179,90,17189,1,2,0:2:0:0:
332,135,17348,1,10,0:2:0:0:
148,81,17506,6,0,P|73:109|46:184,1,165.000006294251,2|2,3:2|3:2,0:0:0:0:
85,373,17982,1,8,0:2:0:0:
151,196,18141,1,2,0:2:0:0:
140,171,18459,1,2,0:2:0:0:
232,384,18617,2,0,P|243:340|227:295,1,82.5000031471254,10|2,0:2|0:2,0:0:0:0:
394,195,18935,6,0,P|335:176|275:187,1,123.750004720688,2|0,3:2|3:2,0:0:0:0:
240,199,19252,2,0,L|232:116,1,82.5000031471254,10|0,0:2|0:0,0:0:0:0:
222,0,19570,1,2,0:2:0:0:
318,73,19729,1,2,0:2:0:0:
144,62,19887,1,8,0:2:0:0:
347,79,20046,6,0,P|397:97|381:203,1,165.000006294251,2|2,3:2|3:2,0:0:0:0:
281,269,20522,2,0,P|280:228|273:173,1,82.5000031471254,8|2,0:2|0:2,0:0:0:0:
359,368,20840,1,2,0:2:0:0:
336,378,21157,2,0,P|295:373|253:372,1,82.5000031471254,8|2,0:2|0:2,0:0:0:0:
433,301,21475,6,0,P|399:267|397:185,1,123.750004720688,6|0,3:2|3:2,0:0:0:0:
413,167,21792,2,0,P|453:162|495:161,1,82.5000031471254,10|0,0:2|0:0,0:0:0:0:
364,78,22110,1,2,0:2:0:0:
299,182,22268,1,2,0:2:0:0:
261,64,22427,1,10,0:2:0:0:
413,167,22586,6,0,B|407:286|407:286|362:304,1,165.000006294251,2|2,3:2|3:2,0:0:0:0:
192,375,23062,1,10,0:2:0:0:
225,223,23221,1,2,0:2:0:0:
243,244,23538,1,2,0:2:0:0:
68,368,23697,2,0,P|55:329|61:288,1,82.5000031471254,10|2,0:2|0:2,0:0:0:0:
0,153,24014,6,0,P|58:132|119:139,1,123.750004720688,2|0,3:2|3:2,0:0:0:0:
156,141,24332,2,0,L|147:240,1,82.5000031471254,10|0,0:2|0:0,0:0:0:0:
210,354,24649,1,2,0:2:0:0:
247,231,24808,1,2,0:2:0:0:
128,333,24967,1,8,0:2:0:0:
272,209,25125,6,0,P|311:199|352:198,1,82.5000031471254,2|0,3:2|0:0,0:0:0:0:
226,45,25443,2,0,P|265:55|306:56,1,82.5000031471254,2|0,3:2|0:0,0:0:0:0:
443,180,25760,1,2,0:2:0:0:
399,22,25919,2,0,B|389:60|393:95|393:95|359:125|359:125|367:163|352:197,1,192.5,2|0,0:2|0:0,0:0:0:0:
323,215,26554,6,0,P|309:256|312:299,1,88,6|0,3:2|0:0,0:0:0:0:
475,343,26792,1,0,3:2:0:0:
475,323,26871,2,0,P|446:289|407:271,1,88,10|0,0:2|3:2,0:0:0:0:
238,356,27189,1,2,0:2:0:0:
391,360,27348,1,2,3:2:0:0:
209,354,27506,1,10,0:2:0:0:
323,215,27665,6,0,P|334:169|219:89,1,176,2|2,3:2|3:2,0:0:0:0:
85,187,28141,1,8,0:2:0:0:
246,173,28300,1,2,3:2:0:0:
163,42,28459,2,0,L|155:85,1,44,0|0,3:2|3:2,0:0:0:0:
18,75,28617,2,0,L|45:109,1,44,2|0,3:2|3:2,0:0:0:0:
164,263,28776,6,0,P|168:238|166:214,1,49.4999984893799,10|0,0:2|0:0,0:0:0:0:
85,187,29094,6,0,L|78:274,1,88,2|0,3:2|0:0,0:0:0:0:
0,384,29332,1,2,3:2:0:0:
11,373,29411,2,0,P|51:357|95:362,1,88,8|2,0:2|3:2,0:0:0:0:
245,360,29729,1,2,0:2:0:0:
164,263,29887,1,0,3:2:0:0:
327,251,30046,1,10,0:2:0:0:
240,47,30205,6,0,B|211:110|243:174|243:174|255:150|253:131,1,176,2|2,3:2|3:2,0:0:0:0:
123,120,30681,1,8,0:2:0:0:
164,263,30840,1,2,3:2:0:0:
16,229,30998,2,0,L|64:220,1,44,2|0,3:2|3:2,0:0:0:0:
91,373,31157,2,0,L|118:332,1,44,0|0,3:2|3:2,0:0:0:0:
253,131,31316,5,8,0:2:0:0:
253,130,31633,6,0,P|292:113|336:117,1,88,6|0,3:2|0:0,0:0:0:0:
359,271,31951,2,0,P|323:245|305:205,1,88,10|0,0:2|3:2,0:0:0:0:
372,35,32268,1,2,0:2:0:0:
394,189,32427,1,2,3:2:0:0:
499,76,32586,1,10,0:2:0:0:
499,283,32744,6,0,B|476:160|476:160|512:195,1,176,2|2,3:2|3:2,0:0:0:0:
427,340,33221,1,8,0:2:0:0:
394,189,33379,1,2,3:2:0:0:
298,305,33538,2,0,L|253:297,1,44,2|0,3:2|3:2,0:0:0:0:
223,159,33697,2,0,L|201:199,1,44,2|0,3:2|3:2,0:0:0:0:
89,336,33856,6,0,P|93:311|90:287,1,49.4999984893799,10|0,0:2|0:0,0:0:0:0:
32,199,34173,6,0,P|74:208|117:200,1,88,2|0,3:2|0:0,0:0:0:0:
300,209,34411,1,2,3:2:0:0:
287,199,34490,2,0,P|244:189|201:197,1,88,8|2,0:2|3:2,0:0:0:0:
89,336,34808,1,2,0:2:0:0:
240,282,34967,1,0,3:2:0:0:
153,114,35125,1,10,0:2:0:0:
333,36,35284,6,0,P|314:117|298:221,1,176,2|2,3:2|3:2,0:0:0:0:
367,383,35760,1,8,0:2:0:0:
420,204,35919,1,2,3:2:0:0:
240,282,36078,1,10,0:2:0:0:
280,107,36236,1,0,3:2:0:0:
397,297,36395,1,8,0:2:0:0:
429,299,36474,1,8,0:2:0:0:
461,290,36553,1,8,0:2:0:0:
486,269,36633,1,8,0:2:0:0:
502,241,36713,6,0,P|511:198|492:144,1,98.9999969787599,4|0,3:2|3:2,0:0:0:0:
357,14,37029,1,8,0:2:0:0:
295,217,37188,1,8,0:2:0:0:
240,27,37347,1,0,3:0:0:0:
240,27,37505,1,0,3:0:0:0:
420,204,37664,1,8,0:2:0:0:
185,180,37824,6,0,B|106:187|106:187|79:215|79:215|-1:221,1,197.99999395752,0|0,3:2|3:2,0:0:0:0:
108,370,38221,1,0,3:2:0:0:
127,357,38300,2,0,P|148:313|143:264,1,98.9999969787599,8|8,0:2|0:2,0:0:0:0:
26,117,38617,1,0,3:2:0:0:
61,301,38776,1,0,3:2:0:0:
154,97,38935,2,0,P|202:88|252:88,1,98.9999969787599,8|0,0:2|0:0,0:0:0:0:
464,225,39252,6,0,P|414:224|365:215,1,98.9999969787599,0|0,3:2|3:2,0:0:0:0:
314,5,39569,1,8,0:2:0:0:
448,135,39728,1,8,0:2:0:0:
257,290,39887,1,0,3:2:0:0:
257,290,40045,1,0,3:2:0:0:
347,95,40205,1,8,0:2:0:0:
459,314,40363,6,0,P|410:321|366:300,1,98.9999969787599,0|0,3:2|0:0,0:0:0:0:
194,210,40681,2,0,P|238:189|286:197,1,98.9999969787599,0|0,3:2|0:0,0:0:0:0:
477,158,40998,1,0,3:0:0:0:
393,0,41157,6,0,B|392:42|418:73|418:73|385:87|359:125|359:125|389:155|385:210,1,247.500009441376,2|0,0:2|0:0,0:0:0:0:
482,355,41792,5,4,3:2:0:0:
482,355,44332,2,0,B|481:317|468:276|468:276|490:243|490:243|476:208|475:168,1,197.99999395752,8|0,0:2|0:0,0:0:0:0:
474,167,45443,2,0,P|418:158|377:121,1,98.9999969787599,8|0,0:2|0:3,0:3:0:0:
210,0,45760,2,0,P|230:52|218:106,1,98.9999969787599,8|0,0:2|0:3,0:3:0:0:
224,93,46395,1,0,3:2:0:0:
198,313,46554,2,0,P|233:269|285:252,1,98.9999969787599,8|0,0:2|0:3,0:3:0:0:
504,294,46871,6,0,P|443:297|394:261,1,123.750004720688,6|2,3:2|0:2,0:0:0:0:
378,231,47189,2,0,P|379:178|385:132,1,82.5000031471254,8|2,0:2|3:2,0:0:0:0:
393,118,47427,1,0,3:2:0:0:
393,118,47506,1,2,3:2:0:0:
234,0,47665,1,0,3:2:0:0:
234,0,47744,1,2,3:2:0:0:
234,0,47824,1,0,3:2:0:0:
280,193,47983,1,10,0:2:0:0:
312,0,48141,6,0,P|311:49|305:98,1,82.5000031471254,2|0,3:2|0:0,0:0:0:0:
200,260,48459,1,8,0:2:0:0:
138,90,48617,1,2,3:2:0:0:
138,90,48697,1,0,3:2:0:0:
138,90,48776,1,2,3:2:0:0:
42,261,48935,1,0,3:2:0:0:
0,16,49094,1,8,0:2:0:0:
0,16,49411,6,0,P|40:24|80:17,1,82.5000031471254,2|0,3:2|0:0,0:0:0:0:
279,13,49729,2,0,P|238:5|198:14,1,82.5000031471254,10|0,0:2|0:0,0:0:0:0:
170,27,49967,1,0,3:2:0:0:
170,27,50046,1,2,3:2:0:0:
95,199,50205,1,8,0:2:0:0:
242,98,50363,1,2,3:2:0:0:
55,105,50522,1,8,0:2:0:0:
240,222,50681,6,0,P|321:210|403:205,1,165.000006294251,2|10,3:2|0:2,0:0:0:0:
171,355,51316,2,0,P|199:358|226:363,2,55.0000020980836,2|0|0,3:2|3:2|3:2,0:0:0:0:
43,383,51633,2,0,P|49:343|52:302,1,82.5000031471254,10|0,0:2|0:0,0:0:0:0:
19,119,51951,6,0,P|17:161|11:201,1,82.5000031471254,4|0,3:2|0:0,0:0:0:0:
170,73,52268,2,0,P|173:115|179:155,1,82.5000031471254,0|0,3:2|0:0,0:0:0:0:
11,124,52586,2,0,P|9:166|3:206,1,82.5000031471254,0|0,3:2|0:0,0:0:0:0:
178,77,52903,2,0,P|181:119|187:159,1,82.5000031471254,0|0,3:2|0:0,0:0:0:0:
0,30,53221,6,0,P|42:27|82:21,1,82.5000031471254,0|0,3:2|0:0,0:0:0:0:
202,263,53538,2,0,P|161:256|120:254,1,82.5000031471254,0|0,3:2|0:0,0:0:0:0:
0,40,53856,2,0,P|41:37|81:31,1,82.5000031471254,0|0,3:2|0:0,0:0:0:0:
202,254,54173,2,0,P|161:247|120:245,1,82.5000031471254,0|0,3:2|0:0,0:0:0:0:
278,121,54490,5,0,3:2:0:0:
370,254,54649,1,0,3:0:0:0:
264,91,54808,1,0,3:2:0:0:
421,145,54967,1,0,3:0:0:0:
290,229,55125,2,0,P|283:277|357:333,1,123.750004720688,0|0,3:2|0:0,0:0:0:0:
350,358,55443,2,0,L|434:351,1,82.5000031471254,0|0,3:2|0:0,0:0:0:0:
421,145,55760,6,0,P|414:185|412:226,1,82.5000031471254,0|0,3:2|0:0,0:0:0:0:
269,39,56078,2,0,P|275:79|277:120,1,82.5000031471254,0|0,3:2|0:0,0:0:0:0:
433,138,56395,2,0,P|426:178|424:219,1,82.5000031471254,0|0,3:2|0:0,0:0:0:0:
259,33,56713,2,0,P|265:73|267:114,1,82.5000031471254,0|0,3:2|0:0,0:0:0:0:
154,263,57030,5,4,3:2:0:0:
169,242,57109,1,0,3:2:0:0:
189,226,57188,1,0,3:2:0:0:
213,216,57268,1,0,3:2:0:0:
238,212,57347,1,0,3:2:0:0:
264,215,57426,1,0,3:2:0:0:
288,225,57506,1,0,3:2:0:0:
308,240,57585,1,0,3:2:0:0:
324,260,57664,1,0,3:2:0:0:
340,280,57743,1,0,3:2:0:0:
360,295,57824,1,0,3:2:0:0:
384,305,57902,1,0,3:2:0:0:
410,308,57983,1,0,3:2:0:0:
435,304,58062,1,0,3:2:0:0:
459,294,58140,1,0,3:2:0:0:
479,278,58220,1,0,3:2:0:0:
494,257,58300,5,0,3:2:0:0:
475,232,58379,1,0,3:2:0:0:
468,202,58458,1,0,3:2:0:0:
473,172,58538,1,0,3:2:0:0:
489,146,58617,1,0,3:2:0:0:
505,120,58697,1,0,3:2:0:0:
510,90,58775,1,0,3:2:0:0:
503,60,58855,1,0,3:2:0:0:
484,35,58934,1,0,3:2:0:0:
456,20,59014,1,0,3:2:0:0:
425,19,59093,1,0,3:2:0:0:
396,29,59173,1,0,3:2:0:0:
373,49,59252,1,0,3:2:0:0:
350,69,59332,1,0,3:2:0:0:
322,79,59410,1,0,3:2:0:0:
291,78,59489,1,0,3:2:0:0:
263,63,59570,6,0,P|214:56|166:69,1,98.9999969787599,0|0,3:2|0:0,0:0:0:0:
221,256,59887,2,0,P|227:207|214:159,1,98.9999969787599,0|0,3:2|0:0,0:0:0:0:
28,214,60205,2,0,P|76:220|124:207,1,98.9999969787599,0|0,3:2|0:0,0:0:0:0:
70,21,60522,2,0,P|63:69|76:117,1,98.9999969787599,0|0,3:2|0:0,0:0:0:0:
235,0,60840,6,2,P|178:25|166:71,1,110,2|2,0:2|0:2,0:2:0:0:
375,223,61792,6,0,P|379:142|257:105,1,214.49999018097,6|0,0:2|0:0,0:0:0:0:
205,154,62109,6,0,P|252:184|307:174,1,110,6|0,3:2|3:2,0:0:0:0:
507,339,62427,1,10,0:2:0:0:
458,113,62586,1,8,0:2:0:0:
343,309,62744,1,2,3:2:0:0:
269,99,62903,1,0,3:2:0:0:
474,233,63062,1,10,0:2:0:0:
223,315,63221,6,0,B|218:287|183:258|183:258|207:221|205:153|205:153|214:172|230:186,1,220,2|2,3:2|3:2,0:0:0:0:
137,337,63617,1,0,3:2:0:0:
117,322,63697,2,0,P|94:272|104:219,1,110,10|10,0:2|0:2,0:0:0:0:
137,0,64014,1,0,3:2:0:0:
228,184,64173,1,2,3:2:0:0:
17,111,64332,2,0,L|126:100,1,110,10|2,0:2|0:2,0:0:0:0:
399,77,64649,5,2,3:2:0:0:
290,282,64808,1,2,3:2:0:0:
512,166,64967,1,10,0:2:0:0:
297,37,65125,2,0,L|313:157,1,110,10|0,0:2|3:2,0:0:0:0:
364,384,65443,1,2,3:2:0:0:
409,193,65602,1,8,0:2:0:0:
98,203,65760,6,0,B|180:219|180:219|206:262|206:262|310:285,1,220,2|2,3:2|3:2,0:0:0:0:
420,84,66157,1,0,3:2:0:0:
395,81,66236,2,0,P|341:106|305:158,1,110,10|10,0:2|0:2,0:0:0:0:
462,357,66554,1,0,3:2:0:0:
501,144,66713,1,0,3:2:0:0:
288,280,66871,6,0,P|389:259|405:158,1,214.49999018097,14|0,0:2|0:0,0:0:0:0:
395,81,67189,6,0,P|340:72|285:68,1,110,6|0,3:2|3:2,0:0:0:0:
79,147,67506,1,10,0:2:0:0:
324,195,67665,1,8,0:2:0:0:
174,41,67824,1,2,3:2:0:0:
83,279,67983,1,0,3:2:0:0:
0,75,68141,1,10,0:2:0:0:
210,179,68300,6,0,B|243:258|204:329|204:329|186:288|193:264,1,220,2|2,3:2|3:2,0:0:0:0:
324,195,68697,1,0,3:2:0:0:
342,212,68776,2,0,P|349:277|329:335,1,110,10|10,0:2|0:2,0:0:0:0:
279,103,69094,1,0,3:2:0:0:
474,221,69252,1,2,3:2:0:0:
471,3,69411,2,0,P|416:25|381:80,1,110,10|2,0:2|0:2,0:0:0:0:
445,328,69729,5,2,3:2:0:0:
474,102,69887,1,2,3:2:0:0:
268,265,70046,1,10,0:2:0:0:
206,32,70205,2,0,P|261:60|278:106,1,110,10|0,0:2|3:2,0:0:0:0:
186,316,70522,1,2,3:2:0:0:
193,123,70681,1,8,0:2:0:0:
377,276,70840,6,0,P|324:268|262:264,1,110,2|0,3:2|0:0,0:0:0:0:
474,102,71157,2,0,P|419:110|364:113,1,110,2|0,3:2|0:0,0:0:0:0:
512,235,71475,1,2,3:2:0:0:
374,19,71633,1,10,0:2:0:0:
100,117,71792,1,8,0:2:0:0:
112,82,71871,1,8,0:2:0:0:
136,55,71950,1,8,0:2:0:0:
168,37,72030,1,8,0:2:0:0:
204,32,72109,1,8,0:2:0:0:
240,39,72188,1,8,0:2:0:0:
271,59,72267,6,0,P|262:142|258:230,1,165,6|2,3:2|0:2,0:0:0:0:
262,258,72586,1,0,3:2:0:0:
364,112,72744,1,2,0:2:0:0:
153,183,72903,2,0,P|162:266|166:354,1,165,2|2,3:2|0:2,0:0:0:0:
146,372,73221,2,0,P|92:377|43:352,1,110,0|2,3:2|0:2,0:0:0:0:
95,117,73538,6,0,P|144:93|237:145,1,165,2|2,3:2|0:2,0:0:0:0:
248,174,73856,1,0,3:2:0:0:
417,26,74014,1,2,0:2:0:0:
364,238,74173,2,0,P|352:184|332:133,1,110,0|0,3:2|0:0,0:0:0:0:
481,300,74490,2,0,P|492:246|512:195,1,110,0|2,3:2|0:2,0:0:0:0:
344,341,74808,6,0,B|304:357|264:337|264:337|226:317|171:346,1,165,2|2,3:2|0:2,0:0:0:0:
158,351,75125,1,0,3:2:0:0:
248,174,75284,1,2,0:2:0:0:
59,57,75443,2,0,P|76:139|84:227,1,165,2|2,3:2|0:2,0:0:0:0:
64,248,75760,2,0,P|14:228|0:177,1,110,0|2,3:2|0:2,0:0:0:0:
169,22,76078,6,0,P|251:29|331:46,1,165,2|2,3:2|0:2,0:0:0:0:
362,61,76395,1,0,3:2:0:0:
271,233,76554,1,2,0:2:0:0:
511,188,76713,2,0,B|448:182|448:182|421:156|421:156|356:150,1,165,2|0,3:2|0:0,0:0:0:0:
336,175,77030,2,0,P|356:225|347:278,1,110,0|2,3:2|0:2,0:0:0:0:
112,255,77348,6,0,P|170:200|249:209,1,165,6|2,3:2|0:2,0:0:0:0:
271,233,77665,1,0,3:2:0:0:
391,374,77824,1,2,0:2:0:0:
511,188,77983,2,0,L|489:12,1,165,2|2,3:2|0:2,0:0:0:0:
464,8,78300,2,0,P|413:-11|360:0,1,110,0|2,3:2|0:2,0:0:0:0:
187,137,78617,6,0,P|237:75|315:85,1,165,2|2,3:2|0:2,0:0:0:0:
339,108,78935,1,0,3:2:0:0:
272,294,79094,1,2,0:2:0:0:
440,222,79252,2,0,L|330:212,1,110,2|0,3:2|0:0,0:0:0:0:
221,384,79570,2,0,L|330:374,1,110,0|0,3:2|0:0,0:0:0:0:
91,215,79887,6,0,L|200:225,1,110,2|0,3:2|0:0,0:0:0:0:
328,0,80205,2,0,L|338:109,1,110,2|0,3:2|0:0,0:0:0:0:
512,182,80522,2,0,P|500:129|459:93,1,110,2|0,3:2|0:0,0:0:0:0:
291,197,80840,2,0,P|342:213|394:196,1,110,2|0,3:2|0:0,0:0:0:0:
222,1,81157,6,0,P|276:-7|329:4,1,110,2|0,3:2|0:0,0:0:0:0:
169,94,81475,2,0,P|134:51|118:0,1,110,2|0,3:2|0:0,0:0:0:0:
0,188,81792,2,0,P|34:145|50:93,1,110,2|0,3:2|0:0,0:0:0:0:
63,323,82110,2,0,P|135:283|216:270,1,165,2|0,0:2|0:0,0:0:0:0:
248,269,82427,6,0,P|255:315|258:361,1,93.500001783371,4|0,3:2|3:2,0:0:0:0:
143,165,82743,1,8,0:2:0:0:
352,16,82902,1,8,0:2:0:0:
255,175,83061,1,0,3:2:0:0:
255,175,83221,1,0,3:2:0:0:
205,0,83379,1,8,0:2:0:0:
384,127,83538,6,0,B|377:199|377:199|352:232|352:232|346:304,1,187.000003566742,0|0,3:3|3:3,0:3:0:0:
512,335,83935,1,0,3:2:0:0:
512,317,84014,2,0,P|483:281|437:275,1,93.500001783371,8|8,0:2|0:2,0:0:0:0:
256,380,84332,1,0,3:2:0:0:
440,384,84490,1,0,3:2:0:0:
261,267,84649,2,0,B|248:219|248:219|262:166,1,93.500001783371,8|0,0:2|0:0,0:0:0:0:
504,105,84966,6,0,P|458:125|404:120,1,93.500001783371,0|0,3:2|3:2,0:0:0:0:
256,14,85283,1,8,0:2:0:0:
356,223,85442,1,8,0:2:0:0:
206,105,85602,1,0,3:2:0:0:
206,105,85760,1,0,3:2:0:0:
378,36,85919,1,8,0:2:0:0:
234,211,86077,1,0,3:0:0:0:
117,28,86235,6,0,L|100:126,1,93.500001783371,0|0,0:0|3:0,0:0:0:0:
5,231,86475,1,0,3:3:0:0:
12,215,86554,2,0,P|56:199|101:210,1,93.500001783371,8|8,0:2|0:2,0:3:0:0:
253,310,86871,1,0,3:2:0:0:
188,125,87030,1,0,3:2:0:0:
67,286,87189,2,0,B|60:337|60:337|78:375,1,93.500001783371,8|0,0:2|0:0,0:0:0:0:
327,218,87506,6,0,L|218:209,1,93.500001783371,4|0,3:2|3:2,0:0:0:0:
124,50,87823,1,8,0:2:0:0:
100,209,87982,1,8,0:2:0:0:
237,39,88140,1,0,3:2:0:0:
237,39,88300,1,0,3:2:0:0:
327,218,88459,1,8,0:2:0:0:
394,40,88617,6,0,B|340:56|340:56|327:186,1,187.000003566742,0|0,3:2|3:2,0:0:0:0:
206,331,89014,1,0,3:2:0:0:
221,324,89094,2,0,P|242:272|235:226,1,93.500001783371,8|8,0:2|0:2,0:0:0:0:
107,99,89411,1,0,3:2:0:0:
160,259,89570,1,0,3:2:0:0:
288,124,89729,2,0,B|247:145|247:145|179:132,1,93.500001783371,8|0,0:2|0:0,0:0:0:0:
337,293,90046,6,0,L|431:300,1,93.500001783371,0|0,3:2|3:2,0:0:0:0:
512,140,90362,1,8,0:2:0:0:
339,195,90521,1,8,0:2:0:0:
490,373,90681,1,0,3:2:0:0:
490,373,90840,1,0,3:2:0:0:
459,214,90998,1,8,0:2:0:0:
315,374,91157,1,0,3:2:0:0:
165,217,91316,6,0,P|204:194|250:194,1,93.500001783371,0|0,0:0|3:2,0:0:0:0:
389,92,91554,1,0,3:2:0:0:
370,100,91633,2,0,P|323:100|283:76,1,93.500001783371,8|8,0:2|0:2,0:0:0:0:
103,0,91951,1,0,3:2:0:0:
31,212,92110,1,0,3:2:0:0:
188,120,92268,2,0,B|179:102|160:82|160:82|116:102|57:93,1,140.250002675057,8|0,0:2|0:0,0:0:0:0:
37,82,92586,5,4,3:2:0:0:
100,296,102770,6,0,P|148:282|197:278,1,98.9999969787599,4|0,3:2|0:0,0:0:0:0:
168,76,103087,2,0,P|120:89|71:93,1,98.9999969787599,0|0,3:2|0:0,0:0:0:0:
101,306,103405,2,0,P|149:292|198:288,1,98.9999969787599,0|0,3:2|0:0,0:0:0:0:
165,64,103722,2,0,P|117:77|68:81,1,98.9999969787599,0|0,3:2|0:0,0:0:0:0:
284,145,104039,6,0,P|287:99|300:43,1,98.9999969787599,0|0,3:2|0:0,0:0:0:0:
480,173,104357,2,0,P|476:123|465:75,1,98.9999969787599,0|0,3:2|0:0,0:0:0:0:
274,152,104674,2,0,P|277:106|290:50,1,98.9999969787599,0|0,3:2|0:0,0:0:0:0:
491,179,104992,2,0,P|487:129|476:81,1,98.9999969787599,0|0,3:2|0:0,0:0:0:0:
329,247,105309,6,0,L|229:258,1,98.9999969787599,0|0,3:2|0:0,0:0:0:0:
415,373,105627,2,0,L|315:362,1,98.9999969787599,0|0,3:2|0:0,0:0:0:0:
339,238,105944,2,0,L|239:249,1,98.9999969787599,0|0,3:2|0:0,0:0:0:0:
430,384,106262,2,0,L|330:373,1,98.9999969787599,0|0,3:2|0:0,0:0:0:0:
107,375,106579,6,0,P|137:336|142:288,1,98.9999969787599,0|0,3:2|0:0,0:0:0:0:
64,113,106895,2,0,P|81:158|121:187,1,98.9999969787599,0|0,3:2|0:0,0:0:0:0:
116,384,107212,2,0,P|146:345|151:297,1,98.9999969787599,0|0,3:2|0:0,0:0:0:0:
54,110,107528,2,0,P|71:155|111:184,1,98.9999969787599,0|0,3:2|0:0,0:0:0:0:
332,196,107845,6,0,P|283:188|239:208,1,98.9999969787599,4|0,3:2|3:2,0:0:0:0:
126,54,108162,1,0,3:2:0:0:
146,67,108241,1,0,3:2:0:0:
170,74,108320,1,0,3:2:0:0:
195,73,108399,1,0,3:2:0:0:
218,66,108478,1,0,3:2:0:0:
241,58,108557,1,0,3:2:0:0:
266,58,108637,1,0,3:2:0:0:
289,65,108716,1,0,3:2:0:0:
310,78,108795,1,0,3:2:0:0:
324,97,108874,1,0,3:2:0:0:
332,121,108953,1,0,3:2:0:0:
332,145,109032,1,0,3:2:0:0:
327,169,109111,5,0,3:2:0:0:
300,143,109191,1,0,3:2:0:0:
287,108,109270,1,0,3:2:0:0:
290,72,109349,1,0,3:2:0:0:
307,39,109428,1,0,3:2:0:0:
336,17,109507,1,0,3:2:0:0:
372,9,109586,1,0,3:2:0:0:
408,17,109666,1,0,3:2:0:0:
438,39,109745,1,0,3:2:0:0:
453,72,109824,1,0,3:2:0:0:
457,109,109903,1,0,3:2:0:0:
447,144,109982,1,0,3:2:0:0:
427,175,110061,1,0,3:2:0:0:
407,207,110141,1,0,3:2:0:0:
398,242,110220,1,0,3:2:0:0:
402,279,110299,1,0,3:2:0:0:
416,313,110378,6,0,P|463:327|512:323,1,98.9999969787599,0|0,3:2|0:0,0:0:0:0:
331,186,110695,2,0,P|378:171|427:175,1,98.9999969787599,0|0,3:2|0:0,0:0:0:0:
197,285,111011,2,0,P|244:299|293:295,1,98.9999969787599,0|0,3:2|0:0,0:0:0:0:
111,157,111328,2,0,P|158:142|207:146,1,98.9999969787599,0|0,3:2|0:0,0:0:0:0:
37,384,111951,6,0,P|37:282|128:236,1,214.49999018097,6|0,0:2|0:0,0:0:0:0:
197,285,112268,6,0,P|255:302|315:297,1,110,6|0,3:2|3:2,0:0:0:0:
477,99,112585,1,10,0:2:0:0:
423,320,112744,1,8,0:2:0:0:
285,110,112902,1,2,3:2:0:0:
488,216,113061,1,0,3:2:0:0:
381,6,113220,1,10,0:2:0:0:
153,211,113379,6,0,B|106:160|113:71|113:71|149:65|181:75,1,220,2|2,3:2|3:2,0:0:0:0:
364,143,113775,1,0,3:2:0:0:
349,171,113855,2,0,P|301:197|248:188,1,110,10|10,0:2|0:2,0:0:0:0:
381,6,114172,1,0,3:2:0:0:
436,226,114331,1,2,3:2:0:0:
285,110,114490,2,0,P|229:85|171:73,1,110,10|2,0:2|0:2,0:0:0:0:
4,247,114807,5,2,3:2:0:0:
217,174,114966,1,0,3:2:0:0:
84,363,115125,1,10,0:2:0:0:
4,137,115283,2,0,P|56:125|107:143,1,110,10|0,0:2|3:2,0:0:0:0:
270,357,115601,1,2,3:2:0:0:
360,146,115760,1,8,0:2:0:0:
505,355,115918,6,0,P|441:367|390:244,1,220,2|2,3:2|3:2,0:0:0:0:
480,58,116315,1,0,3:2:0:0:
497,75,116394,2,0,P|507:128|497:182,1,110,8|10,0:2|0:2,0:0:0:0:
287,253,116712,1,2,3:2:0:0:
375,48,116871,1,0,3:2:0:0:
184,250,117029,6,0,P|244:166|347:170,1,214.49999018097,14|0,0:2|0:0,0:0:0:0:
389,246,117347,6,0,P|381:305|379:373,1,110,6|0,3:2|3:2,0:0:0:0:
496,182,117664,1,10,0:2:0:0:
287,253,117823,1,8,0:2:0:0:
375,48,117982,1,2,3:2:0:0:
163,127,118141,1,0,3:2:0:0:
378,157,118299,1,10,0:2:0:0:
228,20,118458,6,0,B|238:104|238:104|276:135|276:135|283:221,1,220,2|2,3:2|3:2,0:0:0:0:
149,335,118855,1,0,3:2:0:0:
138,313,118934,2,0,P|147:259|183:219,1,110,10|10,0:2|0:2,0:0:0:0:
378,157,119252,1,0,3:2:0:0:
157,106,119410,1,2,3:2:0:0:
273,330,119569,2,0,L|283:212,1,110,10|2,0:2|0:2,0:0:0:0:
299,0,119887,5,2,3:2:0:0:
483,138,120045,1,2,3:2:0:0:
270,120,120204,1,10,0:2:0:0:
391,296,120363,2,0,L|381:186,1,110,10|0,0:2|3:2,0:0:0:0:
157,106,120680,1,2,3:2:0:0:
256,301,120839,1,8,0:2:0:0:
49,213,120998,6,0,L|169:202,1,110,2|0,3:2|0:0,0:0:0:0:
333,374,121315,1,2,3:2:0:0:
115,335,121474,1,8,0:2:0:0:
274,142,121633,1,2,3:2:0:0:
274,142,121712,1,0,3:2:0:0:
274,142,121791,1,10,0:2:0:0:
53,82,121950,1,0,3:2:0:0:
304,220,122109,6,0,P|360:135|308:48,1,214.49999018097,14|0,0:2|0:0,0:0:0:0:
210,59,122426,6,0,P|231:113|288:144,1,110,6|0,3:2|3:2,0:0:0:0:
507,43,122744,1,10,0:2:0:0:
417,237,122902,1,8,0:2:0:0:
308,48,123061,1,2,3:2:0:0:
214,260,123220,1,0,3:2:0:0:
415,122,123379,1,10,0:2:0:0:
386,384,123537,6,0,B|323:358|323:358|328:206,1,220,2|2,3:2|3:2,0:0:0:0:
512,171,123934,1,0,3:2:0:0:
512,195,124014,2,0,P|464:233|415:237,1,110,10|10,0:2|0:2,0:0:0:0:
197,165,124331,1,0,3:2:0:0:
415,122,124490,1,2,3:2:0:0:
241,280,124648,2,0,L|131:266,1,110,10|2,0:2|0:2,0:0:0:0:
12,79,124966,5,2,3:2:0:0:
227,175,125125,1,0,3:2:0:0:
31,292,125283,1,10,0:2:0:0:
110,46,125442,2,0,L|121:155,1,110,10|0,0:2|3:2,0:0:0:0:
176,376,125760,1,2,3:2:0:0:
33,198,125918,1,8,0:2:0:0:
286,294,126077,6,0,B|318:232|289:148|289:148|257:177|226:174,1,220,2|2,3:2|3:2,0:0:0:0:
110,46,126474,1,0,3:2:0:0:
133,35,126553,2,0,P|186:39|221:80,1,110,8|10,0:2|0:2,0:0:0:0:
423,190,126871,1,2,3:2:0:0:
318,0,127029,1,0,3:2:0:0:
210,295,127188,6,0,P|248:196|347:167,1,214.49999018097,14|0,0:2|0:0,0:0:0:0:
423,190,127506,6,0,L|430:299,1,110,6|0,3:2|3:2,0:0:0:0:
411,68,127823,1,10,0:2:0:0:
329,305,127982,1,8,0:2:0:0:
153,146,128141,1,2,3:2:0:0:
101,363,128299,1,0,3:2:0:0:
268,210,128458,1,10,0:2:0:0:
54,109,128617,6,0,B|16:184|72:259|72:259|88:226|78:200,1,220,2|2,3:2|3:2,0:0:0:0:
196,45,129014,1,0,3:2:0:0:
179,48,129093,2,0,P|148:92|152:145,1,110,10|10,0:2|0:2,0:0:0:0:
329,305,129410,1,0,3:2:0:0:
311,83,129569,1,2,3:2:0:0:
159,242,129728,2,0,L|268:228,1,110,10|2,0:2|0:2,0:0:0:0:
477,87,130045,5,2,3:2:0:0:
221,26,130204,1,0,3:2:0:0:
406,204,130363,1,10,0:2:0:0:
234,327,130521,2,0,P|238:272|268:227,1,110,10|0,0:2|3:2,0:0:0:0:
497,177,130839,1,2,3:2:0:0:
367,367,130998,1,8,0:2:0:0:
382,97,131156,6,0,P|398:149|405:203,1,110,2|0,3:2|0:0,0:0:0:0:
197,132,131474,2,0,P|204:77|220:25,1,110,2|2,3:2|0:2,0:0:0:0:
267,227,131791,1,2,3:2:0:0:
25,144,131950,1,10,0:2:0:0:
71,338,132109,1,8,0:2:0:0:
115,347,132188,1,8,0:2:0:0:
157,330,132267,1,8,0:2:0:0:
184,294,132347,1,8,0:2:0:0:
187,249,132426,1,8,0:2:0:0:
165,209,132505,1,8,0:2:0:0:
125,188,132585,6,0,P|108:136|123:83,1,110,6|0,3:2|0:0,0:0:0:0:
362,187,132902,2,0,P|376:134|360:82,1,110,10|0,0:2|0:0,0:0:0:0:
270,278,133220,1,2,3:2:0:0:
483,172,133379,1,2,0:2:0:0:
260,138,133537,1,10,0:2:0:0:
403,342,133696,6,0,L|512:330,1,110,2|0,0:2|3:2,0:0:0:0:
270,278,134014,2,0,L|160:266,1,110,2|8,0:2|0:2,0:0:0:0:
362,187,134331,1,2,0:2:0:0:
188,20,134490,2,0,P|87:48|71:151,1,220,2|10,3:2|0:2,0:0:0:0:
198,379,134966,1,2,0:2:0:0:
338,163,135125,6,0,L|228:175,1,110,2|0,3:2|0:0,0:0:0:0:
15,245,135442,2,0,L|125:257,1,110,10|2,0:2|0:2,0:0:0:0:
346,281,135760,1,2,3:2:0:0:
240,54,135918,1,2,0:2:0:0:
124,256,136077,1,10,0:2:0:0:
338,163,136236,6,0,P|350:109|350:54,1,110,2|0,0:2|3:2,0:0:0:0:
511,216,136553,2,0,P|498:162|498:107,1,110,2|8,0:2|0:2,0:0:0:0:
373,279,136871,1,2,0:2:0:0:
241,87,137029,1,2,3:2:0:0:
207,333,137188,1,10,0:2:0:0:
92,129,137347,1,0,3:2:0:0:
338,163,137506,1,10,0:2:0:0:
107,370,137664,6,0,L|116:260,1,110,4|0,3:2|0:0,0:0:0:0:
241,87,137982,2,0,L|250:196,1,110,10|2,0:2|0:2,0:0:0:0:
442,368,138299,1,2,3:2:0:0:
367,148,138458,1,2,0:2:0:0:
288,362,138617,1,10,0:2:0:0:
126,168,138775,6,0,L|136:57,1,110,2|0,0:2|3:2,0:0:0:0:
6,270,139093,2,0,L|117:260,1,110,2|8,0:2|0:2,0:0:0:0:
376,235,139410,1,2,0:2:0:0:
184,348,139569,1,2,3:2:0:0:
269,134,139728,1,2,0:2:0:0:
409,348,139887,1,10,0:2:0:0:
494,134,140046,1,2,0:2:0:0:
266,245,140204,6,0,L|384:234,1,110,2|2,3:2|0:2,0:0:0:0:
512,43,140521,2,0,L|402:32,1,110,10|2,0:2|0:2,0:0:0:0:
170,134,140839,1,2,3:2:0:0:
388,126,140998,1,2,0:2:0:0:
216,0,141156,1,10,0:2:0:0:
266,245,141315,6,0,P|266:190|278:136,1,110,2|0,0:2|3:2,0:0:0:0:
485,224,141633,1,2,0:2:0:0:
316,371,141791,2,0,P|262:358|207:358,1,110,10|0,0:2|0:0,0:0:0:0:
96,181,142109,1,2,3:2:0:0:
0,343,142268,1,8,0:2:0:0:
44,351,142347,1,8,0:2:0:0:
87,337,142426,1,8,0:2:0:0:
119,305,142506,1,8,0:2:0:0:
133,262,142585,1,10,0:2:0:0:
124,217,142664,1,8,0:2:0:0:
96,182,142744,6,0,P|80:130|93:77,1,110,6|0,3:2|0:0,0:0:0:0:
43,260,143061,1,10,0:2:0:0:
233,150,143220,2,0,P|284:134|337:147,1,110,2|0,0:2|3:2,0:0:0:0:
337,368,143537,2,0,P|297:331|282:278,1,110,2|8,0:2|0:2,0:0:0:0:
443,101,143855,6,0,L|428:231,1,110,2|0,0:2|3:2,0:0:0:0:
220,40,144172,2,0,L|235:170,1,110,2|8,0:2|0:2,0:0:0:0:
138,360,144490,1,2,0:2:0:0:
8,188,144648,2,0,P|19:85|120:62,1,220,2|10,3:2|0:2,0:0:0:0:
340,98,145125,1,2,0:2:0:0:
254,295,145283,6,0,L|241:185,1,110,0|2,3:2|0:2,0:0:0:0:
405,354,145601,2,0,L|417:244,1,110,8|2,0:2|0:2,0:0:0:0:
450,0,145918,1,2,3:2:0:0:
512,181,146077,1,2,0:2:0:0:
319,73,146236,1,10,0:2:0:0:
260,284,146394,6,0,P|307:258|333:210,1,110,2|0,0:2|3:2,0:0:0:0:
230,11,146712,1,2,0:2:0:0:
110,228,146871,1,10,0:2:0:0:
293,91,147029,1,2,0:2:0:0:
75,115,147188,1,2,3:2:0:0:
260,284,147347,1,2,0:2:0:0:
42,308,147506,2,0,P|8:265|1:211,1,110,10|0,0:2|0:0,0:0:0:0:
107,4,147823,5,0,3:2:0:0:
229,192,147982,1,8,0:2:0:0:
2,56,148141,1,2,3:2:0:0:
122,253,148299,1,2,3:2:0:0:
122,253,148379,1,0,3:0:0:0:
122,253,148458,2,0,P|129:198|116:145,1,110,10|0,0:2|3:2,0:0:0:0:
328,15,148775,2,0,P|314:68|322:122,1,110,2|2,0:2|3:2,0:0:0:0:
468,324,149093,5,12,0:2:0:0:
468,324,150363,6,0,P|418:324|369:331,1,98.9999969787599,4|0,3:2|3:2,0:0:0:0:
212,180,150680,1,8,0:2:0:0:
96,384,150839,1,8,0:2:0:0:
92,201,150998,1,0,3:2:0:0:
92,201,151157,1,0,3:2:0:0:
246,370,151315,1,8,0:2:0:0:
407,236,151474,6,0,B|399:161|399:161|362:141|362:141|351:61,1,197.99999395752,0|0,3:2|3:2,0:0:0:0:
512,14,151871,1,0,3:2:0:0:
512,34,151950,2,0,P|486:74|439:81,1,98.9999969787599,8|8,0:2|0:2,0:0:0:0:
250,53,152267,1,0,3:2:0:0:
318,229,152426,1,0,3:2:0:0:
106,181,152585,2,0,L|204:167,1,98.9999969787599,8|0,0:2|0:0,0:0:0:0:
31,316,152902,6,0,L|129:329,1,98.9999969787599,0|0,3:2|3:2,0:0:0:0:
318,229,153220,1,8,0:2:0:0:
106,181,153379,1,8,0:2:0:0:
271,82,153537,1,0,3:2:0:0:
271,82,153696,1,0,3:2:0:0:
216,262,153855,1,8,0:2:0:0:
505,168,154014,6,0,P|489:106|355:84,1,197.99999395752,0|0,3:2|3:2,0:0:0:0:
396,255,154410,1,0,3:2:0:0:
413,245,154490,2,0,P|428:198|414:152,1,98.9999969787599,8|8,0:2|0:2,0:0:0:0:
317,0,154807,1,0,3:2:0:0:
336,197,154966,1,0,3:2:0:0:
173,96,155125,2,0,L|271:83,1,98.9999969787599,8|0,0:2|0:0,0:0:0:0:
137,253,155442,5,12,0:2:0:0:
33,54,155601,1,8,0:2:0:0:
43,250,155760,2,0,P|55:202|55:153,1,98.9999969787599,0|0,3:2|0:0,0:0:0:0:
161,0,156077,2,0,P|160:49|173:96,1,98.9999969787599,0|0,3:2|0:0,0:0:0:0:
344,255,156394,1,0,3:2:0:0:
271,83,156553,6,0,L|254:301,1,197.99999395752,8|8,0:2|0:2,0:0:0:0:
85,384,157029,1,0,3:2:0:0:
169,223,157188,1,0,3:0:0:0:
312,370,157347,2,0,L|205:378,1,98.9999969787599,0|0,3:2|0:0,0:0:0:0:
442,262,157664,2,0,L|335:254,1,98.9999969787599,0|0,3:2|0:0,0:0:0:0:
145,86,157982,5,0,3:0:0:0:
346,144,158141,1,0,3:0:0:0:
255,280,158299,1,8,0:2:0:0:
270,56,158458,1,8,0:2:0:0:
101,203,158617,1,8,0:2:0:0:
19,4,158776,1,8,0:2:0:0:
233,158,158934,1,8,0:2:0:0:
39,336,159093,5,4,3:2:0:0:
256,192,159252,12,0,164331,0:0:0:0:
