osu file format v14

[General]
AudioFilename: audio.mp3
AudioLeadIn: 0
PreviewTime: 111190
Countdown: 1
SampleSet: Normal
StackLeniency: 0.7
Mode: 0
LetterboxInBreaks: 0
WidescreenStoryboard: 0

[Editor]
DistanceSpacing: 1.3
BeatDivisor: 4
GridSize: 4
TimelineZoom: 1.5

[Metadata]
Title:Dream Dashers
TitleUnicode:Dream Dashers
Artist:Hellblinde
ArtistUnicode:Hellblinde
Creator:Flutternye
Version:Dash
Source:
Tags:
BeatmapID:1273997
BeatmapSetID:603163

[Difficulty]
HPDrainRate:6
CircleSize:4.2
OverallDifficulty:6
ApproachRate:9.6
SliderMultiplier:2.4
SliderTickRate:1

[Events]
//Background and Video events
0,0,"52927393_p0.jpg",0,0
//Break Periods
//Storyboard Layer 0 (Background)
//Storyboard Layer 1 (Fail)
//Storyboard Layer 2 (Pass)
//Storyboard Layer 3 (Foreground)
//Storyboard Sound Samples

[TimingPoints]
191,352.941176470588,4,1,1,100,1,0
4779,-66.6666666666667,4,1,1,100,0,0
5838,-100,4,1,1,100,0,0
10426,-66.6666666666667,4,1,1,100,0,0
11485,-100,4,1,1,100,0,0
14308,-66.6666666666667,4,1,1,100,0,0
17485,-100,4,1,1,100,0,0
17749,-66.6666666666667,4,1,1,100,0,0
19073,-100,4,1,1,100,0,0
21014,-100,4,1,1,100,0,0
21720,-200,4,1,1,100,0,0
22073,-100,4,1,1,100,0,0
22426,-66.6666666666667,4,1,1,100,0,0
26661,-66.6666666666667,4,1,1,100,0,0
28249,-133.333333333333,4,1,1,100,0,0
28426,-66.6666666666667,4,1,1,100,0,0
48543,-100,4,1,1,100,0,0
102896,-133.333333333333,4,1,1,100,0,0
111190,-133.333333333333,4,1,1,100,0,1
111543,-100,4,1,1,100,0,1
112249,-100,4,1,1,100,0,1
140661,-200,4,1,1,100,0,1
141367,-133.333333333333,4,1,1,100,0,1
141720,-100,4,1,1,100,0,1
142073,-66.6666666666667,4,1,1,100,0,0
142426,-100,4,1,1,100,0,0
145602,-200,4,1,1,100,0,0
147014,-133.333333333333,4,1,1,100,0,0
147367,-100,4,1,1,100,0,0
147720,-66.6666666666667,4,1,1,100,0,0
173308,-100,4,1,1,100,0,0
206661,-66.6666666666667,4,1,1,100,0,0
211602,-100,4,1,1,100,0,0
213014,-133.333333333333,4,1,1,100,0,0
214426,-200,4,1,1,100,0,0

[HitObjects]
168,248,191,5,8,0:0:0:0:
152,92,367,2,0,P|212:76|232:84,1,60
228,80,543,1,8,0:0:0:0:
252,92,632,1,0,0:0:0:0:
404,160,808,5,0,0:0:0:0:
404,160,896,1,8,0:0:0:0:
404,160,985,1,0,0:0:0:0:
404,160,1073,1,0,0:0:0:0:
168,28,1249,5,8,0:0:0:0:
412,312,1426,1,0,0:0:0:0:
252,284,1602,2,0,P|248:232|240:240,1,120,8|0,0:0|0:0,0:0:0:0:
256,288,1955,2,0,P|292:200|288:144,1,120,8|0,0:0|0:0,0:0:0:0:
108,60,2308,6,0,P|79:103|91:102,1,120,8|0,0:0|0:0,0:0:0:0:
108,60,2661,2,0,P|168:120|216:132,1,120,8|0,0:0|0:0,0:0:0:0:
488,188,3014,1,8,0:0:0:0:
64,288,3190,1,0,0:0:0:0:
488,188,3367,6,8,P|408:240|252:244,1,240
56,48,4073,6,8,P|200:44|300:72,1,240
412,40,4779,6,0,P|368:168|296:264,1,180.000006866455,8|0,0:0|0:0,0:0:0:0:
56,316,5132,2,0,P|112:216|208:104,1,180.000006866455,8|0,0:0|0:0,0:0:0:0:
412,40,5485,2,0,P|368:168|296:264,1,180.000006866455,8|0,0:0|0:0,0:0:0:0:
168,248,5838,5,8,0:0:0:0:
256,56,6014,1,0,0:0:0:0:
236,80,6102,1,0,0:0:0:0:
260,92,6190,1,8,0:0:0:0:
240,108,6279,1,0,0:0:0:0:
404,160,6455,5,0,0:0:0:0:
404,160,6543,1,8,0:0:0:0:
404,160,6632,1,0,0:0:0:0:
404,160,6720,1,0,0:0:0:0:
168,28,6896,1,8,0:0:0:0:
412,312,7073,1,0,0:0:0:0:
252,284,7249,6,0,P|248:232|240:240,1,120,8|0,0:0|0:0,0:0:0:0:
256,288,7602,2,0,P|292:200|288:144,1,120,8|0,0:0|0:0,0:0:0:0:
108,60,7955,6,0,P|79:103|91:102,1,120,8|0,0:0|0:0,0:0:0:0:
108,60,8308,2,0,P|168:120|216:132,1,120,8|0,0:0|0:0,0:0:0:0:
488,188,8661,1,8,0:0:0:0:
64,288,8837,1,0,0:0:0:0:
488,188,9014,6,8,P|408:240|252:244,1,240
56,48,9720,2,8,P|200:44|300:72,1,240
412,40,10426,6,0,P|368:168|296:264,1,180.000006866455,8|0,0:0|0:0,0:0:0:0:
56,316,10779,2,0,P|112:216|208:104,1,180.000006866455,8|0,0:0|0:0,0:0:0:0:
412,40,11132,2,0,P|368:168|296:264,1,180.000006866455,8|0,0:0|0:0,0:0:0:0:
132,192,11485,6,0,P|168:136|160:80,1,120,8|0,0:0|0:0,0:0:0:0:
436,192,11838,2,0,P|412:248|424:312,1,120,8|0,0:0|0:0,0:0:0:0:
160,96,12190,2,0,P|228:68|256:28,1,120,8|0,0:0|0:0,0:0:0:0:
420,304,12543,2,0,P|324:296|284:328,1,120,8|0,0:0|0:0,0:0:0:0:
254,31,12896,2,0,L|330:31,2,60,8|0|0,0:0|0:0|0:0,0:0:0:0:
306,305,13249,2,0,L|218:305,2,60,8|0|0,0:0|0:0|0:0,0:0:0:0:
160,112,13602,1,8,0:0:0:0:
160,112,13690,1,0,0:0:0:0:
160,112,13779,1,0,0:0:0:0:
304,304,13955,2,0,L|368:304,2,60,8|0|0,0:0|0:0|0:0,0:0:0:0:
40,284,14308,5,8,0:0:0:0:
40,284,14396,1,0,0:0:0:0:
40,284,14485,1,0,0:0:0:0:
260,180,14661,2,8,P|232:84|224:212,1,360.000013732911
196,144,15190,5,0,0:0:0:0:
184,212,15367,2,8,P|136:108|248:192,1,360.000013732911
384,296,15896,5,0,0:0:0:0:
312,308,16073,2,0,P|400:364|352:232,1,270.000010299683,8|0,0:0|0:0,0:0:0:0:
312,308,16426,2,0,P|396:348|324:252,1,270.000010299683,8|0,0:0|0:0,0:0:0:0:
312,308,16779,2,0,P|412:316|292:240,1,360.000013732911,8|8,0:0|0:0,0:0:0:0:
368,256,17220,6,0,L|368:160,1,90.0000034332277
340,88,17396,1,0,0:0:0:0:
340,116,17485,2,0,P|332:184|304:228,1,120
288,244,17749,1,0,0:0:0:0:
268,264,17838,1,8,0:0:0:0:
244,280,17926,1,0,0:0:0:0:
224,296,18014,1,0,0:0:0:0:
96,104,18190,6,0,P|196:72|232:104,1,90.0000034332277
456,192,18367,2,0,P|416:272|376:276,1,90.0000034332277
120,312,18543,2,0,P|212:288|256:260,1,90.0000034332277
352,192,18720,2,0,L|476:52,1,180.000006866455,0|8,0:0|0:0,0:0:0:0:
192,48,19073,2,0,L|136:92,2,60,0|0|8,0:0|0:0|0:0,0:0:0:0:
256,296,19426,2,0,L|304:252,2,60,0|0|8,0:0|0:0|0:0,0:0:0:0:
192,48,19779,2,0,L|136:92,2,60,0|0|8,0:0|0:0|0:0,0:0:0:0:
64,324,20132,6,0,B|148:324|148:324|200:272,1,120,0|8,0:0|0:0,0:0:0:0:
336,100,20485,1,0,0:0:0:0:
472,248,20661,2,0,B|392:248|392:248|360:292,1,120,8|0,0:0|0:0,0:0:0:0:
80,192,21014,2,0,B|156:192|156:192|192:144,1,120,8|0,0:0|0:0,0:0:0:0:
256,32,21367,1,8,0:0:0:0:
456,192,21543,1,0,0:0:0:0:
256,312,21720,6,0,L|324:272,1,60,8|0,0:0|0:0,0:0:0:0:
256,312,22073,2,0,L|368:244,1,120,8|0,0:0|0:0,0:0:0:0:
256,312,22426,2,0,L|416:216,1,180.000006866455,8|0,0:0|0:0,0:0:0:0:
92,192,22779,5,8,0:0:0:0:
256,32,22955,1,0,0:0:0:0:
420,196,23132,2,8,B|348:256|348:256|348:168|348:168|200:280,1,360.000013732911
208,272,24190,5,8,0:0:0:0:
208,272,24279,1,8,0:0:0:0:
208,272,24367,1,8,0:0:0:0:
208,272,24455,1,8,0:0:0:0:
208,272,24543,1,8,0:0:0:0:
208,272,24632,1,8,0:0:0:0:
208,272,24720,1,8,0:0:0:0:
208,272,24808,1,8,0:0:0:0:
208,272,24896,1,8,0:0:0:0:
208,272,25249,1,8,0:0:0:0:
208,272,25602,6,0,B|308:272|308:272|252:216,1,180.000006866455,8|0,0:0|0:0,0:0:0:0:
80,44,25955,1,8,0:0:0:0:
296,112,26132,1,0,0:0:0:0:
324,124,26220,1,0,0:0:0:0:
352,136,26308,2,0,B|428:192|428:192|332:192,1,180.000006866455,8|0,0:0|0:0,0:0:0:0:
320,192,26573,1,0,0:0:0:0:
296,192,26661,2,8,B|88:192|88:192|104:272|152:312|152:312|192:260,1,360.000013732911
344,44,27190,5,0,0:0:0:0:
260,344,27367,1,8,0:0:0:0:
308,192,27543,2,0,B|324:64|208:52|112:124|112:124|204:168|204:168|124:212|140:264|168:288,1,540.000020599366,0|8,0:0|0:0,0:0:0:0:
320,344,28249,2,0,P|364:356|396:352,2,45.0000017166138,0|0|8,0:0|0:0|0:0,0:0:0:0:
476,192,28602,5,0,0:0:0:0:
40,192,28779,1,8,0:0:0:0:
256,40,28955,1,0,0:0:0:0:
256,40,29043,1,0,0:0:0:0:
256,40,29132,1,8,0:0:0:0:
256,336,29308,6,0,L|296:156,1,180.000006866455,0|8,0:0|0:0,0:0:0:0:
256,336,29661,2,0,L|212:136,1,180.000006866455,0|8,0:0|0:0,0:0:0:0:
264,40,30014,2,0,B|324:304|324:304|476:84|476:84|344:84|168:148|164:148|164:148|88:108,1,900.000034332277,0|8,0:0|0:0,0:0:0:0:
126,128,31073,1,0,0:0:0:0:
40,308,31249,6,0,P|112:228|200:280,1,180.000006866455,8|0,0:0|0:0,0:0:0:0:
412,208,31602,2,8,P|372:312|292:304,2,180.000006866455
256,48,32132,1,8,0:0:0:0:
256,48,32308,2,8,B|108:48|108:48|124:152|232:92|232:92|232:200,1,360.000013732911
232,352,32838,5,0,0:0:0:0:
472,192,33014,1,8,0:0:0:0:
256,156,33190,2,0,L|72:108,1,180.000006866455,0|8,0:0|0:0,0:0:0:0:
160,280,33543,2,0,B|376:332|376:332|440:320|440:320|400:256|400:256|308:264|240:224|260:124,1,540.000020599366,0|8,0:0|0:0,0:0:0:0:
258,180,34249,1,0,0:0:0:0:
64,192,34426,1,8,0:0:0:0:
432,192,34602,1,0,0:0:0:0:
128,272,34779,1,8,0:0:0:0:
384,112,34955,1,0,0:0:0:0:
224,288,35132,5,8,0:0:0:0:
248,284,35220,1,8,0:0:0:0:
284,264,35308,1,8,0:0:0:0:
308,224,35396,1,8,0:0:0:0:
312,168,35485,1,8,0:0:0:0:
284,116,35573,1,8,0:0:0:0:
228,88,35661,1,8,0:0:0:0:
168,108,35749,1,8,0:0:0:0:
136,164,35838,1,8,0:0:0:0:
144,228,35926,2,8,L|160:276,8,45.0000017166138
136,164,36367,1,8,0:0:0:0:
168,108,36455,1,8,0:0:0:0:
228,88,36543,1,8,0:0:0:0:
440,328,36896,6,0,P|300:264|248:184,1,180.000006866455,8|0,0:0|0:0,0:0:0:0:
112,32,37249,2,0,P|264:124|304:196,1,180.000006866455,8|0,0:0|0:0,0:0:0:0:
180,244,37602,2,0,P|96:296|116:236,1,180.000006866455,8|0,0:0|0:0,0:0:0:0:
356,136,37955,2,0,P|372:60|448:96,1,180.000006866455,8|0,0:0|0:0,0:0:0:0:
452,288,38308,2,0,P|400:368|380:376,2,90.0000034332277,8|0|0,0:0|0:0|0:0,0:0:0:0:
452,48,38661,1,8,0:0:0:0:
104,192,38838,6,0,P|200:200|436:72,1,360.000013732911
164,80,39367,5,8,0:0:0:0:
416,76,39543,1,0,0:0:0:0:
136,148,39720,1,8,0:0:0:0:
388,144,39896,1,0,0:0:0:0:
104,216,40073,1,8,0:0:0:0:
356,212,40249,1,0,0:0:0:0:
224,344,40426,1,8,0:0:0:0:
104,216,40602,1,0,0:0:0:0:
232,92,40779,1,8,0:0:0:0:
356,212,40955,1,0,0:0:0:0:
224,344,41132,6,8,B|128:244|80:192|80:192|244:192|244:192|112:132|136:32|228:-32|320:56,1,720.000027465821
428,192,42014,6,0,P|464:280|456:308,1,90.0000034332277
428,192,42190,2,0,P|416:292|400:320,1,90.0000034332277,8|0,0:0|0:0,0:0:0:0:
256,328,42367,6,0,P|200:252|192:216,1,90.0000034332277
256,328,42543,2,0,P|236:232|240:208,1,90.0000034332277,8|0,0:0|0:0,0:0:0:0:
264,60,42720,6,0,P|292:160|292:192,1,90.0000034332277
116,304,42896,2,0,P|204:260|224:240,1,90.0000034332277,8|0,0:0|0:0,0:0:0:0:
384,108,43073,2,0,P|288:136|264:160,1,90.0000034332277
256,328,43249,2,0,P|276:232|272:200,1,90.0000034332277,8|0,0:0|0:0,0:0:0:0:
260,60,43426,2,0,P|232:152|232:180,1,90.0000034332277
256,328,43602,6,0,B|336:240|340:84|340:84|272:124|256:232,1,360.000013732911,8|8,0:0|0:0,0:0:0:0:
256,328,44132,1,0,0:0:0:0:
256,328,44308,2,0,B|216:280|200:200|200:200|236:200|284:252,1,180.000006866455,8|0,0:0|0:0,0:0:0:0:
480,292,44661,1,8,0:0:0:0:
304,96,44838,6,0,P|228:40|136:32,2,180.000006866455,0|8|0,0:0|0:0|0:0,0:0:0:0:
444,124,45367,2,0,P|432:232|220:336,1,360.000013732911,8|0,0:0|0:0,0:0:0:0:
344,216,45896,2,0,P|376:120|344:48,1,180.000006866455,0|8,0:0|0:0,0:0:0:0:
64,192,46249,2,0,B|120:320|192:344|192:344|196:224|136:56|136:56|248:116|276:248|276:248|316:176|296:88,1,900.000034332277,0|8,0:0|0:0,0:0:0:0:
296,96,47838,5,8,0:0:0:0:
296,96,48190,1,8,0:0:0:0:
296,96,48543,2,0,P|296:176|272:232,1,120,8|0,0:0|0:0,0:0:0:0:
268,252,48896,2,0,P|312:176|384:152,1,120,8|0,0:0|0:0,0:0:0:0:
376,136,49249,2,0,P|296:172|216:168,1,120,8|0,0:0|0:0,0:0:0:0:
208,180,49602,2,0,P|300:192|336:228,1,120,8|0,0:0|0:0,0:0:0:0:
356,272,49955,6,8,P|320:200|176:92,1,240
198,100,50485,1,0,0:0:0:0:
168,92,50661,1,8,0:0:0:0:
128,80,50838,1,0,0:0:0:0:
384,176,51014,2,0,L|496:224,1,120,8|0,0:0|0:0,0:0:0:0:
256,264,51367,2,0,L|148:332,1,120,8|0,0:0|0:0,0:0:0:0:
132,84,51720,2,0,L|248:12,1,120,8|0,0:0|0:0,0:0:0:0:
448,192,52073,2,0,L|320:276,1,120,8|0,0:0|0:0,0:0:0:0:
332,272,52426,1,8,0:0:0:0:
296,296,52602,1,0,0:0:0:0:
256,320,52779,1,8,0:0:0:0:
72,192,52955,6,0,L|188:124,1,120,0|8,0:0|0:0,0:0:0:0:
200,120,53308,1,0,0:0:0:0:
236,100,53485,1,8,0:0:0:0:
256,268,53661,2,0,P|224:340|156:360,2,120,0|8|0,0:0|0:0|0:0,0:0:0:0:
236,100,54190,2,0,P|272:36|368:32,2,120,8|0|8,0:0|0:0|0:0,0:0:0:0:
164,268,54720,2,0,B|188:196|132:88|132:88|224:236|336:120|336:120|252:216|316:288|316:288|328:288|340:288,1,600,0|8,0:0|0:0,0:0:0:0:
316,280,55779,1,0,0:0:0:0:
344,296,55955,2,0,L|464:360,1,120,8|0,0:0|0:0,0:0:0:0:
448,152,56308,6,8,B|292:60|292:60|292:128|292:128|292:168,1,240
288,324,56838,1,0,0:0:0:0:
288,324,57014,2,0,P|220:320|168:276,2,120,8|0|8,0:0|0:0|0:0,0:0:0:0:
256,244,57543,2,0,B|400:224|448:80|448:80|252:16|148:120|148:120|272:144|348:132|348:132|304:176|268:172,1,840,0|8,0:0|0:0,0:0:0:0:
307,163,58955,6,2,P|224:208|144:208,1,120
32,168,59308,2,2,P|144:164|184:152,1,120
356,76,59661,2,2,P|412:140|384:168,1,120
256,340,60014,2,2,P|176:320|192:284,1,120
284,64,60367,1,2,0:0:0:0:
360,340,60543,1,8,0:0:0:0:
200,72,60720,1,0,0:0:0:0:
288,340,60896,6,0,L|252:224,1,120
200,72,61249,1,12,0:0:0:0:
64,196,61426,2,0,L|240:196,1,120
140,32,61779,2,0,L|236:152,1,120,0|8,0:0|0:0,0:0:0:0:
348,24,62132,2,0,L|284:144,1,120
448,196,62485,2,0,L|272:196,1,120,0|12,0:0|0:0,0:0:0:0:
56,196,62838,5,0,0:0:0:0:
256,352,63014,1,0,0:0:0:0:
256,44,63190,1,0,0:0:0:0:
428,196,63367,2,0,P|492:276|488:312,2,120,8|0|0,0:0|0:0|0:0,0:0:0:0:
256,44,63896,2,0,B|256:128|256:128|200:176,1,120,0|12,0:0|0:0,0:0:0:0:
48,292,64249,5,0,0:0:0:0:
48,292,64426,2,0,B|136:292|136:292|212:336,1,120
372,364,64779,2,0,P|440:348|456:284,2,120,8|0|0,0:0|0:0|0:0,0:0:0:0:
180,216,65308,2,0,B|112:148|112:148|168:148,1,120,0|12,0:0|0:0,0:0:0:0:
164,148,65573,1,8,0:0:0:0:
200,148,65661,1,8,0:0:0:0:
404,152,65838,5,8,0:0:0:0:
384,192,65926,1,8,0:0:0:0:
360,232,66014,1,8,0:0:0:0:
256,360,66190,2,0,L|256:232,1,120,8|0,0:0|0:0,0:0:0:0:
144,68,66543,6,0,P|212:96|248:160,1,120
236,72,66896,2,0,P|268:144|248:212,1,120,12|0,0:0|0:0,0:0:0:0:
316,148,67249,2,0,P|280:216|192:252,1,120
60,332,67602,1,8,0:0:0:0:
424,332,67779,1,0,0:0:0:0:
164,188,67955,1,0,0:0:0:0:
436,188,68132,6,0,B|368:112|368:112|300:112,1,120,0|12,0:0|0:0,0:0:0:0:
72,120,68485,1,0,0:0:0:0:
72,120,68661,2,0,B|128:204|128:204|168:204,1,120
392,204,69014,6,0,B|448:148|432:76|432:76|388:104|384:120,1,180,8|0,0:0|0:0,0:0:0:0:
392,108,69367,2,0,P|336:156|208:176,1,180
176,136,69720,2,0,P|248:180|400:188,1,240,12|0,0:0|0:0,0:0:0:0:
88,192,70249,1,0,0:0:0:0:
208,288,70426,2,0,B|256:324|256:324|256:196|256:196|304:236,1,240,8|0,0:0|0:0,0:0:0:0:
464,344,70955,5,8,0:0:0:0:
368,188,71132,5,8,0:0:0:0:
352,160,71220,1,8,0:0:0:0:
336,132,71308,1,8,0:0:0:0:
160,40,71485,5,8,0:0:0:0:
180,80,71573,1,8,0:0:0:0:
200,124,71661,1,8,0:0:0:0:
300,288,71838,6,0,P|348:340|440:344,2,120,8|0|0,0:0|0:0|0:0,0:0:0:0:
80,192,72367,2,0,P|160:228|192:292,1,120,0|12,0:0|0:0,0:0:0:0:
452,192,72720,2,0,P|384:148|360:88,1,120
92,280,73073,1,0,0:0:0:0:
444,112,73249,1,8,0:0:0:0:
256,336,73426,1,0,0:0:0:0:
256,40,73779,2,0,B|220:104|288:104|236:204,1,120,0|12,0:0|0:0,0:0:0:0:
192,328,74132,1,0,0:0:0:0:
444,192,74308,1,0,0:0:0:0:
316,44,74485,6,0,B|252:72|252:72|252:124,1,120,0|8,0:0|0:0,0:0:0:0:
292,220,74838,2,0,B|299:150|299:150|254:124,1,120
156,109,75190,2,0,B|212:150|212:150|257:124,1,120,0|12,0:0|0:0,0:0:0:0:
36,192,75543,6,0,P|80:252|156:248,1,120
412,248,75896,1,0,0:0:0:0:
124,176,76073,1,8,0:0:0:0:
320,44,76249,2,0,L|176:144,1,120
184,340,76602,6,0,L|300:260,1,120,0|12,0:0|0:0,0:0:0:0:
304,256,76867,1,8,0:0:0:0:
332,240,76955,1,8,0:0:0:0:
320,48,77132,1,8,0:0:0:0:
288,72,77220,1,8,0:0:0:0:
256,96,77308,1,8,0:0:0:0:
100,208,77485,6,0,B|52:244|52:244|84:300|136:288|136:288|132:320|132:320|168:336|224:320,1,240,8|0,0:0|0:0,0:0:0:0:
376,112,78014,2,0,B|340:64|340:64|284:96|296:148|296:148|264:144|264:144|248:180|264:236,1,240
256,360,78543,1,0,0:0:0:0:
448,164,78720,6,0,B|456:116|396:72|396:72|384:148|316:172|316:172|296:180|296:180|272:168,1,240
68,272,79249,1,0,0:0:0:0:
340,76,79426,2,0,B|228:156|128:128|128:128|104:152|144:184,1,240
28,344,79955,1,0,0:0:0:0:
172,308,80132,6,0,B|284:228|356:264|356:264|384:220|336:204,1,240
332,44,80661,1,0,0:0:0:0:
168,304,80838,1,0,0:0:0:0:
464,188,81014,1,12,0:0:0:0:
172,192,81190,1,0,0:0:0:0:
368,280,81367,6,0,P|448:248|460:188,1,120
464,40,81720,1,8,0:0:0:0:
388,208,81896,1,0,0:0:0:0:
384,40,82073,1,0,0:0:0:0:
312,204,82249,2,0,P|276:264|228:284,1,120,0|12,0:0|0:0,0:0:0:0:
204,288,82514,1,8,0:0:0:0:
176,280,82602,1,8,0:0:0:0:
96,56,82779,5,8,0:0:0:0:
136,56,82867,1,8,0:0:0:0:
172,84,82955,1,8,0:0:0:0:
316,248,83132,6,0,P|364:288|448:280,1,120
360,112,83485,2,0,P|284:76|240:84,1,120
228,96,83749,1,0,0:0:0:0:
208,116,83838,2,0,L|172:152,2,30,12|0|0,0:0|0:0|0:0,0:0:0:0:
216,156,84014,1,0,0:0:0:0:
364,268,84190,1,8,0:0:0:0:
376,280,84279,2,0,L|416:308,2,30
92,288,84543,2,0,P|208:284|308:152,1,240,8|0,0:0|0:0,0:0:0:0:
293,201,85249,6,0,P|317:141|320:80,1,120
320,56,85779,2,0,P|384:104|404:156,1,120,0|8,0:0|0:0,0:0:0:0:
396,264,86132,6,0,P|360:328|328:336,1,60
396,264,86308,2,0,P|340:284|324:280,1,60,8|0,0:0|0:0,0:0:0:0:
256,168,86485,2,0,P|316:168|340:188,1,60
256,168,86661,2,0,P|288:112|316:100,1,60,8|0,0:0|0:0,0:0:0:0:
212,300,86838,6,0,P|156:336|76:348,1,120,0|8,0:0|0:0,0:0:0:0:
144,108,87190,2,0,P|200:84|248:36,1,120,0|8,0:0|0:0,0:0:0:0:
444,136,87543,2,0,P|376:168|332:240,1,120,0|8,0:0|0:0,0:0:0:0:
256,360,87896,1,0,0:0:0:0:
128,188,88073,6,0,P|220:204|248:252,1,120,8|0,0:0|0:0,0:0:0:0:
316,128,88426,2,0,P|252:168|236:240,1,120,8|0,0:0|0:0,0:0:0:0:
396,120,88779,6,0,P|360:56|328:48,1,60,8|0,0:0|0:0,0:0:0:0:
396,120,88955,2,0,P|340:100|324:104,1,60
256,216,89132,2,0,P|316:216|340:196,1,60,8|0,0:0|0:0,0:0:0:0:
256,216,89308,2,0,P|288:272|316:284,1,60
212,84,89485,6,0,P|156:48|76:36,1,120,8|0,0:0|0:0,0:0:0:0:
144,276,89837,2,0,P|200:300|248:348,1,120,8|0,0:0|0:0,0:0:0:0:
444,248,90190,2,0,P|376:216|332:144,1,120,8|0,0:0|0:0,0:0:0:0:
256,360,90543,1,8,0:0:0:0:
164,248,90720,2,0,P|232:212|232:160,1,120,0|8,0:0|0:0,0:0:0:0:
128,188,91073,6,0,P|220:204|248:252,1,120,0|8,0:0|0:0,0:0:0:0:
316,128,91426,2,8,P|252:168|236:240,1,120,0|8,0:0|0:0,0:0:0:0:
396,264,91779,6,0,P|360:328|328:336,1,60
396,264,91955,2,0,P|340:284|324:280,1,60,8|0,0:0|0:0,0:0:0:0:
256,168,92132,2,0,P|316:168|340:188,1,60
256,168,92308,2,0,P|288:112|316:100,1,60,8|0,0:0|0:0,0:0:0:0:
212,300,92485,6,0,P|156:336|76:348,1,120,0|8,0:0|0:0,0:0:0:0:
144,108,92837,2,0,P|200:84|248:36,1,120,0|8,0:0|0:0,0:0:0:0:
444,136,93190,2,0,P|376:168|332:240,1,120,0|8,0:0|0:0,0:0:0:0:
256,360,93543,1,0,0:0:0:0:
128,188,93720,6,0,P|220:204|248:252,1,120,8|0,0:0|0:0,0:0:0:0:
316,128,94073,2,8,P|252:168|236:240,1,120,8|0,0:0|0:0,0:0:0:0:
396,120,94426,6,0,P|360:56|328:48,1,60,8|0,0:0|0:0,0:0:0:0:
396,120,94602,2,0,P|340:100|324:104,1,60
256,216,94779,2,0,P|316:216|340:196,1,60,8|0,0:0|0:0,0:0:0:0:
256,216,94955,2,0,P|288:272|316:284,1,60
212,84,95132,6,0,P|156:48|76:36,1,120,8|0,0:0|0:0,0:0:0:0:
144,276,95484,2,0,P|200:300|248:348,1,120,8|0,0:0|0:0,0:0:0:0:
444,248,95837,2,0,P|376:216|332:144,1,120,8|0,0:0|0:0,0:0:0:0:
256,360,96190,1,8,0:0:0:0:
128,188,96367,6,0,P|220:204|248:252,1,120,0|8,0:0|0:0,0:0:0:0:
316,128,96720,2,0,P|252:168|236:240,1,120,0|8,0:0|0:0,0:0:0:0:
236,344,97073,5,8,0:0:0:0:
412,104,97249,1,8,0:0:0:0:
256,192,97426,1,8,0:0:0:0:
256,192,97602,5,8,0:0:0:0:
256,192,97779,1,8,0:0:0:0:
256,192,97955,1,8,0:0:0:0:
256,192,98132,1,8,0:0:0:0:
256,192,98308,1,8,0:0:0:0:
116,320,98485,1,8,0:0:0:0:
392,320,98661,1,8,0:0:0:0:
140,248,98838,1,8,0:0:0:0:
424,248,99014,1,8,0:0:0:0:
176,184,99190,1,8,0:0:0:0:
456,184,99367,1,8,0:0:0:0:
312,44,99543,5,8,0:0:0:0:
424,248,99720,1,8,0:0:0:0:
236,80,99896,1,8,0:0:0:0:
456,184,100073,1,8,0:0:0:0:
224,164,100249,1,8,0:0:0:0:
452,96,100426,6,8,P|392:120|368:164,1,60,8|0,0:0|0:0,0:0:0:0:
192,308,100602,2,8,P|260:284|288:256,1,60,8|0,0:0|0:0,0:0:0:0:
344,40,100779,2,8,P|324:100|328:128,1,60,8|0,0:0|0:0,0:0:0:0:
300,336,100955,2,8,P|320:268|316:240,1,60,8|0,0:0|0:0,0:0:0:0:
232,64,101132,2,8,P|260:128|296:152,1,60,8|0,0:0|0:0,0:0:0:0:
404,296,101308,2,8,P|368:240|336:216,1,60,8|0,0:0|0:0,0:0:0:0:
208,128,101485,6,8,P|132:100|100:104,1,60,8|0,0:0|0:0,0:0:0:0:
152,312,101661,2,8,P|208:336|252:328,1,60,8|0,0:0|0:0,0:0:0:0:
424,192,101838,2,8,P|372:152|340:148,1,60,8|0,0:0|0:0,0:0:0:0:
208,272,102014,2,8,P|272:296|304:284,1,60,8|0,0:0|0:0,0:0:0:0:
376,40,102190,2,8,P|304:60|292:88,1,60,8|0,0:0|0:0,0:0:0:0:
264,224,102367,6,8,P|308:176|304:152,1,60,8|0,0:0|0:0,0:0:0:0:
124,48,102543,2,8,P|140:108|176:128,1,60,8|0,0:0|0:0,0:0:0:0:
400,192,102720,2,8,P|400:256|384:280,1,60,8|0,0:0|0:0,0:0:0:0:
392,272,102896,5,8,0:0:0:0:
358,301,102984,1,8,0:0:0:0:
317,320,103072,1,8,0:0:0:0:
273,327,103160,1,8,0:0:0:0:
228,322,103248,1,8,0:0:0:0:
186,307,103337,1,8,0:0:0:0:
146,286,103425,1,8,0:0:0:0:
109,260,103513,1,8,0:0:0:0:
73,233,103601,1,0,0:0:0:0:
40,203,103690,5,8,0:0:0:0:
65,203,103778,1,8,0:0:0:0:
109,212,103866,1,8,0:0:0:0:
153,221,103954,1,8,0:0:0:0:
197,227,104043,1,8,0:0:0:0:
242,229,104131,1,8,0:0:0:0:
287,225,104219,1,8,0:0:0:0:
331,214,104307,1,8,0:0:0:0:
372,196,104396,1,8,0:0:0:0:
408,168,104484,1,8,0:0:0:0:
400,136,104572,5,8,0:0:0:0:
372,102,104660,1,8,0:0:0:0:
335,77,104748,1,8,0:0:0:0:
293,59,104837,1,8,0:0:0:0:
250,49,104925,1,8,0:0:0:0:
205,44,105013,1,8,0:0:0:0:
160,42,105101,1,8,0:0:0:0:
115,42,105190,1,8,0:0:0:0:
70,42,105278,1,8,0:0:0:0:
29,45,105366,5,8,0:0:0:0:
66,70,105454,1,8,0:0:0:0:
108,87,105543,1,8,0:0:0:0:
151,99,105631,1,8,0:0:0:0:
195,109,105719,1,8,0:0:0:0:
240,117,105807,1,8,0:0:0:0:
284,124,105896,1,8,0:0:0:0:
296,132,105984,5,8,0:0:0:0:
248,144,106072,1,8,0:0:0:0:
207,153,106160,1,8,0:0:0:0:
163,162,106248,1,8,0:0:0:0:
119,168,106337,1,8,0:0:0:0:
74,166,106425,1,8,0:0:0:0:
92,193,106513,1,8,0:0:0:0:
124,224,106601,1,8,0:0:0:0:
161,250,106690,1,8,0:0:0:0:
201,269,106778,1,8,0:0:0:0:
245,280,106866,1,8,0:0:0:0:
290,282,106954,1,8,0:0:0:0:
316,295,107043,1,8,0:0:0:0:
305,338,107131,5,8,0:0:0:0:
345,331,107219,1,8,0:0:0:0:
381,305,107307,1,8,0:0:0:0:
404,266,107396,1,8,0:0:0:0:
416,222,107484,5,8,0:0:0:0:
416,178,107572,1,8,0:0:0:0:
400,136,107661,1,8,0:0:0:0:
375,98,107749,1,8,0:0:0:0:
348,62,107837,1,8,0:0:0:0:
317,29,107925,1,8,0:0:0:0:
323,69,108013,1,8,0:0:0:0:
333,114,108102,1,8,0:0:0:0:
343,157,108190,1,8,0:0:0:0:
356,200,108278,5,8,0:0:0:0:
323,200,108366,1,8,0:0:0:0:
284,178,108455,1,8,0:0:0:0:
252,148,108543,1,12,0:0:0:0:
236,132,108896,1,12,0:0:0:0:
288,68,110485,5,8,0:0:0:0:
292,180,110661,1,8,0:0:0:0:
288,68,110838,1,8,0:0:0:0:
284,320,111190,5,0,0:0:0:0:
360,44,111367,1,8,0:0:0:0:
200,312,111543,1,0,0:0:0:0:
288,44,111719,2,0,L|252:160,1,120,8|0,0:0|0:0,0:0:0:0:
200,312,112072,5,8,0:0:0:0:
64,188,112249,2,0,L|240:188,1,120,0|8,0:0|0:0,0:0:0:0:
140,352,112602,2,0,L|236:232,1,120,0|8,0:0|0:0,0:0:0:0:
348,360,112955,2,0,L|284:240,1,120,0|8,0:0|0:0,0:0:0:0:
448,188,113308,2,0,L|272:188,1,120,0|8,0:0|0:0,0:0:0:0:
56,188,113661,5,0,0:0:0:0:
256,32,113837,1,8,0:0:0:0:
256,340,114013,1,0,0:0:0:0:
428,188,114190,2,0,P|492:108|488:72,2,120,8|0|8,0:0|0:0|0:0,0:0:0:0:
256,340,114719,2,0,B|256:256|256:256|200:208,1,120,0|8,0:0|0:0,0:0:0:0:
48,92,115072,1,0,0:0:0:0:
48,92,115249,2,0,B|136:92|136:92|212:48,1,120,8|0,0:0|0:0,0:0:0:0:
372,20,115602,6,0,P|440:36|456:100,2,120,8|0|8,0:0|0:0|0:0,0:0:0:0:
180,168,116131,2,0,B|112:236|112:236|168:236,1,120,0|8,0:0|0:0,0:0:0:0:
164,236,116396,1,8,0:0:0:0:
200,236,116484,1,8,0:0:0:0:
404,232,116661,5,8,0:0:0:0:
384,192,116749,1,8,0:0:0:0:
360,152,116837,1,8,0:0:0:0:
256,24,117013,6,0,L|256:152,1,120,8|0,0:0|0:0,0:0:0:0:
144,316,117366,2,0,P|212:288|248:224,1,120,8|0,0:0|0:0,0:0:0:0:
236,312,117719,2,0,P|268:240|248:172,1,120,8|0,0:0|0:0,0:0:0:0:
316,236,118072,2,0,P|280:168|192:132,1,120,8|0,0:0|0:0,0:0:0:0:
60,52,118426,5,8,0:0:0:0:
424,52,118602,1,0,0:0:0:0:
164,196,118778,1,8,0:0:0:0:
436,196,118955,2,0,B|368:272|368:272|300:272,1,120,0|8,0:0|0:0,0:0:0:0:
72,264,119308,1,0,0:0:0:0:
72,264,119484,2,0,B|128:180|128:180|168:180,1,120,8|0,0:0|0:0,0:0:0:0:
392,180,119837,6,0,B|448:236|432:308|432:308|388:280|384:264,1,180,8|0,0:0|0:0,0:0:0:0:
392,276,120190,2,0,P|336:228|208:208,1,180,8|0,0:0|0:0,0:0:0:0:
176,248,120543,2,0,P|248:204|400:196,1,240,8|8,0:0|0:0,0:0:0:0:
88,192,121072,1,0,0:0:0:0:
208,96,121249,2,8,B|256:60|256:60|256:188|256:188|304:148,1,240
464,40,121778,1,8,0:0:0:0:
368,196,121955,5,8,0:0:0:0:
352,224,122043,1,8,0:0:0:0:
336,252,122131,1,8,0:0:0:0:
160,344,122308,5,8,0:0:0:0:
180,304,122396,1,8,0:0:0:0:
200,260,122484,1,8,0:0:0:0:
300,96,122661,2,0,P|348:44|440:40,2,120,8|0|8,0:0|0:0|0:0,0:0:0:0:
80,192,123190,2,0,P|160:156|192:92,1,120,0|8,0:0|0:0,0:0:0:0:
452,192,123543,2,0,P|384:236|360:296,1,120,0|8,0:0|0:0,0:0:0:0:
92,104,123896,1,0,0:0:0:0:
444,272,124073,1,8,0:0:0:0:
296,76,124249,2,0,B|256:32|256:32|256:100,1,120,0|8,0:0|0:0,0:0:0:0:
244,344,124602,6,0,B|80:268|256:220|88:76|88:76|160:76|168:64,1,360,0|8,0:0|0:0,0:0:0:0:
316,340,125308,2,0,B|252:312|252:312|252:260,1,120,0|8,0:0|0:0,0:0:0:0:
292,164,125661,2,0,B|299:234|299:234|254:260,1,120,0|8,0:0|0:0,0:0:0:0:
156,275,126013,2,0,B|212:234|212:234|257:260,1,120,0|8,0:0|0:0,0:0:0:0:
36,192,126366,6,0,B|80:136|80:136|184:136,1,120,0|8,0:0|0:0,0:0:0:0:
412,136,126719,1,0,0:0:0:0:
124,208,126896,1,8,0:0:0:0:
320,340,127072,2,0,L|176:240,1,120,0|8,0:0|0:0,0:0:0:0:
184,44,127425,2,0,L|300:124,1,120,0|8,0:0|0:0,0:0:0:0:
304,128,127690,1,8,0:0:0:0:
332,144,127778,1,8,0:0:0:0:
320,336,127955,5,8,0:0:0:0:
288,312,128043,1,8,0:0:0:0:
256,288,128131,1,8,0:0:0:0:
100,176,128308,6,0,B|52:140|52:140|84:84|136:96|136:96|132:64|132:64|168:48|224:64,1,240,0|8,0:0|0:0,0:0:0:0:
376,272,128837,2,0,B|340:320|340:320|284:288|296:236|296:236|264:240|264:240|248:204|264:148,1,240
256,24,129366,1,8,0:0:0:0:
448,220,129543,2,0,B|456:268|396:312|396:312|384:236|316:212|316:212|296:204|296:204|272:216,1,240
68,112,130072,1,8,0:0:0:0:
340,308,130249,2,0,B|228:228|56:264|56:264|104:192|144:200,1,360,0|8,0:0|0:0,0:0:0:0:
172,76,130955,2,0,B|284:156|356:120|356:120|384:164|336:180,1,240
332,340,131485,5,8,0:0:0:0:
168,80,131661,1,0,0:0:0:0:
464,196,131837,1,8,0:0:0:0:
172,192,132013,1,0,0:0:0:0:
368,104,132190,6,0,P|448:136|460:196,1,120,8|0,0:0|0:0,0:0:0:0:
464,344,132543,1,8,0:0:0:0:
388,176,132719,1,0,0:0:0:0:
384,344,132896,1,8,0:0:0:0:
312,180,133073,2,0,P|276:120|228:100,1,120,0|8,0:0|0:0,0:0:0:0:
204,96,133337,1,8,0:0:0:0:
176,104,133425,1,8,0:0:0:0:
96,328,133602,5,8,0:0:0:0:
136,328,133690,1,8,0:0:0:0:
172,300,133778,1,8,0:0:0:0:
316,136,133955,6,0,P|364:96|448:104,1,120,8|0,0:0|0:0,0:0:0:0:
360,272,134308,2,0,P|284:308|240:300,1,120,8|0,0:0|0:0,0:0:0:0:
104,192,134661,1,8,0:0:0:0:
104,192,134837,1,0,0:0:0:0:
364,116,135013,1,8,0:0:0:0:
92,96,135190,1,0,0:0:0:0:
92,96,135367,2,8,P|208:100|308:232,1,240
293,183,136073,6,0,P|317:243|320:304,1,120,8|0,0:0|0:0,0:0:0:0:
400,48,136602,6,0,B|472:212|400:352|400:352|320:232|312:88|312:88|256:208|280:352|280:352|192:264|192:136,1,1080,0|8,0:0|0:0,0:0:0:0:
193,162,138367,5,0,0:0:0:0:
192,160,138543,1,8,0:0:0:0:
296,164,138720,1,0,0:0:0:0:
192,160,138896,1,8,0:0:0:0:
284,232,139073,1,0,0:0:0:0:
196,164,139249,1,8,0:0:0:0:
252,292,139426,1,0,0:0:0:0:
192,160,139602,1,8,0:0:0:0:
196,336,139779,1,0,0:0:0:0:
256,192,139955,6,0,L|408:192,1,120,8|0,0:0|0:0,0:0:0:0:
136,192,140661,6,0,L|216:192,1,60,8|0,0:0|0:0,0:0:0:0:
136,192,141367,6,0,L|256:228,1,90.0000034332277,8|0,0:0|0:0,0:0:0:0:
136,192,141720,6,0,L|252:296,1,120,8|0,0:0|0:0,0:0:0:0:
136,192,142073,6,0,L|224:352,1,180.000006866455,8|0,0:0|0:0,0:0:0:0:
72,88,142426,5,8,0:0:0:0:
136,192,142602,2,0,P|184:240|236:252,2,120,0|8|0,0:0|0:0|0:0,0:0:0:0:
240,128,143132,1,8,0:0:0:0:
364,196,143308,2,0,P|432:216|492:196,2,120,0|8|0,0:0|0:0|0:0,0:0:0:0:
236,248,143838,5,8,0:0:0:0:
128,316,144014,2,0,P|64:344|12:340,2,120,0|8|0,0:0|0:0|0:0,0:0:0:0:
256,76,144543,1,8,0:0:0:0:
380,140,144720,2,0,P|452:188|468:236,2,120,0|8|0,0:0|0:0|0:0,0:0:0:0:
256,76,145249,1,8,0:0:0:0:
48,196,145426,1,0,0:0:0:0:
256,304,145602,6,0,L|316:336,1,60,8|0,0:0|0:0,0:0:0:0:
256,304,146308,6,0,L|312:332,1,60,8|0,0:0|0:0,0:0:0:0:
256,304,147014,6,0,L|352:304,1,90.0000034332277,8|0,0:0|0:0,0:0:0:0:
256,304,147367,6,0,L|368:240,1,120,8|0,0:0|0:0,0:0:0:0:
256,304,147720,6,0,L|356:148,1,180.000006866455,8|0,0:0|0:0,0:0:0:0:
256,192,148073,12,0,149485,0:0:0:0:
208,272,149838,6,0,B|308:272|308:272|252:216,1,180.000006866455,8|0,0:0|0:0,0:0:0:0:
80,44,150190,1,8,0:0:0:0:
296,112,150368,1,0,0:0:0:0:
324,124,150456,1,0,0:0:0:0:
352,136,150543,2,0,B|428:192|428:192|332:192,1,180.000006866455,8|0,0:0|0:0,0:0:0:0:
320,192,150809,1,0,0:0:0:0:
296,192,150897,2,8,B|88:192|88:192|104:272|152:312|152:312|192:260,1,360.000013732911
344,44,151426,5,0,0:0:0:0:
260,344,151602,1,8,0:0:0:0:
352,192,151779,2,0,B|400:104|352:40|284:64|284:64|216:196|152:128|152:128|84:248|140:296,1,540.000020599366
216,360,152485,1,0,0:0:0:0:
216,360,152574,1,0,0:0:0:0:
216,360,152662,1,8,0:0:0:0:
476,192,152838,1,0,0:0:0:0:
40,192,153014,1,8,0:0:0:0:
256,40,153191,5,0,0:0:0:0:
256,40,153279,1,0,0:0:0:0:
256,40,153368,1,8,0:0:0:0:
256,320,153543,2,0,P|288:232|264:136,1,180.000006866455,0|8,0:0|0:0,0:0:0:0:
248,260,153896,2,0,P|236:148|184:72,1,180.000006866455,0|8,0:0|0:0,0:0:0:0:
263,39,154249,6,0,B|323:303|323:303|475:83|475:83|343:83|167:147|163:147|163:147|87:107,1,900.000034332277,0|8,0:0|0:0,0:0:0:0:
126,128,155309,1,0,0:0:0:0:
40,308,155485,2,0,P|112:228|200:280,1,180.000006866455,8|0,0:0|0:0,0:0:0:0:
412,208,155838,2,0,P|372:312|292:304,2,180.000006866455,8|0|8,0:0|0:0|0:0,0:0:0:0:
256,48,156368,5,0,0:0:0:0:
256,48,156543,2,8,B|136:104|136:104|248:104|248:104|180:168|180:168|192:208,1,360.000013732911
232,352,157074,1,0,0:0:0:0:
472,192,157250,1,8,0:0:0:0:
256,156,157426,2,0,L|72:108,1,180.000006866455,0|8,0:0|0:0,0:0:0:0:
232,352,157779,1,0,0:0:0:0:
280,76,157955,6,8,B|368:168|276:232|276:232|184:200|184:200|212:288,1,360.000013732911
400,300,158485,2,0,P|448:212|408:72,1,180.000006866455,0|8,0:0|0:0,0:0:0:0:
256,40,158838,2,0,P|280:128|240:208,1,180.000006866455,0|8,0:0|0:0,0:0:0:0:
116,104,159190,6,0,B|80:192|36:224|36:224|36:316|36:316|156:260|196:64|196:64|268:152|196:280|196:280|320:280,1,900.000034332277,0|8,0:0|0:0,0:0:0:0:
340,192,160249,6,0,B|448:192|448:192|400:252,2,180.000006866455,0|8|0,0:0|0:0|0:0,0:0:0:0:
276,135,160779,2,0,B|384:135|384:135|336:195,1,180.000006866455,8|0,0:0|0:0,0:0:0:0:
440,328,161132,2,0,P|300:264|232:200,1,180.000006866455,8|0,0:0|0:0,0:0:0:0:
112,32,161485,2,0,P|264:124|316:184,1,180.000006866455,8|0,0:0|0:0,0:0:0:0:
180,244,161838,2,0,P|96:296|116:236,1,180.000006866455,8|0,0:0|0:0,0:0:0:0:
356,136,162191,2,0,P|372:60|448:96,1,180.000006866455,8|0,0:0|0:0,0:0:0:0:
452,288,162544,2,0,P|400:368|380:376,2,90.0000034332277,8|0|0,0:0|0:0|0:0,0:0:0:0:
452,48,162897,5,8,0:0:0:0:
104,192,163074,2,0,P|200:200|436:72,1,360.000013732911
164,80,163603,1,8,0:0:0:0:
416,76,163779,1,0,0:0:0:0:
136,148,163956,1,8,0:0:0:0:
388,144,164132,1,0,0:0:0:0:
104,216,164309,1,8,0:0:0:0:
356,212,164485,1,0,0:0:0:0:
224,344,164662,5,8,0:0:0:0:
104,216,164838,1,0,0:0:0:0:
232,92,165015,1,8,0:0:0:0:
356,212,165191,1,0,0:0:0:0:
224,344,165367,2,0,B|148:272|148:272|228:272,1,180.000006866455,8|0,0:0|0:0,0:0:0:0:
364,60,165720,2,0,B|428:136|428:136|340:136,1,180.000006866455,8|0,0:0|0:0,0:0:0:0:
104,136,166073,5,8,0:0:0:0:
428,192,166250,2,0,P|464:280|456:308,1,90.0000034332277
428,192,166426,2,0,P|416:292|400:320,1,90.0000034332277,8|0,0:0|0:0,0:0:0:0:
256,328,166603,2,0,P|200:252|192:216,1,90.0000034332277
256,328,166779,2,0,P|236:232|240:208,1,90.0000034332277,8|0,0:0|0:0,0:0:0:0:
264,60,166956,6,0,P|292:160|292:192,1,90.0000034332277
116,304,167132,2,0,P|204:260|224:240,1,90.0000034332277,8|0,0:0|0:0,0:0:0:0:
384,108,167309,2,0,P|288:136|264:160,1,90.0000034332277
256,328,167485,2,0,P|276:232|272:200,1,90.0000034332277,8|0,0:0|0:0,0:0:0:0:
260,60,167662,2,0,P|232:152|232:180,1,90.0000034332277
256,328,167838,2,8,B|336:240|340:84|340:84|272:124|256:232,1,360.000013732911
256,328,168368,5,0,0:0:0:0:
256,328,168544,2,0,B|216:280|200:200|200:200|236:200|284:252,1,180.000006866455,8|0,0:0|0:0,0:0:0:0:
480,292,168897,1,8,0:0:0:0:
304,96,169073,2,0,P|228:40|136:32,2,180.000006866455,0|8|0,0:0|0:0|0:0,0:0:0:0:
444,124,169603,6,8,P|432:232|220:336,1,360.000013732911
344,216,170132,2,0,P|376:120|344:48,1,180.000006866455,0|8,0:0|0:0,0:0:0:0:
168,124,170485,2,0,P|144:216|112:240,1,90.0000034332277
136,228,170661,1,8,0:0:0:0:
120,260,170749,1,8,0:0:0:0:
136,292,170838,1,8,0:0:0:0:
168,312,170926,1,8,0:0:0:0:
208,304,171014,1,8,0:0:0:0:
240,280,171102,1,8,0:0:0:0:
248,236,171190,1,8,0:0:0:0:
272,200,171279,1,8,0:0:0:0:
308,188,171367,1,8,0:0:0:0:
348,200,171455,1,8,0:0:0:0:
388,200,171543,1,8,0:0:0:0:
424,176,171632,1,8,0:0:0:0:
424,132,171720,1,8,0:0:0:0:
392,104,171808,1,8,0:0:0:0:
352,104,171896,1,8,0:0:0:0:
312,120,171985,1,8,0:0:0:0:
272,104,172073,1,8,0:0:0:0:
120,236,173308,5,0,0:0:0:0:
360,340,173484,1,8,0:0:0:0:
200,72,173661,1,0,0:0:0:0:
288,340,173837,6,0,L|252:224,1,120
200,72,174190,1,8,0:0:0:0:
64,196,174367,2,0,L|240:196,1,120
140,32,174720,2,0,L|236:152,1,120,0|8,0:0|0:0,0:0:0:0:
348,24,175073,2,0,L|284:144,1,120
448,196,175426,2,0,L|272:196,1,120,0|8,0:0|0:0,0:0:0:0:
56,196,175779,5,0,0:0:0:0:
256,352,175955,1,0,0:0:0:0:
256,44,176131,1,0,0:0:0:0:
428,196,176308,2,0,P|492:276|488:312,2,120,8|0|0,0:0|0:0|0:0,0:0:0:0:
256,44,176837,2,0,B|256:128|256:128|200:176,1,120,0|8,0:0|0:0,0:0:0:0:
48,292,177190,5,0,0:0:0:0:
48,292,177367,2,0,B|136:292|136:292|212:336,1,120
372,364,177720,2,0,P|440:348|456:284,2,120,8|0|0,0:0|0:0|0:0,0:0:0:0:
180,216,178249,2,0,B|112:148|112:148|168:148,1,120,0|8,0:0|0:0,0:0:0:0:
164,148,178514,1,8,0:0:0:0:
200,148,178602,1,8,0:0:0:0:
404,152,178779,5,8,0:0:0:0:
384,192,178867,1,8,0:0:0:0:
360,232,178955,1,8,0:0:0:0:
256,360,179131,2,0,L|256:232,1,120,8|0,0:0|0:0,0:0:0:0:
144,68,179484,6,0,P|212:96|248:160,1,120
236,72,179838,2,0,P|268:144|248:212,1,120,8|0,0:0|0:0,0:0:0:0:
316,148,180190,2,0,P|280:216|192:252,1,120
60,332,180543,1,8,0:0:0:0:
424,332,180720,1,0,0:0:0:0:
164,188,180896,1,0,0:0:0:0:
436,188,181073,6,0,B|368:112|368:112|300:112,1,120,0|8,0:0|0:0,0:0:0:0:
72,120,181426,1,0,0:0:0:0:
72,120,181602,2,0,B|128:204|128:204|168:204,1,120
392,204,181955,6,0,B|448:148|432:76|432:76|388:104|384:120,1,180,8|0,0:0|0:0,0:0:0:0:
392,108,182308,2,0,P|336:156|208:176,1,180
176,136,182661,2,0,P|248:180|400:188,1,240,8|0,0:0|0:0,0:0:0:0:
88,192,183190,1,0,0:0:0:0:
208,288,183367,2,0,B|256:324|256:324|256:196|256:196|304:236,1,240,8|0,0:0|0:0,0:0:0:0:
464,344,183896,5,8,0:0:0:0:
368,188,184073,5,8,0:0:0:0:
352,160,184161,1,8,0:0:0:0:
336,132,184249,1,8,0:0:0:0:
160,40,184426,5,8,0:0:0:0:
180,80,184514,1,8,0:0:0:0:
200,124,184602,1,8,0:0:0:0:
300,288,184779,6,0,P|348:340|440:344,2,120,8|0|0,0:0|0:0|0:0,0:0:0:0:
80,192,185308,2,0,P|160:228|192:292,1,120,0|8,0:0|0:0,0:0:0:0:
452,192,185661,2,0,P|384:148|360:88,1,120
92,280,186014,1,0,0:0:0:0:
444,112,186190,1,8,0:0:0:0:
256,336,186367,1,0,0:0:0:0:
256,40,186720,2,0,B|220:104|288:104|232:192,1,120,0|8,0:0|0:0,0:0:0:0:
180,312,187073,1,0,0:0:0:0:
456,148,187249,1,0,0:0:0:0:
316,44,187426,6,0,B|252:72|252:72|252:124,1,120,0|8,0:0|0:0,0:0:0:0:
292,220,187779,2,0,B|299:150|299:150|254:124,1,120
156,109,188132,2,0,B|212:150|212:150|257:124,1,120,0|8,0:0|0:0,0:0:0:0:
48,196,188485,2,0,P|88:244|152:252,1,120,0|8,0:0|0:0,0:0:0:0:
412,248,188837,1,0,0:0:0:0:
124,176,189014,1,8,0:0:0:0:
320,44,189190,2,0,L|176:144,1,120,0|8,0:0|0:0,0:0:0:0:
184,340,189543,6,0,L|300:260,1,120,0|8,0:0|0:0,0:0:0:0:
304,256,189808,1,8,0:0:0:0:
332,240,189896,1,8,0:0:0:0:
320,48,190073,1,8,0:0:0:0:
288,72,190161,1,8,0:0:0:0:
256,96,190249,1,8,0:0:0:0:
100,208,190426,6,0,B|52:244|52:244|84:300|136:288|136:288|132:320|132:320|168:336|224:320,1,240,8|0,0:0|0:0,0:0:0:0:
376,112,190955,2,0,B|340:64|340:64|284:96|296:148|296:148|264:144|264:144|248:180|264:236,1,240
256,360,191484,1,0,0:0:0:0:
448,164,191661,6,0,B|456:116|396:72|396:72|384:148|316:172|316:172|296:180|296:180|272:168,1,240
68,272,192190,1,0,0:0:0:0:
340,76,192367,2,0,B|228:156|56:120|56:120|104:192|144:184,1,360
172,308,193073,6,0,B|284:228|356:264|356:264|384:220|336:204,1,240
332,44,193602,1,0,0:0:0:0:
168,304,193779,1,0,0:0:0:0:
464,188,193955,1,8,0:0:0:0:
172,192,194131,1,0,0:0:0:0:
368,280,194308,6,0,P|448:248|460:188,1,120
464,40,194661,1,8,0:0:0:0:
388,208,194837,1,0,0:0:0:0:
384,40,195014,1,0,0:0:0:0:
312,204,195190,2,0,P|276:264|228:284,1,120,0|8,0:0|0:0,0:0:0:0:
204,288,195455,1,8,0:0:0:0:
176,280,195543,1,8,0:0:0:0:
96,56,195720,5,8,0:0:0:0:
136,56,195808,1,8,0:0:0:0:
172,84,195896,1,8,0:0:0:0:
316,248,196073,6,0,P|364:288|448:280,1,120
360,112,196426,2,0,P|284:76|240:84,1,120
228,96,196690,1,0,0:0:0:0:
212,116,196779,2,0,P|184:192|108:236,1,120
20,332,197132,1,0,0:0:0:0:
293,201,197308,1,0,0:0:0:0:
92,288,197484,2,0,P|208:284|308:152,1,240,8|0,0:0|0:0,0:0:0:0:
293,201,198190,6,0,P|317:141|320:80,1,120,8|0,0:0|0:0,0:0:0:0:
320,56,198720,6,0,P|384:104|356:164,1,120,0|8,0:0|0:0,0:0:0:0:
276,288,199073,1,0,0:0:0:0:
128,96,199250,2,0,P|180:52|252:48,1,120,8|0,0:0|0:0,0:0:0:0:
416,196,199603,6,0,P|376:264|332:284,1,120,8|0,0:0|0:0,0:0:0:0:
80,192,199956,2,0,P|144:160|148:88,1,120,8|0,0:0|0:0,0:0:0:0:
336,288,200309,2,0,P|252:328|240:368,1,120,8|0,0:0|0:0,0:0:0:0:
156,116,200662,2,0,P|216:96|240:40,1,120,8|0,0:0|0:0,0:0:0:0:
243,347,201014,2,0,P|195:311|139:327,1,120,8|0,0:0|0:0,0:0:0:0:
240,48,201367,2,0,P|300:80|372:56,1,120,8|0,0:0|0:0,0:0:0:0:
352,304,201720,5,8,0:0:0:0:
84,192,201896,1,0,0:0:0:0:
292,192,202073,2,0,L|424:192,1,120,8|0,0:0|0:0,0:0:0:0:
292,192,202426,2,0,L|392:264,1,120,8|0,0:0|0:0,0:0:0:0:
292,192,202779,2,0,L|344:312,1,120,8|0,0:0|0:0,0:0:0:0:
220,192,203132,6,0,L|88:192,1,120,8|0,0:0|0:0,0:0:0:0:
220,192,203485,2,0,L|120:120,1,120,8|0,0:0|0:0,0:0:0:0:
220,192,203838,2,0,L|168:72,1,120,8|0,0:0|0:0,0:0:0:0:
420,192,204543,6,0,L|420:316,1,120,8|0,0:0|0:0,0:0:0:0:
300,192,204896,2,0,L|300:324,1,120,8|0,0:0|0:0,0:0:0:0:
164,192,205249,2,0,L|164:320,1,120,8|0,0:0|0:0,0:0:0:0:
360,192,205602,6,0,L|360:68,1,120,8|0,0:0|0:0,0:0:0:0:
232,192,205955,2,0,L|232:60,1,120,8|0,0:0|0:0,0:0:0:0:
96,192,206308,2,0,L|96:64,1,120,8|0,0:0|0:0,0:0:0:0:
256,192,206661,6,0,P|212:220|236:192,1,180.000006866455,8|0,0:0|0:0,0:0:0:0:
256,192,207014,2,0,P|205:180|241:177,1,180.000006866455,8|0,0:0|0:0,0:0:0:0:
256,192,207367,2,0,P|227:148|256:171,1,180.000006866455,8|0,0:0|0:0,0:0:0:0:
256,192,207720,2,0,P|267:141|270:177,1,180.000006866455,8|0,0:0|0:0,0:0:0:0:
404,296,208073,6,0,P|360:268|384:296,1,180.000006866455,8|0,0:0|0:0,0:0:0:0:
404,296,208426,2,0,P|353:307|389:310,1,180.000006866455,8|0,0:0|0:0,0:0:0:0:
404,296,208779,2,0,P|376:339|404:316,1,180.000006866455,8|0,0:0|0:0,0:0:0:0:
404,296,209132,2,0,P|415:346|418:310,1,180.000006866455,8|0,0:0|0:0,0:0:0:0:
420,136,209485,6,0,B|424:88|368:24|368:24|344:84,1,180.000006866455,8|0,0:0|0:0,0:0:0:0:
264,236,210190,6,0,B|220:316|220:316|168:216,1,180.000006866455,8|0,0:0|0:0,0:0:0:0:
264,236,210543,2,0,B|174:253|174:253|217:149,1,180.000006866455,8|0,0:0|0:0,0:0:0:0:
264,236,210896,2,0,B|188:185|188:185|292:142,1,180.000006866455,8|0,0:0|0:0,0:0:0:0:
264,236,211249,2,0,B|246:146|246:146|350:189,1,180.000006866455,8|0,0:0|0:0,0:0:0:0:
244,148,211602,6,0,B|216:88|216:88|148:168,1,120,8|0,0:0|0:0,0:0:0:0:
244,148,211955,2,0,B|172:148|172:148|197:234,1,120,8|0,0:0|0:0,0:0:0:0:
244,148,212308,2,0,B|184:192|184:192|272:241,1,120,8|0,0:0|0:0,0:0:0:0:
244,148,212661,2,0,B|232:216|232:216|330:194,1,120,8|0,0:0|0:0,0:0:0:0:
288,208,213014,6,0,B|308:260|308:260|360:228,1,90.0000034332277,8|0,0:0|0:0,0:0:0:0:
288,208,213367,2,0,B|344:216|344:216|344:156,1,90.0000034332277,8|0,0:0|0:0,0:0:0:0:
288,208,213720,2,0,B|340:176|340:176|292:136,1,90.0000034332277,8|0,0:0|0:0,0:0:0:0:
288,208,214073,2,0,B|316:156|316:156|248:156,1,90.0000034332277,8|0,0:0|0:0,0:0:0:0:
280,156,214426,6,0,B|268:112|268:112|232:120,1,60,8|0,0:0|0:0,0:0:0:0:
280,156,214779,2,0,B|236:148|236:148|220:176,1,60,8|0,0:0|0:0,0:0:0:0:
280,156,215132,2,0,B|240:176|240:176|260:208,1,60,8|0,0:0|0:0,0:0:0:0:
280,156,215485,2,0,B|252:196|252:196|288:208,1,60,8|0,0:0|0:0,0:0:0:0:
460,264,215838,5,8,0:0:0:0:
136,264,216190,1,8,0:0:0:0:
456,196,216543,1,8,0:0:0:0:
140,196,216896,1,8,0:0:0:0:
456,128,217249,1,8,0:0:0:0:
152,264,217602,1,8,0:0:0:0:
412,80,217955,1,8,0:0:0:0:
212,296,218308,1,8,0:0:0:0:
352,60,218661,5,8,0:0:0:0:
322,59,218749,1,8,0:0:0:0:
292,61,218837,1,8,0:0:0:0:
262,63,218925,1,8,0:0:0:0:
232,67,219013,1,8,0:0:0:0:
202,72,219102,1,8,0:0:0:0:
173,78,219190,1,8,0:0:0:0:
144,86,219278,1,8,0:0:0:0:
115,94,219366,1,8,0:0:0:0:
88,104,219455,5,8,0:0:0:0:
92,115,219543,1,8,0:0:0:0:
120,126,219631,1,8,0:0:0:0:
149,135,219719,1,8,0:0:0:0:
178,142,219808,1,8,0:0:0:0:
207,147,219896,1,8,0:0:0:0:
237,150,219984,1,8,0:0:0:0:
267,152,220072,1,8,0:0:0:0:
297,152,220161,1,8,0:0:0:0:
327,152,220249,1,8,0:0:0:0:
357,150,220337,1,8,0:0:0:0:
388,148,220425,5,8,0:0:0:0:
369,170,220513,1,8,0:0:0:0:
345,188,220602,1,8,0:0:0:0:
319,202,220690,1,8,0:0:0:0:
291,214,220778,1,8,0:0:0:0:
263,225,220866,1,8,0:0:0:0:
234,233,220955,1,8,0:0:0:0:
205,238,221043,1,8,0:0:0:0:
175,240,221131,1,8,0:0:0:0:
92,80,221485,5,6,0:0:0:0:
