osu file format v14

[General]
AudioFilename: audio.mp3
AudioLeadIn: 0
PreviewTime: -1
Countdown: 1
SampleSet: None
StackLeniency: 0.7
Mode: 0
LetterboxInBreaks: 0
WidescreenStoryboard: 0

[Editor]
DistanceSpacing: 0.8
BeatDivisor: 4
GridSize: 8
TimelineZoom: 0.6500022

[Metadata]
Title:Farewell
TitleUnicode:Farewell
Artist:Hellberg & TwoThirds
ArtistUnicode:Hellberg & TwoThirds
Creator:Far Beyond You
Version:Hard
Source:
Tags:House
BeatmapID:1274121
BeatmapSetID:603235

[Difficulty]
HPDrainRate:6
CircleSize:4
OverallDifficulty:7
ApproachRate:9
SliderMultiplier:1.4
SliderTickRate:2

[Events]
//Background and Video events
0,0,"Sonnenuntergang.jpg",0,0
//Break Periods
//Storyboard Layer 0 (Background)
//Storyboard Layer 1 (Fail)
//Storyboard Layer 2 (Pass)
//Storyboard Layer 3 (Foreground)
//Storyboard Sound Samples

[TimingPoints]
2644.06986527281,468.75,4,3,0,100,1,0
121706,-50,4,3,0,100,0,0
135534,-100,4,3,0,100,0,0
136706,-50,4,3,0,100,0,0
151706,-50,4,3,0,100,0,1
152175,-200,4,3,0,100,0,1
152644,-50,4,3,0,100,0,1
155921,-200,4,3,0,100,0,1
156394,-50,4,3,0,100,0,1
159206,-50,4,3,0,100,0,0
166706,-50,4,3,0,100,0,1
167175,-200,4,3,0,100,0,1
167644,-50,4,3,0,100,0,1
170925,-200,4,3,0,100,0,1
171394,-50,4,3,0,100,0,1
180534,-200,4,3,0,100,0,1

[HitObjects]
256,192,58894,12,0,61706,0:0:0:0:
200,184,62878,6,0,B|248:192|248:192|272:144,2,70
184,96,64284,2,0,P|128:80|64:24,2,140
72,152,65456,1,0,0:0:0:0:
344,224,66628,2,0,B|288:160|288:160|208:168,2,140
248,160,68034,2,0,B|192:160|168:208|168:208|120:168,2,140
304,168,69206,5,0,0:0:0:0:
56,304,70378,2,8,P|120:320|160:280,1,105,8|0,0:0|0:0,0:0:0:0:
168,280,70847,2,8,P|216:232|272:224,1,105,8|0,0:0|0:0,0:0:0:0:
280,216,71315,5,8,0:0:0:0:
200,136,71784,1,0,0:0:0:0:
304,96,72253,1,0,0:0:0:0:
280,208,72722,1,0,0:0:0:0:
336,120,74128,1,0,0:0:0:0:
216,168,74362,2,0,L|248:200,1,35
352,224,74597,2,0,L|288:296,1,70,0|4,0:0|0:0,0:0:0:0:
144,168,76003,1,0,0:0:0:0:
240,192,76237,1,0,0:0:0:0:
280,88,76472,6,4,L|352:136,1,70
184,80,77175,1,0,0:0:0:0:
344,176,77644,1,0,0:0:0:0:
224,240,77878,2,0,B|184:264|184:264|144:232,2,70
328,176,78581,1,0,0:0:0:0:
248,312,79050,1,0,0:0:0:0:
152,208,79284,2,0,P|112:176|128:96,2,140
272,240,80456,1,4,0:0:0:0:
360,112,80925,1,0,0:0:0:0:
176,152,81394,1,0,0:0:0:0:
312,200,81628,2,0,L|384:224,2,70
216,264,82331,2,4,L|128:224,1,70
200,152,83034,2,4,P|256:160|336:128,2,140
376,208,84206,1,0,0:0:0:0:
176,160,85378,6,0,L|104:120,1,70
272,224,85847,2,0,L|352:272,2,70
128,128,86550,1,0,0:0:0:0:
184,240,86784,1,0,0:0:0:0:
200,56,87253,1,0,0:0:0:0:
184,240,87722,1,8,0:0:0:0:
256,176,89128,2,0,P|288:136|312:144,2,70
256,280,89831,1,0,0:0:0:0:
184,216,90065,2,0,L|112:160,1,70
296,136,90534,1,0,0:0:0:0:
208,64,90769,2,0,L|144:16,2,70
288,136,91472,1,0,0:0:0:0:
288,136,91706,5,8,0:0:0:0:
184,224,91940,1,0,0:0:0:0:
320,224,92175,2,0,L|368:288,1,70
208,176,92644,2,8,P|152:152|120:152,1,70,8|0,0:0|0:0,0:0:0:0:
248,264,93112,1,0,0:0:0:0:
320,96,93347,1,0,0:0:0:0:
408,216,93581,1,8,0:0:0:0:
352,48,93815,1,0,0:0:0:0:
448,168,94050,1,0,0:0:0:0:
384,8,94284,1,0,0:0:0:0:
416,240,94519,2,0,P|392:280|352:288,1,70,8|0,0:0|0:0,0:0:0:0:
232,192,94987,2,0,P|176:184|144:200,1,70
264,312,95456,6,0,L|352:336,1,70,8|0,0:0|0:0,0:0:0:0:
312,200,95925,1,0,0:0:0:0:
288,104,96159,2,0,P|248:72|208:64,1,70,0|8,0:0|0:0,0:0:0:0:
112,184,96628,2,0,P|144:152|192:168,1,70
280,208,97097,2,0,P|320:176|352:192,1,70,0|8,0:0|0:0,0:0:0:0:
328,296,97565,2,0,P|288:312|248:296,1,70
200,264,98034,2,0,L|144:216,1,70,0|8,0:0|0:0,0:0:0:0:
352,264,98503,1,0,0:0:0:0:
152,168,98737,1,0,0:0:0:0:
224,304,98972,1,0,0:0:0:0:
280,168,99206,6,0,L|320:96,1,70,8|0,0:0|0:0,0:0:0:0:
336,256,99675,2,0,L|416:200,1,70
376,352,100144,2,8,L|448:328,1,70,8|0,0:0|0:0,0:0:0:0:
272,304,100612,2,0,L|176:280,1,70
408,264,101081,1,8,0:0:0:0:
192,208,101315,1,0,0:0:0:0:
336,96,101550,1,0,0:0:0:0:
280,264,101784,2,0,L|336:320,1,70,0|8,0:0|0:0,0:0:0:0:
256,128,102253,1,0,0:0:0:0:
392,216,102487,1,0,0:0:0:0:
240,280,102722,1,0,0:0:0:0:
96,224,102956,6,0,P|64:200|88:176,1,70,8|0,0:0|0:0,0:0:0:0:
168,304,103425,1,0,0:0:0:0:
144,96,103659,2,0,P|128:64|152:48,1,70,0|8,0:0|0:0,0:0:0:0:
208,216,104128,1,0,0:0:0:0:
304,144,104362,2,0,P|344:120|384:128,1,70
264,256,104831,2,0,P|216:280|192:272,1,70,8|0,0:0|0:0,0:0:0:0:
368,136,105300,1,0,0:0:0:0:
208,192,105534,2,8,P|144:208|112:144,1,140,0|0,0:0|0:0,0:0:0:0:
224,256,106237,1,0,0:0:0:0:
168,96,106472,1,0,0:0:0:0:
320,184,106706,6,8,L|392:208,1,70,8|0,0:0|0:0,0:0:0:0:
280,88,107175,1,8,0:0:0:0:
280,88,107409,1,0,0:0:0:0:
192,192,107644,2,0,L|128:248,1,70,8|0,0:0|0:0,0:0:0:0:
336,264,108112,1,8,0:0:0:0:
336,264,108347,1,0,0:0:0:0:
240,160,108581,2,0,L|192:104,1,70,8|0,0:0|0:0,0:0:0:0:
384,160,109050,1,8,0:0:0:0:
384,160,109284,1,0,0:0:0:0:
232,248,109519,2,0,L|168:296,1,70,8|0,0:0|0:0,0:0:0:0:
200,112,109987,1,8,0:0:0:0:
200,112,110222,1,0,0:0:0:0:
312,248,110456,6,0,L|360:304,1,70,8|0,0:0|0:0,0:0:0:0:
176,272,110925,1,8,0:0:0:0:
176,272,111159,1,0,0:0:0:0:
304,160,111394,2,0,L|376:96,1,70,8|0,0:0|0:0,0:0:0:0:
168,136,111862,1,8,0:0:0:0:
168,136,112097,1,0,0:0:0:0:
304,72,112331,2,0,L|392:32,1,70,8|0,0:0|0:0,0:0:0:0:
248,200,112800,1,8,0:0:0:0:
248,200,113034,1,0,0:0:0:0:
152,272,113269,2,0,L|88:320,1,70,8|0,0:0|0:0,0:0:0:0:
328,296,113737,1,8,0:0:0:0:
328,296,113972,1,0,0:0:0:0:
336,200,114206,5,8,0:0:0:0:
333,165,114323,1,8,0:0:0:0:
313,136,114440,1,8,0:0:0:0:
281,126,114558,1,8,0:0:0:0:
246,131,114675,1,8,0:0:0:0:
215,146,114792,5,8,0:0:0:0:
188,168,114909,1,8,0:0:0:0:
168,197,115026,1,8,0:0:0:0:
149,205,115144,1,8,0:0:0:0:
124,180,115261,1,8,0:0:0:0:
96,152,115378,5,8,0:0:0:0:
72,128,115495,1,8,0:0:0:0:
144,72,115612,1,8,0:0:0:0:
160,67,115730,1,8,0:0:0:0:
176,64,115847,5,8,0:0:0:0:
193,63,115964,1,8,0:0:0:0:
210,63,116081,1,8,0:0:0:0:
227,65,116198,1,8,0:0:0:0:
240,64,116315,5,8,0:0:0:0:
260,71,116433,1,8,0:0:0:0:
276,74,116550,1,8,0:0:0:0:
293,75,116667,1,8,0:0:0:0:
309,72,116784,1,8,0:0:0:0:
324,65,116901,1,8,0:0:0:0:
376,176,117019,1,8,0:0:0:0:
354,193,117136,1,8,0:0:0:0:
332,211,117253,5,8,0:0:0:0:
310,229,117370,1,8,0:0:0:0:
289,246,117487,1,8,0:0:0:0:
264,235,117605,1,8,0:0:0:0:
237,231,117722,1,8,0:0:0:0:
209,234,117839,5,8,0:0:0:0:
112,160,117956,1,8,0:0:0:0:
90,178,118073,1,8,0:0:0:0:
69,196,118190,1,8,0:0:0:0:
63,214,118308,1,8,0:0:0:0:
86,231,118425,1,8,0:0:0:0:
110,245,118542,1,8,0:0:0:0:
136,255,118659,5,8,0:0:0:0:
164,261,118776,1,8,0:0:0:0:
191,260,118894,1,8,0:0:0:0:
219,253,119011,1,8,0:0:0:0:
244,241,119128,1,8,0:0:0:0:
266,224,119245,1,8,0:0:0:0:
286,205,119362,1,8,0:0:0:0:
304,183,119480,5,8,0:0:0:0:
320,160,119597,1,8,0:0:0:0:
335,137,119714,1,8,0:0:0:0:
224,80,119831,5,8,0:0:0:0:
152,104,119948,1,8,0:0:0:0:
106,169,120065,1,8,0:0:0:0:
110,247,120183,1,8,0:0:0:0:
152,312,120300,1,8,0:0:0:0:
216,360,120417,1,8,0:0:0:0:
288,368,120534,2,8,L|328:368,3,35
376,328,121003,2,8,L|432:280,2,70
104,88,121706,6,0,L|128:240,1,140
392,88,122175,6,0,L|360:248,1,140
152,296,122644,2,0,L|64:176,1,140
368,256,123112,1,0,0:0:0:0:
112,112,123347,2,0,P|208:176|264:160,1,140
360,96,123815,1,0,0:0:0:0:
312,232,124050,2,0,P|200:288|168:272,1,140
208,104,124519,2,0,P|296:72|376:88,1,140
168,280,124987,2,0,P|88:264|24:208,1,140
200,112,125456,6,0,P|288:96|368:120,1,140
192,280,125925,1,0,0:0:0:0:
336,168,126159,2,0,P|424:128|472:40,1,140
224,56,126628,2,0,P|144:104|112:160,1,140
304,288,127097,2,0,P|392:248|424:184,1,140
224,120,127565,2,0,P|136:160|96:224,1,140
344,192,128034,2,0,P|408:152|440:80,1,140
376,272,128503,2,0,P|304:312|224:288,1,140
184,144,128972,1,0,0:0:0:0:
368,56,129206,6,0,P|360:136|312:200,1,140
112,168,129675,2,0,P|104:272|136:320,1,140
368,208,130144,2,0,P|400:128|368:48,1,140
176,208,130612,2,0,P|184:304|224:344,1,140
368,112,131081,1,0,0:0:0:0:
304,296,131315,1,0,0:0:0:0:
168,136,131550,1,0,0:0:0:0:
328,272,131784,2,0,P|432:280|480:248,1,140
272,96,132253,2,0,P|200:64|112:104,1,140
248,240,132722,1,0,0:0:0:0:
152,160,132956,6,0,L|32:48,2,140
248,240,133659,1,0,0:0:0:0:
352,160,133894,2,0,L|456:56,2,140
176,104,134597,1,0,0:0:0:0:
296,232,134831,6,0,L|400:336,2,140
224,296,135534,2,0,P|184:320|104:288,1,140
304,176,136237,1,0,0:0:0:0:
96,112,136472,1,0,0:0:0:0:
384,224,136706,6,0,P|320:312|288:328,1,140
208,128,137175,2,0,P|240:56|312:16,1,140
248,280,137644,2,0,P|160:328|104:320,1,140
192,104,138112,2,0,P|296:64|336:64,1,140
88,88,138581,1,0,0:0:0:0:
256,248,138815,2,0,P|368:312|408:296,1,140
272,80,139284,2,0,P|176:72|104:128,1,140
184,288,139753,2,0,P|288:296|336:264,1,140
152,120,140222,1,0,0:0:0:0:
392,232,140456,6,0,P|456:136|440:56,1,140
248,240,140925,1,0,0:0:0:0:
168,136,141159,2,0,P|88:80|-8:64,1,140
336,136,141628,2,0,P|256:48|208:32,1,140
280,240,142097,2,0,P|360:328|392:336,1,140
136,240,142565,2,0,P|184:320|240:352,1,140
328,176,143034,2,0,P|400:136|416:48,2,140
160,224,143737,2,0,P|80:216|16:152,1,140
216,288,144206,1,0,0:0:0:0:
432,192,144440,5,0,0:0:0:0:
216,216,144675,1,0,0:0:0:0:
432,120,144909,1,0,0:0:0:0:
216,144,145144,1,0,0:0:0:0:
432,48,145378,1,0,0:0:0:0:
368,240,145612,1,0,0:0:0:0:
368,40,145847,1,0,0:0:0:0:
304,240,146081,1,0,0:0:0:0:
232,120,146315,2,0,P|152:88|64:96,1,140
160,280,146784,2,0,P|280:304|328:264,1,140
368,168,147253,2,0,P|424:96|432:48,2,140
224,280,147956,6,0,L|112:376,2,140
112,160,148659,1,0,0:0:0:0:
248,104,148894,6,0,L|400:32,2,140
336,240,149597,1,0,0:0:0:0:
200,160,149831,6,0,L|72:104,2,140
224,264,150534,1,0,0:0:0:0:
320,296,150769,1,0,0:0:0:0:
424,256,151003,1,0,0:0:0:0:
480,176,151237,1,0,0:0:0:0:
352,80,151472,1,0,0:0:0:0:
240,208,151706,6,0,L|104:104,1,140
208,304,152175,6,0,P|232:312|264:296,1,52.5
280,160,152644,2,0,L|392:72,1,140
296,256,153112,1,0,0:0:0:0:
160,168,153347,2,0,P|56:96|0:88,1,140
136,344,153815,2,0,P|256:344|320:304,1,140
328,144,154284,2,0,P|240:88|176:88,2,140
120,72,154987,1,0,0:0:0:0:
192,280,155222,1,0,0:0:0:0:
288,168,155456,6,0,L|400:56,1,140
288,288,155925,6,0,P|264:320|240:320,1,52.5
120,232,156394,2,0,P|40:176|32:128,1,140
352,104,156862,2,0,P|408:160|424:232,1,140
128,152,157331,2,0,P|168:72|232:48,1,140
368,272,157800,2,0,P|296:336|224:336,1,140
80,240,158269,1,0,0:0:0:0:
288,272,158503,1,0,0:0:0:0:
200,112,158737,1,0,0:0:0:0:
176,344,158972,1,0,0:0:0:0:
280,168,159206,6,0,P|352:128|440:128,1,140
352,320,159675,2,0,P|256:320|192:288,1,140
144,136,160144,2,0,P|232:96|328:112,1,140
216,272,160612,2,0,P|128:288|64:256,1,140
320,168,161081,1,0,0:0:0:0:
208,344,161315,1,0,0:0:0:0:
208,160,161550,1,0,0:0:0:0:
320,344,161784,1,0,0:0:0:0:
128,232,162019,1,0,0:0:0:0:
304,96,162253,1,0,0:0:0:0:
128,232,162487,1,0,0:0:0:0:
304,96,162722,6,0,P|400:72|464:80,1,140
208,152,163190,1,0,0:0:0:0:
376,240,163425,1,0,0:0:0:0:
208,296,163659,2,0,P|120:272|64:216,1,140
296,280,164128,1,0,0:0:0:0:
128,176,164362,1,0,0:0:0:0:
256,80,164597,2,0,P|336:56|448:88,1,140
128,48,165065,1,0,0:0:0:0:
320,192,165300,1,0,0:0:0:0:
216,16,165534,1,0,0:0:0:0:
232,232,165769,1,0,0:0:0:0:
312,16,166003,1,0,0:0:0:0:
136,200,166237,1,0,0:0:0:0:
376,72,166472,1,0,0:0:0:0:
216,208,166706,6,0,L|104:312,1,140
224,104,167175,6,0,P|256:72|272:72,1,52.5
400,192,167644,2,0,P|336:264|256:240,1,140
312,72,168112,1,0,0:0:0:0:
280,304,168347,2,0,P|184:296|128:248,1,140
232,72,168815,2,0,P|352:112|376:144,1,140
160,208,169284,2,0,P|96:136|104:80,1,140
344,88,169753,2,0,P|392:176|368:232,1,140
216,56,170222,1,0,0:0:0:0:
280,264,170456,2,0,L|152:328,1,140
280,176,170925,6,0,P|312:152|336:160,1,52.5
144,200,171394,6,0,P|64:160|32:104,1,140
240,112,171862,2,0,P|328:192|328:272,1,140
184,288,172331,2,0,P|320:288|360:240,1,140
280,80,172800,2,0,P|184:64|136:80,1,140
368,144,173269,1,0,0:0:0:0:
104,184,173503,1,0,0:0:0:0:
344,240,173737,1,0,0:0:0:0:
168,80,173972,1,0,0:0:0:0:
240,296,174206,6,0,P|328:304|400:264,1,140
296,144,174675,2,0,P|168:136|136:160,1,140
408,56,175144,2,0,P|360:144|296:176,1,140
216,80,175612,2,0,P|136:128|88:192,1,140
328,80,176081,1,0,0:0:0:0:
184,216,176315,1,0,0:0:0:0:
408,64,176550,1,0,0:0:0:0:
184,296,176784,1,0,0:0:0:0:
256,80,177019,1,0,0:0:0:0:
336,296,177253,1,0,0:0:0:0:
152,120,177487,1,0,0:0:0:0:
424,232,177722,1,0,0:0:0:0:
184,232,177956,6,0,L|32:232,2,140
312,320,178659,1,0,0:0:0:0:
368,192,178894,6,0,L|424:64,2,140
408,304,179597,1,0,0:0:0:0:
248,192,179831,6,0,L|128:96,2,140
296,240,180534,2,0,L|352:288,1,70
344,80,181237,5,0,0:0:0:0:
208,288,181472,1,0,0:0:0:0:
424,248,181706,1,0,0:0:0:0:
