osu file format v14

[General]
AudioFilename: audio.ogg
AudioLeadIn: 0
PreviewTime: 271139
Countdown: 0
SampleSet: Normal
StackLeniency: 0.7
Mode: 3
LetterboxInBreaks: 0
SpecialStyle: 0
WidescreenStoryboard: 0

[Editor]
Bookmarks: 65954,95267,124580,146564,153893,175877,183206,212519,241832,271145,300458,329770
DistanceSpacing: 1.3
BeatDivisor: 4
GridSize: 32
TimelineZoom: 2

[Metadata]
Title:Ass Replacer (Extended Mix)
TitleUnicode:Ass Replacer (Extended Mix)
Artist:Hell Orbs
ArtistUnicode:Hell Orbs
Creator:AHHHHHHHHHHHHHH
Version:Der Arschersetzer
Source:
Tags:CRUDBUMP Dendy Crew Pleasure Nexus Skeleton Zone Ultimate Dad Arschersetzer Techno Electronic English Drewtoothpaste CYBER VISION
BeatmapID:3142765
BeatmapSetID:1537077

[Difficulty]
HPDrainRate:8
CircleSize:4
OverallDifficulty:8
ApproachRate:5
SliderMultiplier:1.4
SliderTickRate:1

[Events]
//Background and Video events
0,0,"ass replacer.jpg",0,0
//Break Periods
//Storyboard Layer 0 (Background)
//Storyboard Layer 1 (Fail)
//Storyboard Layer 2 (Pass)
//Storyboard Layer 3 (Foreground)
//Storyboard Layer 4 (Overlay)
//Storyboard Sound Samples

[TimingPoints]
23,458.015267175573,4,1,1,100,1,0
271168,-100,4,1,1,100,0,1
285710,-100,4,1,1,100,0,0
285824,-100,4,1,1,100,0,1
298648,-100,4,1,1,100,0,0

[HitObjects]
64,192,23,5,0,0:0:0:0:
64,192,481,1,0,0:0:0:0:
64,192,939,1,0,0:0:0:0:
64,192,1397,1,0,0:0:0:0:
64,192,1855,1,0,0:0:0:0:
64,192,2313,1,0,0:0:0:0:
64,192,2771,1,0,0:0:0:0:
64,192,3229,1,0,0:0:0:0:
64,192,3687,1,0,0:0:0:0:
64,192,4145,1,0,0:0:0:0:
64,192,4603,1,0,0:0:0:0:
64,192,5061,1,0,0:0:0:0:
64,192,5519,1,0,0:0:0:0:
64,192,5977,1,0,0:0:0:0:
64,192,6435,1,0,0:0:0:0:
64,192,6893,1,0,0:0:0:0:
64,192,7351,1,0,0:0:0:0:
320,192,7580,1,0,0:0:0:0:
192,192,7694,1,0,0:0:0:0:
64,192,7809,1,0,0:0:0:0:
192,192,8038,1,0,0:0:0:0:
320,192,8152,1,0,0:0:0:0:
64,192,8267,1,0,0:0:0:0:
192,192,8496,1,0,0:0:0:0:
448,192,8610,1,0,0:0:0:0:
64,192,8725,1,0,0:0:0:0:
320,192,8954,1,0,0:0:0:0:
448,192,9068,1,0,0:0:0:0:
64,192,9183,1,0,0:0:0:0:
64,192,9641,1,0,0:0:0:0:
192,192,9870,1,0,0:0:0:0:
320,192,9984,1,0,0:0:0:0:
64,192,10099,1,0,0:0:0:0:
192,192,10328,1,0,0:0:0:0:
448,192,10442,1,0,0:0:0:0:
64,192,10557,1,0,0:0:0:0:
320,192,10786,1,0,0:0:0:0:
448,192,10900,1,0,0:0:0:0:
64,192,11015,1,0,0:0:0:0:
192,192,11244,1,0,0:0:0:0:
320,192,11358,1,0,0:0:0:0:
64,192,11473,1,0,0:0:0:0:
192,192,11702,1,0,0:0:0:0:
448,192,11816,1,0,0:0:0:0:
64,192,11931,1,0,0:0:0:0:
320,192,12160,1,0,0:0:0:0:
448,192,12274,1,0,0:0:0:0:
64,192,12389,1,0,0:0:0:0:
448,192,12618,1,0,0:0:0:0:
320,192,12732,1,0,0:0:0:0:
64,192,12847,1,0,0:0:0:0:
64,192,13305,1,0,0:0:0:0:
448,192,13534,1,0,0:0:0:0:
320,192,13648,1,0,0:0:0:0:
64,192,13763,1,0,0:0:0:0:
448,192,13992,1,0,0:0:0:0:
192,192,14106,1,0,0:0:0:0:
64,192,14221,1,0,0:0:0:0:
320,192,14450,1,0,0:0:0:0:
192,192,14564,1,0,0:0:0:0:
64,192,14679,1,0,0:0:0:0:
320,192,14908,1,0,0:0:0:0:
192,192,15023,1,0,0:0:0:0:
64,192,15137,1,0,0:0:0:0:
192,192,15366,1,0,0:0:0:0:
320,192,15481,1,0,0:0:0:0:
64,192,15595,1,0,0:0:0:0:
192,192,15824,1,0,0:0:0:0:
448,192,15939,1,0,0:0:0:0:
64,192,16053,1,0,0:0:0:0:
320,192,16282,1,0,0:0:0:0:
448,192,16397,1,0,0:0:0:0:
64,192,16511,1,0,0:0:0:0:
64,192,16969,1,0,0:0:0:0:
320,192,17084,1,0,0:0:0:0:
192,192,17198,1,0,0:0:0:0:
320,192,17313,1,0,0:0:0:0:
64,192,17427,1,0,0:0:0:0:
192,192,17656,1,0,0:0:0:0:
448,192,17771,1,0,0:0:0:0:
64,192,17885,1,0,0:0:0:0:
320,192,18114,1,0,0:0:0:0:
448,192,18229,1,0,0:0:0:0:
64,192,18343,1,0,0:0:0:0:
192,192,18572,1,0,0:0:0:0:
320,192,18687,1,0,0:0:0:0:
64,192,18801,1,0,0:0:0:0:
192,192,19030,1,0,0:0:0:0:
448,192,19145,1,0,0:0:0:0:
64,192,19259,1,0,0:0:0:0:
320,192,19488,1,0,0:0:0:0:
448,192,19603,1,0,0:0:0:0:
64,192,19717,1,0,0:0:0:0:
448,192,19946,1,0,0:0:0:0:
320,192,20061,1,0,0:0:0:0:
64,192,20175,1,0,0:0:0:0:
320,192,20404,1,0,0:0:0:0:
448,192,20519,1,0,0:0:0:0:
64,192,20633,1,0,0:0:0:0:
448,192,20862,1,0,0:0:0:0:
320,192,20977,1,0,0:0:0:0:
64,192,21091,1,0,0:0:0:0:
448,192,21320,1,0,0:0:0:0:
192,192,21435,1,0,0:0:0:0:
64,192,21549,1,0,0:0:0:0:
320,192,21778,1,0,0:0:0:0:
192,192,21893,1,0,0:0:0:0:
64,192,22007,1,0,0:0:0:0:
192,192,22236,1,0,0:0:0:0:
192,192,22351,1,0,0:0:0:0:
64,192,22465,1,0,0:0:0:0:
192,192,22694,1,0,0:0:0:0:
320,192,22809,1,0,0:0:0:0:
64,192,22923,1,0,0:0:0:0:
320,192,23152,1,0,0:0:0:0:
448,192,23267,1,0,0:0:0:0:
64,192,23381,1,0,0:0:0:0:
448,192,23610,1,0,0:0:0:0:
448,192,23725,1,0,0:0:0:0:
64,192,23839,1,0,0:0:0:0:
192,192,24068,1,0,0:0:0:0:
192,192,24183,1,0,0:0:0:0:
64,192,24297,1,0,0:0:0:0:
320,192,24412,1,0,0:0:0:0:
192,192,24526,1,0,0:0:0:0:
320,192,24641,1,0,0:0:0:0:
64,192,24755,1,0,0:0:0:0:
320,192,24984,1,0,0:0:0:0:
448,192,25099,1,0,0:0:0:0:
64,192,25213,1,0,0:0:0:0:
448,192,25442,1,0,0:0:0:0:
448,192,25557,1,0,0:0:0:0:
64,192,25671,1,0,0:0:0:0:
192,192,25900,1,0,0:0:0:0:
192,192,26015,1,0,0:0:0:0:
64,192,26129,1,0,0:0:0:0:
448,192,26244,1,0,0:0:0:0:
192,192,26358,1,0,0:0:0:0:
448,192,26473,1,0,0:0:0:0:
64,192,26587,1,0,0:0:0:0:
320,192,26816,1,0,0:0:0:0:
448,192,26931,1,0,0:0:0:0:
64,192,27045,1,0,0:0:0:0:
448,192,27274,1,0,0:0:0:0:
448,192,27389,1,0,0:0:0:0:
64,192,27503,1,0,0:0:0:0:
448,192,27732,1,0,0:0:0:0:
320,192,27847,1,0,0:0:0:0:
64,192,27961,1,0,0:0:0:0:
320,192,28190,1,0,0:0:0:0:
192,192,28305,1,0,0:0:0:0:
64,192,28419,1,0,0:0:0:0:
320,192,28648,1,0,0:0:0:0:
320,192,28763,1,0,0:0:0:0:
64,192,28877,1,0,0:0:0:0:
448,192,28992,1,0,0:0:0:0:
192,192,29106,1,0,0:0:0:0:
192,192,29221,1,0,0:0:0:0:
64,192,29335,1,0,0:0:0:0:
192,192,29564,1,0,0:0:0:0:
192,192,29679,1,0,0:0:0:0:
64,192,29793,1,0,0:0:0:0:
320,192,30023,1,0,0:0:0:0:
320,192,30137,1,0,0:0:0:0:
64,192,30252,1,0,0:0:0:0:
64,192,30366,1,0,0:0:0:0:
320,192,30481,1,0,0:0:0:0:
448,192,30595,1,0,0:0:0:0:
64,192,30710,1,0,0:0:0:0:
192,192,30824,1,0,0:0:0:0:
448,192,30939,1,0,0:0:0:0:
448,192,31053,1,0,0:0:0:0:
64,192,31168,1,0,0:0:0:0:
192,192,31397,1,0,0:0:0:0:
192,192,31511,1,0,0:0:0:0:
64,192,31626,1,0,0:0:0:0:
320,192,31740,1,0,0:0:0:0:
192,192,31855,1,0,0:0:0:0:
320,192,31969,1,0,0:0:0:0:
64,192,32084,1,0,0:0:0:0:
320,192,32313,1,0,0:0:0:0:
320,192,32427,1,0,0:0:0:0:
64,192,32542,1,0,0:0:0:0:
448,192,32771,1,0,0:0:0:0:
448,192,32885,1,0,0:0:0:0:
64,192,33000,1,0,0:0:0:0:
192,192,33229,1,0,0:0:0:0:
192,192,33343,1,0,0:0:0:0:
64,192,33458,1,0,0:0:0:0:
448,192,33572,1,0,0:0:0:0:
192,192,33687,1,0,0:0:0:0:
448,192,33801,1,0,0:0:0:0:
64,192,33916,1,0,0:0:0:0:
320,192,34145,1,0,0:0:0:0:
448,192,34259,1,0,0:0:0:0:
64,192,34374,1,0,0:0:0:0:
192,192,34488,1,0,0:0:0:0:
448,192,34603,1,0,0:0:0:0:
448,192,34717,1,0,0:0:0:0:
64,192,34832,1,0,0:0:0:0:
448,192,35061,1,0,0:0:0:0:
320,192,35175,1,0,0:0:0:0:
64,192,35290,1,0,0:0:0:0:
320,192,35404,1,0,0:0:0:0:
320,192,35519,1,0,0:0:0:0:
192,192,35633,1,0,0:0:0:0:
64,192,35748,1,0,0:0:0:0:
320,192,35862,1,0,0:0:0:0:
192,192,35977,1,0,0:0:0:0:
192,192,36091,1,0,0:0:0:0:
64,192,36206,1,0,0:0:0:0:
320,192,36320,1,0,0:0:0:0:
64,192,36435,1,0,0:0:0:0:
64,192,36549,1,0,0:0:0:0:
448,192,36664,1,0,0:0:0:0:
192,192,36893,1,0,0:0:0:0:
320,192,36921,1,0,0:0:0:0:
192,192,37007,1,0,0:0:0:0:
448,192,37122,1,0,0:0:0:0:
448,192,37351,1,0,0:0:0:0:
448,192,37465,1,0,0:0:0:0:
64,192,37580,1,0,0:0:0:0:
320,192,37694,1,0,0:0:0:0:
192,192,37809,1,0,0:0:0:0:
320,192,37923,1,0,0:0:0:0:
448,192,38038,1,0,0:0:0:0:
448,192,38152,1,0,0:0:0:0:
192,192,38267,1,0,0:0:0:0:
192,192,38381,1,0,0:0:0:0:
64,192,38496,1,0,0:0:0:0:
192,192,38725,1,0,0:0:0:0:
320,192,38753,1,0,0:0:0:0:
192,192,38839,1,0,0:0:0:0:
448,192,38954,1,0,0:0:0:0:
448,192,39183,1,0,0:0:0:0:
448,192,39297,1,0,0:0:0:0:
64,192,39412,1,0,0:0:0:0:
320,192,39526,1,0,0:0:0:0:
192,192,39641,1,0,0:0:0:0:
64,192,39698,1,0,0:0:0:0:
320,192,39755,1,0,0:0:0:0:
448,192,39870,1,0,0:0:0:0:
192,192,39984,1,0,0:0:0:0:
320,192,40099,1,0,0:0:0:0:
448,192,40213,1,0,0:0:0:0:
64,192,40328,1,0,0:0:0:0:
320,192,40442,1,0,0:0:0:0:
192,192,40557,1,0,0:0:0:0:
320,192,40585,1,0,0:0:0:0:
192,192,40671,1,0,0:0:0:0:
448,192,40786,1,0,0:0:0:0:
64,192,40786,1,0,0:0:0:0:
320,192,40900,1,0,0:0:0:0:
192,192,41015,1,0,0:0:0:0:
448,192,41129,1,0,0:0:0:0:
64,192,41244,1,0,0:0:0:0:
192,192,41358,1,0,0:0:0:0:
320,192,41473,1,0,0:0:0:0:
448,192,41587,1,0,0:0:0:0:
448,192,41702,1,0,0:0:0:0:
64,192,41702,1,0,0:0:0:0:
192,192,41816,1,0,0:0:0:0:
448,192,41931,1,0,0:0:0:0:
448,192,42045,1,0,0:0:0:0:
64,192,42160,1,0,0:0:0:0:
448,192,42389,1,0,0:0:0:0:
320,192,42418,1,0,0:0:0:0:
192,192,42503,1,0,0:0:0:0:
448,192,42618,1,0,0:0:0:0:
320,192,42732,1,0,0:0:0:0:
320,192,42847,1,0,0:0:0:0:
192,192,42961,1,0,0:0:0:0:
64,192,43076,1,0,0:0:0:0:
320,192,43190,1,0,0:0:0:0:
192,192,43305,1,0,0:0:0:0:
320,192,43362,1,0,0:0:0:0:
64,192,43419,1,0,0:0:0:0:
448,192,43534,1,0,0:0:0:0:
320,192,43648,1,0,0:0:0:0:
192,192,43763,1,0,0:0:0:0:
192,192,43877,1,0,0:0:0:0:
64,192,43992,1,0,0:0:0:0:
320,192,44221,1,0,0:0:0:0:
448,192,44250,1,0,0:0:0:0:
192,192,44335,1,0,0:0:0:0:
64,192,44450,1,0,0:0:0:0:
192,192,44679,1,0,0:0:0:0:
320,192,44793,1,0,0:0:0:0:
64,192,44908,1,0,0:0:0:0:
192,192,45137,1,0,0:0:0:0:
448,192,45252,1,0,0:0:0:0:
64,192,45366,1,0,0:0:0:0:
320,192,45595,1,0,0:0:0:0:
448,192,45710,1,0,0:0:0:0:
64,192,45824,1,0,0:0:0:0:
192,192,46053,1,0,0:0:0:0:
320,192,46082,1,0,0:0:0:0:
64,192,46282,1,0,0:0:0:0:
192,192,46511,1,0,0:0:0:0:
320,192,46626,1,0,0:0:0:0:
64,192,46740,1,0,0:0:0:0:
192,192,46969,1,0,0:0:0:0:
320,192,47026,1,0,0:0:0:0:
448,192,47084,1,0,0:0:0:0:
64,192,47198,1,0,0:0:0:0:
320,192,47427,1,0,0:0:0:0:
448,192,47542,1,0,0:0:0:0:
64,192,47656,1,0,0:0:0:0:
192,192,47885,1,0,0:0:0:0:
448,192,47914,1,0,0:0:0:0:
320,192,48000,1,0,0:0:0:0:
64,192,48114,1,0,0:0:0:0:
192,192,48343,1,0,0:0:0:0:
448,192,48458,1,0,0:0:0:0:
64,192,48572,1,0,0:0:0:0:
320,192,48801,1,0,0:0:0:0:
448,192,48916,1,0,0:0:0:0:
64,192,49030,1,0,0:0:0:0:
448,192,49259,1,0,0:0:0:0:
320,192,49374,1,0,0:0:0:0:
64,192,49488,1,0,0:0:0:0:
448,192,49717,1,0,0:0:0:0:
192,192,49746,1,0,0:0:0:0:
320,192,49832,1,0,0:0:0:0:
64,192,49946,1,0,0:0:0:0:
448,192,50175,1,0,0:0:0:0:
192,192,50290,1,0,0:0:0:0:
64,192,50404,1,0,0:0:0:0:
320,192,50633,1,0,0:0:0:0:
448,192,50690,1,0,0:0:0:0:
192,192,50748,1,0,0:0:0:0:
64,192,50862,1,0,0:0:0:0:
320,192,51091,1,0,0:0:0:0:
192,192,51148,1,0,0:0:0:0:
448,192,51206,1,0,0:0:0:0:
320,192,51263,1,0,0:0:0:0:
64,192,51320,1,0,0:0:0:0:
320,192,51549,1,0,0:0:0:0:
448,192,51578,1,0,0:0:0:0:
192,192,51664,1,0,0:0:0:0:
64,192,51778,1,0,0:0:0:0:
192,192,52007,1,0,0:0:0:0:
320,192,52122,1,0,0:0:0:0:
64,192,52236,1,0,0:0:0:0:
192,192,52465,1,0,0:0:0:0:
448,192,52580,1,0,0:0:0:0:
64,192,52694,1,0,0:0:0:0:
320,192,52923,1,0,0:0:0:0:
448,192,53038,1,0,0:0:0:0:
64,192,53152,1,0,0:0:0:0:
192,192,53381,1,0,0:0:0:0:
320,192,53410,1,0,0:0:0:0:
448,192,53496,1,0,0:0:0:0:
64,192,53610,1,0,0:0:0:0:
320,192,53725,1,0,0:0:0:0:
192,192,53839,1,0,0:0:0:0:
320,192,53954,1,0,0:0:0:0:
64,192,54068,128,0,54183:0:0:0:0:
192,192,54297,1,0,0:0:0:0:
320,192,54355,1,0,0:0:0:0:
448,192,54412,1,0,0:0:0:0:
64,192,54526,1,0,0:0:0:0:
320,192,54755,1,0,0:0:0:0:
448,192,54870,1,0,0:0:0:0:
64,192,54984,1,0,0:0:0:0:
192,192,55213,1,0,0:0:0:0:
448,192,55242,1,0,0:0:0:0:
320,192,55328,1,0,0:0:0:0:
64,192,55442,1,0,0:0:0:0:
192,192,55671,1,0,0:0:0:0:
448,192,55786,1,0,0:0:0:0:
64,192,55900,1,0,0:0:0:0:
320,192,56129,1,0,0:0:0:0:
448,192,56244,1,0,0:0:0:0:
64,192,56358,1,0,0:0:0:0:
448,192,56587,1,0,0:0:0:0:
320,192,56702,1,0,0:0:0:0:
64,192,56816,1,0,0:0:0:0:
320,192,57045,1,0,0:0:0:0:
192,192,57074,1,0,0:0:0:0:
448,192,57160,1,0,0:0:0:0:
64,192,57274,1,0,0:0:0:0:
448,192,57503,1,0,0:0:0:0:
320,192,57618,1,0,0:0:0:0:
64,192,57732,1,0,0:0:0:0:
64,192,57847,1,0,0:0:0:0:
448,192,57961,1,0,0:0:0:0:
320,192,58019,1,0,0:0:0:0:
192,192,58076,1,0,0:0:0:0:
64,192,58190,1,0,0:0:0:0:
320,192,58305,1,0,0:0:0:0:
320,192,58419,1,0,0:0:0:0:
192,192,58534,1,0,0:0:0:0:
64,192,58648,1,0,0:0:0:0:
192,192,58877,1,0,0:0:0:0:
448,192,58906,1,0,0:0:0:0:
192,192,58992,1,0,0:0:0:0:
64,192,59106,1,0,0:0:0:0:
192,192,59335,1,0,0:0:0:0:
320,192,59450,1,0,0:0:0:0:
64,192,59564,1,0,0:0:0:0:
320,192,59793,1,0,0:0:0:0:
448,192,59908,1,0,0:0:0:0:
64,192,60023,1,0,0:0:0:0:
448,192,60252,1,0,0:0:0:0:
448,192,60366,1,0,0:0:0:0:
64,192,60481,1,0,0:0:0:0:
192,192,60710,1,0,0:0:0:0:
448,192,60738,1,0,0:0:0:0:
192,192,60824,1,0,0:0:0:0:
64,192,60939,1,0,0:0:0:0:
320,192,61053,1,0,0:0:0:0:
192,192,61168,1,0,0:0:0:0:
320,192,61282,1,0,0:0:0:0:
64,192,61397,128,0,61511:0:0:0:0:
320,192,61626,1,0,0:0:0:0:
192,192,61683,1,0,0:0:0:0:
448,192,61740,1,0,0:0:0:0:
64,192,61855,1,0,0:0:0:0:
448,192,62084,1,0,0:0:0:0:
448,192,62198,1,0,0:0:0:0:
64,192,62313,1,0,0:0:0:0:
192,192,62542,1,0,0:0:0:0:
320,192,62570,1,0,0:0:0:0:
192,192,62656,1,0,0:0:0:0:
64,192,62771,1,0,0:0:0:0:
448,192,62885,1,0,0:0:0:0:
192,192,63000,1,0,0:0:0:0:
448,192,63114,1,0,0:0:0:0:
64,192,63229,1,0,0:0:0:0:
320,192,63458,1,0,0:0:0:0:
448,192,63572,1,0,0:0:0:0:
64,192,63687,1,0,0:0:0:0:
448,192,63916,1,0,0:0:0:0:
448,192,64030,1,0,0:0:0:0:
64,192,64145,1,0,0:0:0:0:
448,192,64374,1,0,0:0:0:0:
192,192,64402,1,0,0:0:0:0:
448,192,64488,1,0,0:0:0:0:
64,192,64603,1,0,0:0:0:0:
448,192,64717,1,0,0:0:0:0:
320,192,64832,1,0,0:0:0:0:
320,192,64946,1,0,0:0:0:0:
64,192,65061,1,0,0:0:0:0:
448,192,65175,1,0,0:0:0:0:
192,192,65290,1,0,0:0:0:0:
320,192,65347,1,0,0:0:0:0:
192,192,65404,1,0,0:0:0:0:
320,192,65519,1,0,0:0:0:0:
64,192,65633,1,0,0:0:0:0:
320,192,65748,1,0,0:0:0:0:
192,192,65805,1,0,0:0:0:0:
448,192,65862,1,0,0:0:0:0:
320,192,65919,1,0,0:0:0:0:
64,192,65977,1,0,0:0:0:0:
192,192,65977,1,0,0:0:0:0:
64,192,66206,1,0,0:0:0:0:
320,192,66234,1,0,0:0:0:0:
64,192,66320,1,0,0:0:0:0:
320,192,66435,1,0,0:0:0:0:
448,192,66435,1,0,0:0:0:0:
192,192,66435,1,0,0:0:0:0:
64,192,66549,1,0,0:0:0:0:
320,192,66664,1,0,0:0:0:0:
320,192,66778,1,0,0:0:0:0:
64,192,66893,1,0,0:0:0:0:
448,192,66893,1,0,0:0:0:0:
320,192,67007,1,0,0:0:0:0:
192,192,67122,1,0,0:0:0:0:
192,192,67236,1,0,0:0:0:0:
64,192,67351,1,0,0:0:0:0:
448,192,67351,1,0,0:0:0:0:
320,192,67351,1,0,0:0:0:0:
192,192,67465,1,0,0:0:0:0:
448,192,67580,1,0,0:0:0:0:
448,192,67694,1,0,0:0:0:0:
320,192,67809,1,0,0:0:0:0:
64,192,67809,1,0,0:0:0:0:
64,192,68038,1,0,0:0:0:0:
320,192,68066,1,0,0:0:0:0:
64,192,68152,1,0,0:0:0:0:
320,192,68267,1,0,0:0:0:0:
192,192,68267,1,0,0:0:0:0:
448,192,68267,1,0,0:0:0:0:
64,192,68381,1,0,0:0:0:0:
320,192,68496,1,0,0:0:0:0:
320,192,68610,1,0,0:0:0:0:
64,192,68725,1,0,0:0:0:0:
448,192,68725,128,0,68839:0:0:0:0:
320,192,68839,1,0,0:0:0:0:
192,192,68954,1,0,0:0:0:0:
64,192,69011,1,0,0:0:0:0:
320,192,69068,1,0,0:0:0:0:
64,192,69183,1,0,0:0:0:0:
448,192,69183,1,0,0:0:0:0:
320,192,69183,1,0,0:0:0:0:
192,192,69297,1,0,0:0:0:0:
448,192,69412,1,0,0:0:0:0:
448,192,69526,1,0,0:0:0:0:
320,192,69641,1,0,0:0:0:0:
64,192,69641,1,0,0:0:0:0:
64,192,69870,1,0,0:0:0:0:
448,192,69898,1,0,0:0:0:0:
64,192,69984,1,0,0:0:0:0:
320,192,70099,1,0,0:0:0:0:
448,192,70099,1,0,0:0:0:0:
192,192,70099,1,0,0:0:0:0:
64,192,70213,1,0,0:0:0:0:
448,192,70328,1,0,0:0:0:0:
448,192,70442,1,0,0:0:0:0:
64,192,70557,1,0,0:0:0:0:
320,192,70557,1,0,0:0:0:0:
448,192,70671,1,0,0:0:0:0:
192,192,70786,1,0,0:0:0:0:
192,192,70900,1,0,0:0:0:0:
64,192,71015,1,0,0:0:0:0:
320,192,71015,1,0,0:0:0:0:
448,192,71015,1,0,0:0:0:0:
192,192,71129,1,0,0:0:0:0:
448,192,71244,1,0,0:0:0:0:
448,192,71358,1,0,0:0:0:0:
192,192,71473,1,0,0:0:0:0:
64,192,71473,1,0,0:0:0:0:
320,192,71702,1,0,0:0:0:0:
64,192,71731,1,0,0:0:0:0:
320,192,71816,1,0,0:0:0:0:
192,192,71931,1,0,0:0:0:0:
64,192,71931,1,0,0:0:0:0:
448,192,71931,1,0,0:0:0:0:
320,192,72045,1,0,0:0:0:0:
448,192,72160,1,0,0:0:0:0:
448,192,72274,1,0,0:0:0:0:
64,192,72389,1,0,0:0:0:0:
192,192,72389,1,0,0:0:0:0:
320,192,72503,1,0,0:0:0:0:
192,192,72618,1,0,0:0:0:0:
64,192,72675,1,0,0:0:0:0:
320,192,72732,1,0,0:0:0:0:
320,192,72847,1,0,0:0:0:0:
448,192,72847,1,0,0:0:0:0:
64,192,72847,1,0,0:0:0:0:
192,192,72961,1,0,0:0:0:0:
64,192,73076,1,0,0:0:0:0:
64,192,73190,1,0,0:0:0:0:
320,192,73305,1,0,0:0:0:0:
448,192,73305,1,0,0:0:0:0:
64,192,73534,1,0,0:0:0:0:
320,192,73563,1,0,0:0:0:0:
64,192,73648,1,0,0:0:0:0:
320,192,73763,1,0,0:0:0:0:
448,192,73763,1,0,0:0:0:0:
192,192,73763,1,0,0:0:0:0:
64,192,73877,1,0,0:0:0:0:
320,192,73992,1,0,0:0:0:0:
320,192,74106,1,0,0:0:0:0:
64,192,74221,1,0,0:0:0:0:
448,192,74221,1,0,0:0:0:0:
320,192,74335,1,0,0:0:0:0:
192,192,74450,1,0,0:0:0:0:
192,192,74564,1,0,0:0:0:0:
64,192,74679,1,0,0:0:0:0:
448,192,74679,1,0,0:0:0:0:
320,192,74679,1,0,0:0:0:0:
192,192,74793,1,0,0:0:0:0:
448,192,74908,1,0,0:0:0:0:
448,192,75023,1,0,0:0:0:0:
320,192,75137,1,0,0:0:0:0:
64,192,75137,1,0,0:0:0:0:
64,192,75366,1,0,0:0:0:0:
320,192,75395,1,0,0:0:0:0:
64,192,75481,1,0,0:0:0:0:
320,192,75595,1,0,0:0:0:0:
192,192,75595,1,0,0:0:0:0:
448,192,75595,1,0,0:0:0:0:
64,192,75710,1,0,0:0:0:0:
320,192,75824,1,0,0:0:0:0:
320,192,75939,1,0,0:0:0:0:
64,192,76053,1,0,0:0:0:0:
448,192,76053,128,0,76168:0:0:0:0:
320,192,76168,1,0,0:0:0:0:
192,192,76282,1,0,0:0:0:0:
64,192,76339,1,0,0:0:0:0:
320,192,76397,1,0,0:0:0:0:
64,192,76511,1,0,0:0:0:0:
448,192,76511,1,0,0:0:0:0:
320,192,76511,1,0,0:0:0:0:
192,192,76626,1,0,0:0:0:0:
448,192,76740,1,0,0:0:0:0:
448,192,76855,1,0,0:0:0:0:
320,192,76969,1,0,0:0:0:0:
64,192,76969,1,0,0:0:0:0:
64,192,77198,1,0,0:0:0:0:
448,192,77227,1,0,0:0:0:0:
64,192,77313,1,0,0:0:0:0:
320,192,77427,1,0,0:0:0:0:
448,192,77427,1,0,0:0:0:0:
192,192,77427,1,0,0:0:0:0:
64,192,77542,1,0,0:0:0:0:
448,192,77656,1,0,0:0:0:0:
448,192,77771,1,0,0:0:0:0:
64,192,77885,1,0,0:0:0:0:
320,192,77885,1,0,0:0:0:0:
448,192,78000,1,0,0:0:0:0:
192,192,78114,1,0,0:0:0:0:
192,192,78229,1,0,0:0:0:0:
64,192,78343,1,0,0:0:0:0:
320,192,78343,1,0,0:0:0:0:
448,192,78343,1,0,0:0:0:0:
192,192,78458,1,0,0:0:0:0:
448,192,78572,1,0,0:0:0:0:
448,192,78687,1,0,0:0:0:0:
192,192,78801,1,0,0:0:0:0:
64,192,78801,1,0,0:0:0:0:
320,192,79030,1,0,0:0:0:0:
64,192,79059,1,0,0:0:0:0:
320,192,79145,1,0,0:0:0:0:
192,192,79259,1,0,0:0:0:0:
64,192,79259,1,0,0:0:0:0:
448,192,79259,1,0,0:0:0:0:
320,192,79374,1,0,0:0:0:0:
448,192,79488,1,0,0:0:0:0:
448,192,79603,1,0,0:0:0:0:
64,192,79717,1,0,0:0:0:0:
192,192,79717,1,0,0:0:0:0:
320,192,79832,1,0,0:0:0:0:
192,192,79946,1,0,0:0:0:0:
64,192,80003,1,0,0:0:0:0:
320,192,80061,1,0,0:0:0:0:
320,192,80175,1,0,0:0:0:0:
448,192,80175,1,0,0:0:0:0:
64,192,80175,1,0,0:0:0:0:
192,192,80290,1,0,0:0:0:0:
320,192,80404,1,0,0:0:0:0:
192,192,80461,1,0,0:0:0:0:
448,192,80519,1,0,0:0:0:0:
320,192,80576,1,0,0:0:0:0:
192,192,80633,1,0,0:0:0:0:
64,192,80633,1,0,0:0:0:0:
64,192,80862,1,0,0:0:0:0:
320,192,80891,1,0,0:0:0:0:
64,192,80977,1,0,0:0:0:0:
320,192,81091,1,0,0:0:0:0:
448,192,81091,1,0,0:0:0:0:
192,192,81091,1,0,0:0:0:0:
192,192,81206,1,0,0:0:0:0:
320,192,81320,1,0,0:0:0:0:
320,192,81435,1,0,0:0:0:0:
64,192,81549,1,0,0:0:0:0:
448,192,81549,1,0,0:0:0:0:
320,192,81664,1,0,0:0:0:0:
192,192,81778,1,0,0:0:0:0:
192,192,81893,1,0,0:0:0:0:
64,192,82007,1,0,0:0:0:0:
448,192,82007,1,0,0:0:0:0:
320,192,82007,1,0,0:0:0:0:
192,192,82122,1,0,0:0:0:0:
448,192,82236,1,0,0:0:0:0:
448,192,82351,1,0,0:0:0:0:
320,192,82465,1,0,0:0:0:0:
64,192,82465,1,0,0:0:0:0:
64,192,82694,1,0,0:0:0:0:
320,192,82723,1,0,0:0:0:0:
64,192,82809,1,0,0:0:0:0:
320,192,82923,1,0,0:0:0:0:
192,192,82923,1,0,0:0:0:0:
448,192,82923,1,0,0:0:0:0:
192,192,83038,1,0,0:0:0:0:
320,192,83152,1,0,0:0:0:0:
320,192,83267,1,0,0:0:0:0:
64,192,83381,1,0,0:0:0:0:
448,192,83381,128,0,83496:0:0:0:0:
320,192,83496,1,0,0:0:0:0:
192,192,83610,1,0,0:0:0:0:
64,192,83668,1,0,0:0:0:0:
320,192,83725,1,0,0:0:0:0:
64,192,83839,1,0,0:0:0:0:
448,192,83839,1,0,0:0:0:0:
320,192,83839,1,0,0:0:0:0:
192,192,83954,1,0,0:0:0:0:
448,192,84068,1,0,0:0:0:0:
448,192,84183,1,0,0:0:0:0:
320,192,84297,1,0,0:0:0:0:
64,192,84297,1,0,0:0:0:0:
64,192,84526,1,0,0:0:0:0:
448,192,84555,1,0,0:0:0:0:
64,192,84641,1,0,0:0:0:0:
320,192,84755,1,0,0:0:0:0:
448,192,84755,1,0,0:0:0:0:
192,192,84755,1,0,0:0:0:0:
320,192,84870,1,0,0:0:0:0:
448,192,84984,1,0,0:0:0:0:
448,192,85099,1,0,0:0:0:0:
64,192,85213,1,0,0:0:0:0:
192,192,85213,1,0,0:0:0:0:
448,192,85328,1,0,0:0:0:0:
192,192,85442,1,0,0:0:0:0:
192,192,85557,1,0,0:0:0:0:
64,192,85671,1,0,0:0:0:0:
320,192,85671,1,0,0:0:0:0:
448,192,85671,1,0,0:0:0:0:
192,192,85786,1,0,0:0:0:0:
448,192,85900,1,0,0:0:0:0:
448,192,86015,1,0,0:0:0:0:
192,192,86129,1,0,0:0:0:0:
64,192,86129,1,0,0:0:0:0:
320,192,86358,1,0,0:0:0:0:
64,192,86387,1,0,0:0:0:0:
320,192,86473,1,0,0:0:0:0:
192,192,86587,1,0,0:0:0:0:
64,192,86587,1,0,0:0:0:0:
448,192,86587,1,0,0:0:0:0:
192,192,86702,1,0,0:0:0:0:
448,192,86816,1,0,0:0:0:0:
448,192,86931,1,0,0:0:0:0:
64,192,87045,1,0,0:0:0:0:
192,192,87045,1,0,0:0:0:0:
320,192,87160,1,0,0:0:0:0:
192,192,87274,1,0,0:0:0:0:
64,192,87332,1,0,0:0:0:0:
320,192,87389,1,0,0:0:0:0:
320,192,87503,1,0,0:0:0:0:
448,192,87503,1,0,0:0:0:0:
64,192,87503,1,0,0:0:0:0:
192,192,87618,1,0,0:0:0:0:
64,192,87732,1,0,0:0:0:0:
64,192,87847,1,0,0:0:0:0:
320,192,87961,1,0,0:0:0:0:
448,192,87961,1,0,0:0:0:0:
64,192,88190,1,0,0:0:0:0:
320,192,88219,1,0,0:0:0:0:
64,192,88305,1,0,0:0:0:0:
320,192,88419,1,0,0:0:0:0:
448,192,88419,1,0,0:0:0:0:
192,192,88419,1,0,0:0:0:0:
192,192,88534,1,0,0:0:0:0:
320,192,88648,1,0,0:0:0:0:
320,192,88763,1,0,0:0:0:0:
64,192,88877,1,0,0:0:0:0:
448,192,88877,1,0,0:0:0:0:
64,192,88992,1,0,0:0:0:0:
192,192,89106,1,0,0:0:0:0:
192,192,89221,1,0,0:0:0:0:
64,192,89335,1,0,0:0:0:0:
448,192,89335,1,0,0:0:0:0:
320,192,89335,1,0,0:0:0:0:
320,192,89450,1,0,0:0:0:0:
448,192,89564,1,0,0:0:0:0:
448,192,89679,1,0,0:0:0:0:
320,192,89793,1,0,0:0:0:0:
64,192,89793,1,0,0:0:0:0:
64,192,90023,1,0,0:0:0:0:
320,192,90051,1,0,0:0:0:0:
64,192,90137,1,0,0:0:0:0:
320,192,90252,1,0,0:0:0:0:
192,192,90252,1,0,0:0:0:0:
448,192,90252,1,0,0:0:0:0:
192,192,90366,1,0,0:0:0:0:
320,192,90481,1,0,0:0:0:0:
320,192,90595,1,0,0:0:0:0:
64,192,90710,1,0,0:0:0:0:
448,192,90710,128,0,90824:0:0:0:0:
64,192,90824,1,0,0:0:0:0:
320,192,90939,1,0,0:0:0:0:
448,192,90996,1,0,0:0:0:0:
64,192,91053,1,0,0:0:0:0:
64,192,91168,1,0,0:0:0:0:
448,192,91168,1,0,0:0:0:0:
320,192,91168,1,0,0:0:0:0:
320,192,91282,1,0,0:0:0:0:
448,192,91397,1,0,0:0:0:0:
448,192,91511,1,0,0:0:0:0:
64,192,91626,1,0,0:0:0:0:
192,192,91626,1,0,0:0:0:0:
64,192,91855,1,0,0:0:0:0:
448,192,91883,1,0,0:0:0:0:
64,192,91969,1,0,0:0:0:0:
320,192,92084,1,0,0:0:0:0:
448,192,92084,1,0,0:0:0:0:
192,192,92084,1,0,0:0:0:0:
320,192,92198,1,0,0:0:0:0:
448,192,92313,1,0,0:0:0:0:
448,192,92427,1,0,0:0:0:0:
64,192,92542,1,0,0:0:0:0:
320,192,92542,1,0,0:0:0:0:
64,192,92656,1,0,0:0:0:0:
192,192,92771,1,0,0:0:0:0:
192,192,92885,1,0,0:0:0:0:
64,192,93000,1,0,0:0:0:0:
320,192,93000,1,0,0:0:0:0:
448,192,93000,1,0,0:0:0:0:
192,192,93114,1,0,0:0:0:0:
448,192,93229,1,0,0:0:0:0:
448,192,93343,1,0,0:0:0:0:
192,192,93458,1,0,0:0:0:0:
64,192,93458,1,0,0:0:0:0:
320,192,93572,1,0,0:0:0:0:
320,192,93687,1,0,0:0:0:0:
64,192,93715,1,0,0:0:0:0:
320,192,93801,1,0,0:0:0:0:
192,192,93916,1,0,0:0:0:0:
64,192,93916,1,0,0:0:0:0:
448,192,93916,1,0,0:0:0:0:
192,192,94030,1,0,0:0:0:0:
192,192,94145,1,0,0:0:0:0:
192,192,94259,1,0,0:0:0:0:
320,192,94374,1,0,0:0:0:0:
448,192,94374,1,0,0:0:0:0:
320,192,94488,1,0,0:0:0:0:
64,192,94603,1,0,0:0:0:0:
192,192,94660,1,0,0:0:0:0:
448,192,94717,1,0,0:0:0:0:
320,192,94832,1,0,0:0:0:0:
448,192,94832,1,0,0:0:0:0:
192,192,94832,1,0,0:0:0:0:
320,192,95061,1,0,0:0:0:0:
192,192,95118,1,0,0:0:0:0:
448,192,95175,1,0,0:0:0:0:
320,192,95232,1,0,0:0:0:0:
192,192,95290,1,0,0:0:0:0:
64,192,95290,1,0,0:0:0:0:
64,192,95519,1,0,0:0:0:0:
320,192,95547,1,0,0:0:0:0:
64,192,95633,1,0,0:0:0:0:
320,192,95748,1,0,0:0:0:0:
448,192,95748,1,0,0:0:0:0:
192,192,95748,1,0,0:0:0:0:
320,192,95977,1,0,0:0:0:0:
320,192,96091,1,0,0:0:0:0:
64,192,96206,1,0,0:0:0:0:
448,192,96206,1,0,0:0:0:0:
320,192,96320,1,0,0:0:0:0:
192,192,96435,1,0,0:0:0:0:
192,192,96549,1,0,0:0:0:0:
64,192,96664,1,0,0:0:0:0:
448,192,96664,1,0,0:0:0:0:
320,192,96664,1,0,0:0:0:0:
448,192,96893,1,0,0:0:0:0:
448,192,97007,1,0,0:0:0:0:
320,192,97122,1,0,0:0:0:0:
64,192,97122,1,0,0:0:0:0:
64,192,97351,1,0,0:0:0:0:
320,192,97379,1,0,0:0:0:0:
192,192,97465,1,0,0:0:0:0:
320,192,97580,1,0,0:0:0:0:
64,192,97580,1,0,0:0:0:0:
448,192,97580,1,0,0:0:0:0:
320,192,97809,1,0,0:0:0:0:
320,192,97923,1,0,0:0:0:0:
64,192,98038,1,0,0:0:0:0:
192,192,98038,128,0,98152:0:0:0:0:
320,192,98267,1,0,0:0:0:0:
192,192,98324,1,0,0:0:0:0:
64,192,98381,1,0,0:0:0:0:
448,192,98496,1,0,0:0:0:0:
320,192,98496,1,0,0:0:0:0:
192,192,98496,1,0,0:0:0:0:
320,192,98725,1,0,0:0:0:0:
320,192,98954,1,0,0:0:0:0:
448,192,98954,1,0,0:0:0:0:
64,192,99183,1,0,0:0:0:0:
320,192,99211,1,0,0:0:0:0:
64,192,99297,1,0,0:0:0:0:
320,192,99412,1,0,0:0:0:0:
448,192,99412,1,0,0:0:0:0:
192,192,99412,1,0,0:0:0:0:
320,192,99641,1,0,0:0:0:0:
320,192,99755,1,0,0:0:0:0:
64,192,99870,1,0,0:0:0:0:
448,192,99870,1,0,0:0:0:0:
320,192,99984,1,0,0:0:0:0:
192,192,100099,1,0,0:0:0:0:
192,192,100213,1,0,0:0:0:0:
64,192,100328,1,0,0:0:0:0:
448,192,100328,1,0,0:0:0:0:
320,192,100328,1,0,0:0:0:0:
448,192,100557,1,0,0:0:0:0:
448,192,100671,1,0,0:0:0:0:
320,192,100786,1,0,0:0:0:0:
64,192,100786,1,0,0:0:0:0:
192,192,100900,1,0,0:0:0:0:
64,192,101015,1,0,0:0:0:0:
320,192,101043,1,0,0:0:0:0:
192,192,101129,1,0,0:0:0:0:
320,192,101244,1,0,0:0:0:0:
64,192,101244,1,0,0:0:0:0:
448,192,101244,1,0,0:0:0:0:
320,192,101473,1,0,0:0:0:0:
320,192,101587,1,0,0:0:0:0:
64,192,101702,1,0,0:0:0:0:
192,192,101702,1,0,0:0:0:0:
448,192,101816,1,0,0:0:0:0:
320,192,101931,1,0,0:0:0:0:
192,192,101988,1,0,0:0:0:0:
64,192,102045,1,0,0:0:0:0:
448,192,102160,1,0,0:0:0:0:
320,192,102160,1,0,0:0:0:0:
192,192,102160,1,0,0:0:0:0:
320,192,102389,1,0,0:0:0:0:
320,192,102618,1,0,0:0:0:0:
448,192,102618,1,0,0:0:0:0:
64,192,102847,1,0,0:0:0:0:
320,192,102876,1,0,0:0:0:0:
64,192,102961,1,0,0:0:0:0:
192,192,103076,1,0,0:0:0:0:
448,192,103076,1,0,0:0:0:0:
320,192,103076,1,0,0:0:0:0:
64,192,103190,1,0,0:0:0:0:
320,192,103305,1,0,0:0:0:0:
320,192,103419,1,0,0:0:0:0:
448,192,103534,1,0,0:0:0:0:
64,192,103534,1,0,0:0:0:0:
320,192,103648,1,0,0:0:0:0:
192,192,103763,1,0,0:0:0:0:
192,192,103877,1,0,0:0:0:0:
320,192,103992,1,0,0:0:0:0:
448,192,103992,1,0,0:0:0:0:
64,192,103992,1,0,0:0:0:0:
192,192,104106,1,0,0:0:0:0:
448,192,104221,1,0,0:0:0:0:
448,192,104335,1,0,0:0:0:0:
64,192,104450,1,0,0:0:0:0:
320,192,104450,1,0,0:0:0:0:
64,192,104679,1,0,0:0:0:0:
320,192,104708,1,0,0:0:0:0:
192,192,104793,1,0,0:0:0:0:
448,192,104908,1,0,0:0:0:0:
64,192,104908,1,0,0:0:0:0:
320,192,104908,1,0,0:0:0:0:
320,192,105137,1,0,0:0:0:0:
320,192,105252,1,0,0:0:0:0:
192,192,105366,128,0,105481:0:0:0:0:
64,192,105366,1,0,0:0:0:0:
320,192,105595,128,0,105710:0:0:0:0:
192,192,105652,128,0,105738:0:0:0:0:
64,192,105710,128,0,105767:0:0:0:0:
192,192,105824,1,0,0:0:0:0:
320,192,105824,128,0,105939:0:0:0:0:
448,192,105824,128,0,105939:0:0:0:0:
320,192,106053,128,0,106168:0:0:0:0:
448,192,106053,128,0,106168:0:0:0:0:
448,192,106282,128,0,106397:0:0:0:0:
320,192,106339,128,0,106425:0:0:0:0:
192,192,106397,128,0,106454:0:0:0:0:
64,192,106511,1,0,0:0:0:0:
448,192,106511,128,0,106626:0:0:0:0:
320,192,106540,128,0,106626:0:0:0:0:
64,192,106626,1,0,0:0:0:0:
320,192,106740,1,0,0:0:0:0:
192,192,106740,128,0,107084:0:0:0:0:
448,192,106740,128,0,106855:0:0:0:0:
64,192,106855,128,0,107084:0:0:0:0:
320,192,106969,1,0,0:0:0:0:
448,192,106969,128,0,107084:0:0:0:0:
320,192,107084,1,0,0:0:0:0:
448,192,107198,1,0,0:0:0:0:
64,192,107198,128,0,107313:0:0:0:0:
320,192,107313,1,0,0:0:0:0:
192,192,107427,128,0,107484:0:0:0:0:
448,192,107427,128,0,107484:0:0:0:0:
192,192,107542,1,0,0:0:0:0:
64,192,107656,1,0,0:0:0:0:
448,192,107656,1,0,0:0:0:0:
320,192,107656,1,0,0:0:0:0:
320,192,107771,1,0,0:0:0:0:
448,192,107885,1,0,0:0:0:0:
448,192,108000,1,0,0:0:0:0:
320,192,108114,1,0,0:0:0:0:
64,192,108114,1,0,0:0:0:0:
320,192,108343,1,0,0:0:0:0:
64,192,108372,1,0,0:0:0:0:
320,192,108458,1,0,0:0:0:0:
192,192,108572,1,0,0:0:0:0:
64,192,108572,1,0,0:0:0:0:
448,192,108572,1,0,0:0:0:0:
448,192,108801,1,0,0:0:0:0:
448,192,108916,1,0,0:0:0:0:
64,192,109030,1,0,0:0:0:0:
192,192,109030,1,0,0:0:0:0:
192,192,109259,1,0,0:0:0:0:
64,192,109316,1,0,0:0:0:0:
320,192,109374,1,0,0:0:0:0:
320,192,109488,1,0,0:0:0:0:
448,192,109488,1,0,0:0:0:0:
64,192,109488,1,0,0:0:0:0:
192,192,109603,1,0,0:0:0:0:
320,192,109717,1,0,0:0:0:0:
192,192,109774,1,0,0:0:0:0:
448,192,109832,1,0,0:0:0:0:
320,192,109889,1,0,0:0:0:0:
192,192,109946,1,0,0:0:0:0:
64,192,109946,1,0,0:0:0:0:
64,192,110175,1,0,0:0:0:0:
320,192,110204,1,0,0:0:0:0:
64,192,110290,1,0,0:0:0:0:
320,192,110404,1,0,0:0:0:0:
448,192,110404,1,0,0:0:0:0:
192,192,110404,1,0,0:0:0:0:
320,192,110633,1,0,0:0:0:0:
320,192,110748,1,0,0:0:0:0:
64,192,110862,1,0,0:0:0:0:
448,192,110862,1,0,0:0:0:0:
320,192,110977,1,0,0:0:0:0:
192,192,111091,1,0,0:0:0:0:
192,192,111206,1,0,0:0:0:0:
64,192,111320,1,0,0:0:0:0:
448,192,111320,1,0,0:0:0:0:
320,192,111320,1,0,0:0:0:0:
320,192,111435,1,0,0:0:0:0:
448,192,111549,1,0,0:0:0:0:
448,192,111664,1,0,0:0:0:0:
320,192,111778,1,0,0:0:0:0:
64,192,111778,1,0,0:0:0:0:
64,192,112007,1,0,0:0:0:0:
320,192,112036,1,0,0:0:0:0:
192,192,112122,1,0,0:0:0:0:
320,192,112236,1,0,0:0:0:0:
64,192,112236,1,0,0:0:0:0:
448,192,112236,1,0,0:0:0:0:
320,192,112465,1,0,0:0:0:0:
320,192,112580,1,0,0:0:0:0:
64,192,112694,1,0,0:0:0:0:
192,192,112694,128,0,112809:0:0:0:0:
320,192,112923,1,0,0:0:0:0:
192,192,112981,1,0,0:0:0:0:
64,192,113038,1,0,0:0:0:0:
448,192,113152,1,0,0:0:0:0:
320,192,113152,1,0,0:0:0:0:
192,192,113152,1,0,0:0:0:0:
320,192,113381,1,0,0:0:0:0:
448,192,113610,1,0,0:0:0:0:
320,192,113610,1,0,0:0:0:0:
64,192,113839,1,0,0:0:0:0:
320,192,113868,1,0,0:0:0:0:
64,192,113954,1,0,0:0:0:0:
320,192,114068,1,0,0:0:0:0:
448,192,114068,1,0,0:0:0:0:
192,192,114068,1,0,0:0:0:0:
320,192,114297,1,0,0:0:0:0:
320,192,114412,1,0,0:0:0:0:
64,192,114526,1,0,0:0:0:0:
448,192,114526,1,0,0:0:0:0:
320,192,114641,1,0,0:0:0:0:
192,192,114755,1,0,0:0:0:0:
192,192,114870,1,0,0:0:0:0:
64,192,114984,1,0,0:0:0:0:
448,192,114984,1,0,0:0:0:0:
320,192,114984,1,0,0:0:0:0:
448,192,115213,1,0,0:0:0:0:
448,192,115328,1,0,0:0:0:0:
64,192,115442,1,0,0:0:0:0:
320,192,115442,1,0,0:0:0:0:
192,192,115557,1,0,0:0:0:0:
64,192,115671,1,0,0:0:0:0:
320,192,115700,1,0,0:0:0:0:
192,192,115786,1,0,0:0:0:0:
448,192,115900,1,0,0:0:0:0:
64,192,115900,1,0,0:0:0:0:
320,192,115900,1,0,0:0:0:0:
320,192,116129,1,0,0:0:0:0:
320,192,116244,1,0,0:0:0:0:
64,192,116358,1,0,0:0:0:0:
192,192,116358,1,0,0:0:0:0:
448,192,116473,1,0,0:0:0:0:
320,192,116587,1,0,0:0:0:0:
192,192,116645,1,0,0:0:0:0:
64,192,116702,1,0,0:0:0:0:
192,192,116816,1,0,0:0:0:0:
320,192,116816,1,0,0:0:0:0:
448,192,116816,1,0,0:0:0:0:
320,192,117045,1,0,0:0:0:0:
448,192,117274,1,0,0:0:0:0:
320,192,117274,1,0,0:0:0:0:
448,192,117389,1,0,0:0:0:0:
64,192,117503,1,0,0:0:0:0:
320,192,117532,1,0,0:0:0:0:
64,192,117618,1,0,0:0:0:0:
192,192,117732,1,0,0:0:0:0:
448,192,117732,1,0,0:0:0:0:
320,192,117732,1,0,0:0:0:0:
64,192,117847,1,0,0:0:0:0:
320,192,117961,1,0,0:0:0:0:
320,192,118076,1,0,0:0:0:0:
448,192,118190,1,0,0:0:0:0:
64,192,118190,1,0,0:0:0:0:
320,192,118305,1,0,0:0:0:0:
192,192,118419,1,0,0:0:0:0:
192,192,118534,1,0,0:0:0:0:
320,192,118648,1,0,0:0:0:0:
448,192,118648,1,0,0:0:0:0:
64,192,118648,1,0,0:0:0:0:
448,192,118877,1,0,0:0:0:0:
448,192,118992,1,0,0:0:0:0:
64,192,119106,1,0,0:0:0:0:
320,192,119106,1,0,0:0:0:0:
64,192,119335,1,0,0:0:0:0:
320,192,119364,1,0,0:0:0:0:
192,192,119450,1,0,0:0:0:0:
448,192,119564,1,0,0:0:0:0:
64,192,119564,1,0,0:0:0:0:
320,192,119564,1,0,0:0:0:0:
320,192,119793,1,0,0:0:0:0:
320,192,119908,1,0,0:0:0:0:
192,192,120023,128,0,120137:0:0:0:0:
64,192,120023,1,0,0:0:0:0:
320,192,120252,1,0,0:0:0:0:
192,192,120309,1,0,0:0:0:0:
64,192,120366,1,0,0:0:0:0:
448,192,120481,1,0,0:0:0:0:
320,192,120481,1,0,0:0:0:0:
192,192,120481,1,0,0:0:0:0:
320,192,120710,1,0,0:0:0:0:
192,192,120939,1,0,0:0:0:0:
64,192,121053,1,0,0:0:0:0:
192,192,121168,1,0,0:0:0:0:
64,192,121282,1,0,0:0:0:0:
320,192,121397,1,0,0:0:0:0:
192,192,121511,1,0,0:0:0:0:
320,192,121626,1,0,0:0:0:0:
192,192,121740,1,0,0:0:0:0:
448,192,121855,1,0,0:0:0:0:
320,192,121969,1,0,0:0:0:0:
448,192,122084,1,0,0:0:0:0:
320,192,122198,1,0,0:0:0:0:
64,192,122313,5,0,0:0:0:0:
448,192,122427,1,0,0:0:0:0:
64,192,122542,1,0,0:0:0:0:
448,192,122656,1,0,0:0:0:0:
192,192,122771,128,0,122856:0:0:0:0:
192,192,122942,128,0,123171:0:0:0:0:
64,192,123458,5,0,0:0:0:0:
448,192,123687,128,0,123830:0:0:0:0:
448,192,123916,128,0,124030:0:0:0:0:
192,192,124030,1,0,0:0:0:0:
192,192,124145,128,0,124259:0:0:0:0:
192,192,124374,128,0,124488:0:0:0:0:
192,192,124603,128,0,124946:0:0:0:0:
320,192,124717,128,0,124946:0:0:0:0:
448,192,124832,128,0,125061:0:0:0:0:
192,192,125061,128,0,125404:0:0:0:0:
448,192,125290,128,0,125519:0:0:0:0:
320,192,125519,128,0,125862:0:0:0:0:
448,192,125633,128,0,125862:0:0:0:0:
192,192,125748,128,0,125977:0:0:0:0:
64,192,125977,128,0,126320:0:0:0:0:
192,192,126206,128,0,126435:0:0:0:0:
448,192,126320,128,0,126435:0:0:0:0:
64,192,126435,1,0,0:0:0:0:
320,192,126549,1,0,0:0:0:0:
64,192,126664,1,0,0:0:0:0:
64,192,126778,1,0,0:0:0:0:
192,192,126893,1,0,0:0:0:0:
448,192,127007,1,0,0:0:0:0:
192,192,127122,1,0,0:0:0:0:
192,192,127236,1,0,0:0:0:0:
320,192,127351,1,0,0:0:0:0:
64,192,127465,1,0,0:0:0:0:
320,192,127580,1,0,0:0:0:0:
192,192,127580,128,0,127694:0:0:0:0:
320,192,127694,1,0,0:0:0:0:
448,192,127809,1,0,0:0:0:0:
192,192,127809,128,0,128038:0:0:0:0:
64,192,127923,128,0,128038:0:0:0:0:
448,192,128038,1,0,0:0:0:0:
448,192,128152,1,0,0:0:0:0:
64,192,128267,128,0,128610:0:0:0:0:
320,192,128381,128,0,128610:0:0:0:0:
448,192,128496,128,0,128725:0:0:0:0:
64,192,128725,128,0,129068:0:0:0:0:
448,192,128954,128,0,129183:0:0:0:0:
320,192,129183,128,0,129526:0:0:0:0:
448,192,129297,128,0,129526:0:0:0:0:
192,192,129412,128,0,129641:0:0:0:0:
64,192,129641,128,0,129984:0:0:0:0:
192,192,129870,128,0,130099:0:0:0:0:
448,192,129984,128,0,130099:0:0:0:0:
64,192,130099,1,0,0:0:0:0:
320,192,130213,1,0,0:0:0:0:
64,192,130328,1,0,0:0:0:0:
64,192,130442,1,0,0:0:0:0:
192,192,130557,1,0,0:0:0:0:
448,192,130671,1,0,0:0:0:0:
192,192,130786,1,0,0:0:0:0:
192,192,130900,1,0,0:0:0:0:
320,192,131015,1,0,0:0:0:0:
64,192,131129,1,0,0:0:0:0:
320,192,131244,1,0,0:0:0:0:
192,192,131244,128,0,131358:0:0:0:0:
320,192,131358,1,0,0:0:0:0:
448,192,131473,1,0,0:0:0:0:
192,192,131473,128,0,131702:0:0:0:0:
64,192,131587,128,0,131702:0:0:0:0:
448,192,131702,1,0,0:0:0:0:
448,192,131816,1,0,0:0:0:0:
320,192,131931,128,0,132274:0:0:0:0:
192,192,132045,128,0,132274:0:0:0:0:
64,192,132160,128,0,132389:0:0:0:0:
320,192,132389,128,0,132732:0:0:0:0:
64,192,132618,128,0,132847:0:0:0:0:
192,192,132847,128,0,133190:0:0:0:0:
448,192,132961,128,0,133190:0:0:0:0:
320,192,133076,128,0,133305:0:0:0:0:
448,192,133305,128,0,133648:0:0:0:0:
320,192,133534,128,0,133763:0:0:0:0:
64,192,133648,128,0,133763:0:0:0:0:
448,192,133763,1,0,0:0:0:0:
192,192,133877,1,0,0:0:0:0:
448,192,133992,1,0,0:0:0:0:
448,192,134106,1,0,0:0:0:0:
320,192,134221,1,0,0:0:0:0:
64,192,134335,1,0,0:0:0:0:
320,192,134450,1,0,0:0:0:0:
320,192,134564,1,0,0:0:0:0:
192,192,134679,1,0,0:0:0:0:
448,192,134793,1,0,0:0:0:0:
192,192,134908,1,0,0:0:0:0:
320,192,134908,128,0,135023:0:0:0:0:
192,192,135023,1,0,0:0:0:0:
64,192,135137,1,0,0:0:0:0:
320,192,135137,128,0,135366:0:0:0:0:
448,192,135252,128,0,135366:0:0:0:0:
64,192,135366,1,0,0:0:0:0:
64,192,135481,1,0,0:0:0:0:
320,192,135595,1,0,0:0:0:0:
320,192,135710,1,0,0:0:0:0:
320,192,135824,128,0,136053:0:0:0:0:
192,192,136053,128,0,136168:0:0:0:0:
192,192,136282,1,0,0:0:0:0:
192,192,136397,1,0,0:0:0:0:
448,192,136511,128,0,136683:0:0:0:0:
320,192,136740,128,0,136912:0:0:0:0:
192,192,136969,1,0,0:0:0:0:
192,192,137084,1,0,0:0:0:0:
64,192,137198,128,0,137313:0:0:0:0:
320,192,137255,128,0,137370:0:0:0:0:
192,192,137313,128,0,137427:0:0:0:0:
64,192,137427,1,0,0:0:0:0:
320,192,137542,1,0,0:0:0:0:
64,192,137656,1,0,0:0:0:0:
320,192,137771,1,0,0:0:0:0:
192,192,137885,1,0,0:0:0:0:
448,192,138000,1,0,0:0:0:0:
192,192,138114,1,0,0:0:0:0:
448,192,138229,1,0,0:0:0:0:
320,192,138343,1,0,0:0:0:0:
64,192,138458,1,0,0:0:0:0:
320,192,138572,128,0,138687:0:0:0:0:
448,192,138572,128,0,138687:0:0:0:0:
64,192,138687,1,0,0:0:0:0:
320,192,138801,128,0,139030:0:0:0:0:
448,192,138801,128,0,138916:0:0:0:0:
192,192,138916,128,0,139030:0:0:0:0:
64,192,139030,1,0,0:0:0:0:
448,192,139030,1,0,0:0:0:0:
192,192,139145,1,0,0:0:0:0:
192,192,139259,128,0,139603:0:0:0:0:
320,192,139374,128,0,139603:0:0:0:0:
448,192,139488,128,0,139717:0:0:0:0:
64,192,139488,128,0,139603:0:0:0:0:
192,192,139717,128,0,140061:0:0:0:0:
448,192,139946,128,0,140175:0:0:0:0:
64,192,139946,128,0,140061:0:0:0:0:
320,192,140175,128,0,140519:0:0:0:0:
448,192,140290,128,0,140519:0:0:0:0:
192,192,140404,128,0,140633:0:0:0:0:
64,192,140404,128,0,140519:0:0:0:0:
64,192,140633,128,0,140977:0:0:0:0:
192,192,140862,128,0,141091:0:0:0:0:
320,192,140862,128,0,140977:0:0:0:0:
448,192,140977,128,0,141091:0:0:0:0:
64,192,141091,1,0,0:0:0:0:
320,192,141206,1,0,0:0:0:0:
64,192,141320,1,0,0:0:0:0:
448,192,141320,128,0,141435:0:0:0:0:
64,192,141435,1,0,0:0:0:0:
192,192,141549,1,0,0:0:0:0:
448,192,141664,1,0,0:0:0:0:
192,192,141778,1,0,0:0:0:0:
64,192,141778,128,0,141893:0:0:0:0:
192,192,141893,1,0,0:0:0:0:
320,192,142007,1,0,0:0:0:0:
64,192,142122,1,0,0:0:0:0:
320,192,142236,1,0,0:0:0:0:
192,192,142236,128,0,142351:0:0:0:0:
320,192,142351,1,0,0:0:0:0:
448,192,142465,1,0,0:0:0:0:
192,192,142465,128,0,142694:0:0:0:0:
64,192,142580,128,0,142694:0:0:0:0:
448,192,142694,1,0,0:0:0:0:
320,192,142694,128,0,142809:0:0:0:0:
448,192,142809,1,0,0:0:0:0:
64,192,142923,128,0,143267:0:0:0:0:
320,192,143038,128,0,143267:0:0:0:0:
448,192,143152,128,0,143381:0:0:0:0:
192,192,143152,128,0,143267:0:0:0:0:
64,192,143381,128,0,143725:0:0:0:0:
448,192,143610,128,0,143839:0:0:0:0:
192,192,143610,128,0,143725:0:0:0:0:
320,192,143839,128,0,144183:0:0:0:0:
448,192,143954,128,0,144183:0:0:0:0:
192,192,144068,128,0,144297:0:0:0:0:
64,192,144068,128,0,144183:0:0:0:0:
64,192,144297,128,0,144641:0:0:0:0:
192,192,144526,128,0,144755:0:0:0:0:
320,192,144526,128,0,144641:0:0:0:0:
448,192,144641,128,0,144755:0:0:0:0:
64,192,144755,1,0,0:0:0:0:
320,192,144870,1,0,0:0:0:0:
64,192,144984,1,0,0:0:0:0:
448,192,144984,128,0,145099:0:0:0:0:
64,192,145099,1,0,0:0:0:0:
192,192,145213,1,0,0:0:0:0:
448,192,145328,1,0,0:0:0:0:
192,192,145442,1,0,0:0:0:0:
64,192,145442,128,0,145557:0:0:0:0:
192,192,145557,1,0,0:0:0:0:
320,192,145671,1,0,0:0:0:0:
64,192,145786,1,0,0:0:0:0:
320,192,145900,1,0,0:0:0:0:
192,192,145900,128,0,146015:0:0:0:0:
320,192,146015,1,0,0:0:0:0:
448,192,146129,1,0,0:0:0:0:
192,192,146129,128,0,146358:0:0:0:0:
64,192,146244,128,0,146358:0:0:0:0:
448,192,146358,1,0,0:0:0:0:
320,192,146358,128,0,146473:0:0:0:0:
448,192,146473,1,0,0:0:0:0:
320,192,146587,128,0,146931:0:0:0:0:
192,192,146702,128,0,146816:0:0:0:0:
64,192,146816,128,0,147045:0:0:0:0:
448,192,146816,128,0,146931:0:0:0:0:
192,192,146931,128,0,147045:0:0:0:0:
320,192,147045,128,0,147274:0:0:0:0:
448,192,147045,128,0,147160:0:0:0:0:
192,192,147160,128,0,147389:0:0:0:0:
64,192,147274,128,0,147503:0:0:0:0:
448,192,147274,128,0,147389:0:0:0:0:
320,192,147389,128,0,147503:0:0:0:0:
192,192,147503,128,0,147589:0:0:0:0:
448,192,147561,128,0,147675:0:0:0:0:
320,192,147618,128,0,147732:0:0:0:0:
192,192,147675,128,0,147790:0:0:0:0:
64,192,147732,128,0,147847:0:0:0:0:
448,192,147847,128,0,147961:0:0:0:0:
64,192,147961,128,0,148076:0:0:0:0:
320,192,148019,128,0,148133:0:0:0:0:
448,192,148076,128,0,148190:0:0:0:0:
192,192,148133,128,0,148248:0:0:0:0:
64,192,148190,128,0,148305:0:0:0:0:
320,192,148248,128,0,148362:0:0:0:0:
448,192,148305,128,0,148419:0:0:0:0:
192,192,148362,128,0,148419:0:0:0:0:
64,192,148419,1,0,0:0:0:0:
320,192,148534,1,0,0:0:0:0:
64,192,148648,1,0,0:0:0:0:
448,192,148648,128,0,148763:0:0:0:0:
64,192,148763,1,0,0:0:0:0:
192,192,148877,1,0,0:0:0:0:
448,192,148992,1,0,0:0:0:0:
192,192,149106,1,0,0:0:0:0:
64,192,149106,128,0,149221:0:0:0:0:
192,192,149221,1,0,0:0:0:0:
320,192,149335,1,0,0:0:0:0:
64,192,149450,1,0,0:0:0:0:
320,192,149564,1,0,0:0:0:0:
192,192,149564,128,0,149679:0:0:0:0:
320,192,149679,1,0,0:0:0:0:
448,192,149793,1,0,0:0:0:0:
192,192,149793,128,0,150023:0:0:0:0:
64,192,149908,128,0,150023:0:0:0:0:
448,192,150023,1,0,0:0:0:0:
320,192,150023,128,0,150137:0:0:0:0:
448,192,150137,1,0,0:0:0:0:
320,192,150252,128,0,150595:0:0:0:0:
192,192,150366,128,0,150481:0:0:0:0:
64,192,150481,128,0,150710:0:0:0:0:
448,192,150481,128,0,150595:0:0:0:0:
192,192,150595,128,0,150710:0:0:0:0:
320,192,150710,128,0,150939:0:0:0:0:
448,192,150710,128,0,150824:0:0:0:0:
192,192,150824,128,0,151053:0:0:0:0:
64,192,150939,128,0,151168:0:0:0:0:
448,192,150939,128,0,151053:0:0:0:0:
320,192,151053,128,0,151168:0:0:0:0:
192,192,151168,128,0,151253:0:0:0:0:
448,192,151225,128,0,151339:0:0:0:0:
320,192,151282,128,0,151397:0:0:0:0:
192,192,151339,128,0,151454:0:0:0:0:
64,192,151397,128,0,151511:0:0:0:0:
448,192,151511,128,0,151626:0:0:0:0:
64,192,151626,128,0,151740:0:0:0:0:
320,192,151683,128,0,151797:0:0:0:0:
448,192,151740,128,0,151855:0:0:0:0:
192,192,151797,128,0,151912:0:0:0:0:
64,192,151855,128,0,151969:0:0:0:0:
320,192,151912,128,0,152026:0:0:0:0:
448,192,151969,128,0,152084:0:0:0:0:
192,192,152026,128,0,152084:0:0:0:0:
64,192,152084,1,0,0:0:0:0:
320,192,152313,128,0,152427:0:0:0:0:
64,192,152542,1,0,0:0:0:0:
320,192,152771,128,0,152885:0:0:0:0:
64,192,153229,128,0,153343:0:0:0:0:
448,192,153229,128,0,153343:0:0:0:0:
64,192,153458,128,0,153687:0:0:0:0:
448,192,153458,128,0,153687:0:0:0:0:
320,192,153572,128,0,153687:0:0:0:0:
192,192,153687,128,0,153801:0:0:0:0:
192,192,153916,128,0,154259:0:0:0:0:
64,192,154030,128,0,154145:0:0:0:0:
448,192,154145,128,0,154374:0:0:0:0:
320,192,154145,128,0,154259:0:0:0:0:
64,192,154259,128,0,154374:0:0:0:0:
320,192,154374,128,0,154488:0:0:0:0:
192,192,154374,128,0,154603:0:0:0:0:
64,192,154488,128,0,154603:0:0:0:0:
320,192,154603,128,0,154717:0:0:0:0:
448,192,154603,128,0,154832:0:0:0:0:
192,192,154717,128,0,154832:0:0:0:0:
320,192,154832,128,0,155061:0:0:0:0:
448,192,154946,128,0,155061:0:0:0:0:
192,192,155061,128,0,155290:0:0:0:0:
64,192,155061,128,0,155175:0:0:0:0:
320,192,155175,128,0,155290:0:0:0:0:
64,192,155290,128,0,155633:0:0:0:0:
448,192,155404,128,0,155519:0:0:0:0:
192,192,155519,128,0,155748:0:0:0:0:
320,192,155519,128,0,155633:0:0:0:0:
448,192,155633,128,0,155748:0:0:0:0:
64,192,155748,1,0,0:0:0:0:
320,192,155862,1,0,0:0:0:0:
64,192,155977,1,0,0:0:0:0:
448,192,155977,128,0,156091:0:0:0:0:
64,192,156091,1,0,0:0:0:0:
192,192,156206,1,0,0:0:0:0:
448,192,156320,1,0,0:0:0:0:
192,192,156435,1,0,0:0:0:0:
64,192,156435,128,0,156549:0:0:0:0:
192,192,156549,1,0,0:0:0:0:
320,192,156664,1,0,0:0:0:0:
64,192,156778,1,0,0:0:0:0:
320,192,156893,1,0,0:0:0:0:
192,192,156893,128,0,157007:0:0:0:0:
320,192,157007,1,0,0:0:0:0:
448,192,157122,1,0,0:0:0:0:
192,192,157122,128,0,157351:0:0:0:0:
64,192,157236,128,0,157351:0:0:0:0:
448,192,157351,1,0,0:0:0:0:
320,192,157351,128,0,157465:0:0:0:0:
448,192,157465,1,0,0:0:0:0:
64,192,157580,128,0,157923:0:0:0:0:
192,192,157694,128,0,157809:0:0:0:0:
448,192,157809,128,0,158038:0:0:0:0:
320,192,157809,128,0,157923:0:0:0:0:
192,192,157923,128,0,158038:0:0:0:0:
320,192,158038,128,0,158152:0:0:0:0:
64,192,158038,128,0,158267:0:0:0:0:
192,192,158152,128,0,158267:0:0:0:0:
320,192,158267,128,0,158381:0:0:0:0:
448,192,158267,128,0,158496:0:0:0:0:
64,192,158381,128,0,158496:0:0:0:0:
320,192,158496,128,0,158725:0:0:0:0:
448,192,158610,128,0,158725:0:0:0:0:
192,192,158725,128,0,158954:0:0:0:0:
64,192,158725,128,0,158839:0:0:0:0:
320,192,158839,128,0,158954:0:0:0:0:
64,192,158954,128,0,159297:0:0:0:0:
448,192,159068,128,0,159183:0:0:0:0:
192,192,159183,128,0,159412:0:0:0:0:
320,192,159183,128,0,159297:0:0:0:0:
448,192,159297,128,0,159412:0:0:0:0:
64,192,159412,1,0,0:0:0:0:
320,192,159526,1,0,0:0:0:0:
64,192,159641,1,0,0:0:0:0:
448,192,159641,128,0,159755:0:0:0:0:
64,192,159755,1,0,0:0:0:0:
192,192,159870,1,0,0:0:0:0:
448,192,159984,1,0,0:0:0:0:
192,192,160099,1,0,0:0:0:0:
64,192,160099,128,0,160213:0:0:0:0:
192,192,160213,1,0,0:0:0:0:
320,192,160328,1,0,0:0:0:0:
64,192,160442,1,0,0:0:0:0:
320,192,160557,1,0,0:0:0:0:
192,192,160557,128,0,160671:0:0:0:0:
320,192,160671,1,0,0:0:0:0:
448,192,160786,1,0,0:0:0:0:
192,192,160786,128,0,161015:0:0:0:0:
64,192,160900,128,0,161015:0:0:0:0:
448,192,161015,1,0,0:0:0:0:
320,192,161015,128,0,161129:0:0:0:0:
448,192,161129,1,0,0:0:0:0:
320,192,161244,128,0,161587:0:0:0:0:
192,192,161358,128,0,161473:0:0:0:0:
64,192,161473,128,0,161702:0:0:0:0:
448,192,161473,128,0,161587:0:0:0:0:
192,192,161587,128,0,161702:0:0:0:0:
448,192,161702,128,0,161816:0:0:0:0:
320,192,161702,128,0,161931:0:0:0:0:
192,192,161816,128,0,161931:0:0:0:0:
64,192,161931,128,0,162160:0:0:0:0:
448,192,161931,128,0,162045:0:0:0:0:
320,192,162045,128,0,162160:0:0:0:0:
192,192,162160,128,0,162389:0:0:0:0:
448,192,162274,128,0,162503:0:0:0:0:
320,192,162389,128,0,162618:0:0:0:0:
64,192,162389,128,0,162503:0:0:0:0:
192,192,162503,128,0,162618:0:0:0:0:
448,192,162618,128,0,162961:0:0:0:0:
64,192,162732,128,0,162847:0:0:0:0:
320,192,162847,128,0,163076:0:0:0:0:
192,192,162847,128,0,162961:0:0:0:0:
64,192,162961,128,0,163076:0:0:0:0:
448,192,163076,1,0,0:0:0:0:
192,192,163190,1,0,0:0:0:0:
448,192,163305,1,0,0:0:0:0:
64,192,163305,128,0,163419:0:0:0:0:
448,192,163419,1,0,0:0:0:0:
320,192,163534,1,0,0:0:0:0:
64,192,163648,1,0,0:0:0:0:
320,192,163763,1,0,0:0:0:0:
448,192,163763,128,0,163877:0:0:0:0:
320,192,163877,1,0,0:0:0:0:
192,192,163992,1,0,0:0:0:0:
448,192,164106,1,0,0:0:0:0:
192,192,164221,1,0,0:0:0:0:
320,192,164221,128,0,164335:0:0:0:0:
192,192,164335,1,0,0:0:0:0:
64,192,164450,1,0,0:0:0:0:
320,192,164450,128,0,164679:0:0:0:0:
448,192,164564,128,0,164679:0:0:0:0:
64,192,164679,1,0,0:0:0:0:
192,192,164679,128,0,164793:0:0:0:0:
64,192,164793,1,0,0:0:0:0:
320,192,164908,1,0,0:0:0:0:
320,192,165023,1,0,0:0:0:0:
320,192,165137,128,0,165366:0:0:0:0:
64,192,165137,128,0,165252:0:0:0:0:
192,192,165366,128,0,165481:0:0:0:0:
64,192,165366,128,0,165481:0:0:0:0:
192,192,165595,1,0,0:0:0:0:
448,192,165595,128,0,165710:0:0:0:0:
192,192,165710,1,0,0:0:0:0:
448,192,165824,128,0,165996:0:0:0:0:
320,192,166053,128,0,166225:0:0:0:0:
64,192,166053,128,0,166168:0:0:0:0:
192,192,166282,1,0,0:0:0:0:
192,192,166397,1,0,0:0:0:0:
64,192,166511,128,0,166626:0:0:0:0:
448,192,166511,128,0,166626:0:0:0:0:
320,192,166568,128,0,166683:0:0:0:0:
192,192,166626,128,0,166740:0:0:0:0:
64,192,166740,1,0,0:0:0:0:
320,192,166855,1,0,0:0:0:0:
64,192,166969,128,0,167084:0:0:0:0:
320,192,167084,1,0,0:0:0:0:
192,192,167198,1,0,0:0:0:0:
448,192,167313,1,0,0:0:0:0:
192,192,167427,128,0,167542:0:0:0:0:
448,192,167542,1,0,0:0:0:0:
320,192,167656,1,0,0:0:0:0:
64,192,167771,1,0,0:0:0:0:
448,192,167885,128,0,168000:0:0:0:0:
320,192,167885,128,0,168000:0:0:0:0:
64,192,168000,1,0,0:0:0:0:
320,192,168114,128,0,168343:0:0:0:0:
448,192,168114,128,0,168229:0:0:0:0:
192,192,168229,128,0,168343:0:0:0:0:
448,192,168343,1,0,0:0:0:0:
64,192,168343,128,0,168572:0:0:0:0:
192,192,168458,1,0,0:0:0:0:
192,192,168572,128,0,168916:0:0:0:0:
64,192,168687,128,0,168801:0:0:0:0:
448,192,168801,128,0,169030:0:0:0:0:
320,192,168801,128,0,168916:0:0:0:0:
64,192,168916,128,0,169030:0:0:0:0:
320,192,169030,128,0,169145:0:0:0:0:
192,192,169030,128,0,169259:0:0:0:0:
64,192,169145,128,0,169259:0:0:0:0:
320,192,169259,128,0,169374:0:0:0:0:
448,192,169259,128,0,169488:0:0:0:0:
192,192,169374,128,0,169488:0:0:0:0:
320,192,169488,128,0,169717:0:0:0:0:
448,192,169603,128,0,169717:0:0:0:0:
192,192,169717,128,0,169946:0:0:0:0:
64,192,169717,128,0,169832:0:0:0:0:
320,192,169832,128,0,169946:0:0:0:0:
64,192,169946,128,0,170290:0:0:0:0:
448,192,170061,128,0,170175:0:0:0:0:
192,192,170175,128,0,170404:0:0:0:0:
320,192,170175,128,0,170290:0:0:0:0:
448,192,170290,128,0,170404:0:0:0:0:
64,192,170404,1,0,0:0:0:0:
320,192,170519,1,0,0:0:0:0:
64,192,170633,1,0,0:0:0:0:
448,192,170633,128,0,170748:0:0:0:0:
64,192,170748,1,0,0:0:0:0:
192,192,170862,1,0,0:0:0:0:
448,192,170977,1,0,0:0:0:0:
192,192,171091,1,0,0:0:0:0:
64,192,171091,128,0,171206:0:0:0:0:
192,192,171206,1,0,0:0:0:0:
320,192,171320,1,0,0:0:0:0:
64,192,171435,1,0,0:0:0:0:
320,192,171549,1,0,0:0:0:0:
192,192,171549,128,0,171664:0:0:0:0:
320,192,171664,1,0,0:0:0:0:
448,192,171778,1,0,0:0:0:0:
192,192,171778,128,0,172007:0:0:0:0:
64,192,171893,128,0,172007:0:0:0:0:
448,192,172007,1,0,0:0:0:0:
320,192,172007,128,0,172122:0:0:0:0:
448,192,172122,1,0,0:0:0:0:
64,192,172236,128,0,172580:0:0:0:0:
192,192,172351,128,0,172465:0:0:0:0:
448,192,172465,128,0,172694:0:0:0:0:
320,192,172465,128,0,172580:0:0:0:0:
192,192,172580,128,0,172694:0:0:0:0:
320,192,172694,128,0,172809:0:0:0:0:
64,192,172694,128,0,172923:0:0:0:0:
192,192,172809,128,0,172923:0:0:0:0:
320,192,172923,128,0,173038:0:0:0:0:
448,192,172923,128,0,173152:0:0:0:0:
64,192,173038,128,0,173152:0:0:0:0:
320,192,173152,128,0,173381:0:0:0:0:
448,192,173267,128,0,173381:0:0:0:0:
192,192,173381,128,0,173610:0:0:0:0:
64,192,173381,128,0,173496:0:0:0:0:
320,192,173496,128,0,173610:0:0:0:0:
64,192,173610,128,0,173954:0:0:0:0:
448,192,173725,128,0,173839:0:0:0:0:
192,192,173839,128,0,174068:0:0:0:0:
320,192,173839,128,0,173954:0:0:0:0:
448,192,173954,128,0,174068:0:0:0:0:
64,192,174068,1,0,0:0:0:0:
320,192,174183,1,0,0:0:0:0:
64,192,174297,1,0,0:0:0:0:
448,192,174297,128,0,174412:0:0:0:0:
64,192,174412,1,0,0:0:0:0:
192,192,174526,1,0,0:0:0:0:
448,192,174641,1,0,0:0:0:0:
192,192,174755,1,0,0:0:0:0:
64,192,174755,128,0,174870:0:0:0:0:
192,192,174870,1,0,0:0:0:0:
320,192,174984,1,0,0:0:0:0:
64,192,175099,1,0,0:0:0:0:
320,192,175213,1,0,0:0:0:0:
192,192,175213,128,0,175328:0:0:0:0:
320,192,175328,1,0,0:0:0:0:
448,192,175442,1,0,0:0:0:0:
192,192,175442,128,0,175671:0:0:0:0:
64,192,175557,128,0,175671:0:0:0:0:
448,192,175671,1,0,0:0:0:0:
320,192,175671,128,0,175786:0:0:0:0:
448,192,175786,1,0,0:0:0:0:
320,192,175900,128,0,176244:0:0:0:0:
64,192,175900,1,0,0:0:0:0:
192,192,176015,128,0,176129:0:0:0:0:
448,192,176129,128,0,176244:0:0:0:0:
64,192,176129,128,0,176244:0:0:0:0:
192,192,176244,128,0,176358:0:0:0:0:
448,192,176358,128,0,176473:0:0:0:0:
320,192,176358,128,0,176587:0:0:0:0:
64,192,176358,1,0,0:0:0:0:
192,192,176473,128,0,176587:0:0:0:0:
448,192,176587,128,0,176702:0:0:0:0:
64,192,176587,128,0,176702:0:0:0:0:
320,192,176702,128,0,176816:0:0:0:0:
192,192,176816,128,0,176902:0:0:0:0:
64,192,176816,1,0,0:0:0:0:
448,192,176874,128,0,176988:0:0:0:0:
320,192,176931,128,0,177045:0:0:0:0:
192,192,176988,128,0,177103:0:0:0:0:
64,192,177045,128,0,177160:0:0:0:0:
448,192,177103,128,0,177217:0:0:0:0:
320,192,177160,128,0,177274:0:0:0:0:
64,192,177274,128,0,177389:0:0:0:0:
320,192,177332,128,0,177446:0:0:0:0:
448,192,177389,128,0,177503:0:0:0:0:
192,192,177446,128,0,177561:0:0:0:0:
64,192,177503,128,0,177618:0:0:0:0:
320,192,177561,128,0,177675:0:0:0:0:
448,192,177618,128,0,177732:0:0:0:0:
192,192,177675,128,0,177732:0:0:0:0:
64,192,177732,1,0,0:0:0:0:
192,192,177961,1,0,0:0:0:0:
448,192,177961,128,0,178076:0:0:0:0:
320,192,178076,1,0,0:0:0:0:
192,192,178190,1,0,0:0:0:0:
64,192,178190,1,0,0:0:0:0:
448,192,178190,1,0,0:0:0:0:
64,192,178419,128,0,178534:0:0:0:0:
320,192,178419,1,0,0:0:0:0:
192,192,178534,1,0,0:0:0:0:
320,192,178648,1,0,0:0:0:0:
448,192,178648,1,0,0:0:0:0:
64,192,178763,1,0,0:0:0:0:
448,192,178877,1,0,0:0:0:0:
192,192,178877,128,0,178992:0:0:0:0:
320,192,178935,1,0,0:0:0:0:
64,192,178992,128,0,179106:0:0:0:0:
192,192,179106,128,0,179335:0:0:0:0:
320,192,179106,1,0,0:0:0:0:
448,192,179106,1,0,0:0:0:0:
448,192,179335,128,0,179564:0:0:0:0:
64,192,179335,128,0,179450:0:0:0:0:
320,192,179450,1,0,0:0:0:0:
192,192,179564,128,0,179908:0:0:0:0:
64,192,179564,1,0,0:0:0:0:
320,192,179679,128,0,179793:0:0:0:0:
64,192,179793,128,0,179908:0:0:0:0:
448,192,179793,128,0,179908:0:0:0:0:
320,192,179908,128,0,180023:0:0:0:0:
64,192,180023,128,0,180137:0:0:0:0:
192,192,180023,128,0,180252:0:0:0:0:
448,192,180023,1,0,0:0:0:0:
320,192,180137,128,0,180252:0:0:0:0:
64,192,180252,128,0,180366:0:0:0:0:
448,192,180252,128,0,180366:0:0:0:0:
192,192,180366,128,0,180481:0:0:0:0:
320,192,180481,128,0,180566:0:0:0:0:
448,192,180481,1,0,0:0:0:0:
64,192,180538,128,0,180652:0:0:0:0:
192,192,180595,128,0,180710:0:0:0:0:
320,192,180652,128,0,180767:0:0:0:0:
448,192,180710,128,0,180824:0:0:0:0:
192,192,180767,128,0,180881:0:0:0:0:
64,192,180824,128,0,180939:0:0:0:0:
448,192,180939,128,0,181053:0:0:0:0:
192,192,180996,128,0,181110:0:0:0:0:
64,192,181053,128,0,181168:0:0:0:0:
320,192,181110,128,0,181225:0:0:0:0:
448,192,181168,128,0,181282:0:0:0:0:
192,192,181225,128,0,181339:0:0:0:0:
64,192,181282,128,0,181397:0:0:0:0:
320,192,181339,128,0,181397:0:0:0:0:
448,192,181397,1,0,0:0:0:0:
192,192,181626,128,0,181740:0:0:0:0:
448,192,181626,1,0,0:0:0:0:
320,192,181740,1,0,0:0:0:0:
448,192,181855,1,0,0:0:0:0:
192,192,181855,1,0,0:0:0:0:
64,192,181855,1,0,0:0:0:0:
192,192,182084,128,0,182198:0:0:0:0:
320,192,182313,1,0,0:0:0:0:
448,192,182542,128,0,182656:0:0:0:0:
64,192,182542,128,0,182656:0:0:0:0:
64,192,182771,128,0,183000:0:0:0:0:
448,192,182771,128,0,183000:0:0:0:0:
320,192,182885,128,0,183000:0:0:0:0:
192,192,183000,128,0,183114:0:0:0:0:
448,192,183229,1,0,0:0:0:0:
64,192,183229,1,0,0:0:0:0:
448,192,183458,128,0,183572:0:0:0:0:
192,192,183458,128,0,183572:0:0:0:0:
320,192,183572,128,0,183687:0:0:0:0:
64,192,183687,128,0,183916:0:0:0:0:
448,192,183687,128,0,183916:0:0:0:0:
192,192,183687,128,0,183801:0:0:0:0:
192,192,183916,128,0,184030:0:0:0:0:
320,192,183973,128,0,184087:0:0:0:0:
448,192,184030,128,0,184145:0:0:0:0:
192,192,184145,1,0,0:0:0:0:
64,192,184145,1,0,0:0:0:0:
320,192,184259,1,0,0:0:0:0:
320,192,184374,1,0,0:0:0:0:
64,192,184374,128,0,184488:0:0:0:0:
320,192,184488,128,0,184603:0:0:0:0:
192,192,184603,1,0,0:0:0:0:
64,192,184603,128,0,184832:0:0:0:0:
448,192,184603,128,0,184717:0:0:0:0:
320,192,184717,128,0,184832:0:0:0:0:
192,192,184774,128,0,184889:0:0:0:0:
448,192,184832,1,0,0:0:0:0:
64,192,184946,128,0,185061:0:0:0:0:
192,192,185003,128,0,185118:0:0:0:0:
448,192,185061,1,0,0:0:0:0:
320,192,185061,1,0,0:0:0:0:
64,192,185175,1,0,0:0:0:0:
448,192,185290,128,0,185404:0:0:0:0:
64,192,185290,128,0,185404:0:0:0:0:
320,192,185404,128,0,185519:0:0:0:0:
192,192,185461,1,0,0:0:0:0:
64,192,185519,128,0,185748:0:0:0:0:
448,192,185519,128,0,185748:0:0:0:0:
192,192,185633,1,0,0:0:0:0:
320,192,185748,128,0,185862:0:0:0:0:
448,192,185977,1,0,0:0:0:0:
64,192,185977,128,0,186320:0:0:0:0:
320,192,186206,128,0,186320:0:0:0:0:
448,192,186206,128,0,186320:0:0:0:0:
192,192,186320,128,0,186435:0:0:0:0:
320,192,186435,128,0,186664:0:0:0:0:
448,192,186435,128,0,186778:0:0:0:0:
64,192,186435,128,0,186549:0:0:0:0:
64,192,186664,128,0,186893:0:0:0:0:
320,192,186778,128,0,186893:0:0:0:0:
192,192,186893,1,0,0:0:0:0:
448,192,186893,1,0,0:0:0:0:
448,192,187122,128,0,187236:0:0:0:0:
64,192,187122,128,0,187236:0:0:0:0:
320,192,187236,128,0,187351:0:0:0:0:
64,192,187351,128,0,187580:0:0:0:0:
192,192,187351,1,0,0:0:0:0:
448,192,187351,128,0,187580:0:0:0:0:
320,192,187580,128,0,187694:0:0:0:0:
192,192,187809,1,0,0:0:0:0:
64,192,187809,1,0,0:0:0:0:
64,192,188038,128,0,188152:0:0:0:0:
448,192,188038,128,0,188152:0:0:0:0:
320,192,188152,128,0,188267:0:0:0:0:
192,192,188267,1,0,0:0:0:0:
64,192,188267,128,0,188496:0:0:0:0:
448,192,188267,128,0,188496:0:0:0:0:
320,192,188496,128,0,188610:0:0:0:0:
64,192,188610,1,0,0:0:0:0:
448,192,188725,1,0,0:0:0:0:
192,192,188725,128,0,189068:0:0:0:0:
448,192,188954,128,0,189068:0:0:0:0:
64,192,188954,128,0,189068:0:0:0:0:
320,192,189068,128,0,189183:0:0:0:0:
64,192,189183,128,0,189412:0:0:0:0:
192,192,189183,1,0,0:0:0:0:
448,192,189183,128,0,189412:0:0:0:0:
320,192,189297,1,0,0:0:0:0:
320,192,189412,128,0,189526:0:0:0:0:
192,192,189526,1,0,0:0:0:0:
448,192,189641,1,0,0:0:0:0:
64,192,189641,128,0,189984:0:0:0:0:
320,192,189870,128,0,189984:0:0:0:0:
448,192,189870,128,0,189984:0:0:0:0:
192,192,189984,128,0,190099:0:0:0:0:
448,192,190099,128,0,190328:0:0:0:0:
320,192,190099,1,0,0:0:0:0:
64,192,190099,128,0,190442:0:0:0:0:
320,192,190328,128,0,190442:0:0:0:0:
192,192,190442,1,0,0:0:0:0:
320,192,190500,1,0,0:0:0:0:
64,192,190557,1,0,0:0:0:0:
448,192,190557,1,0,0:0:0:0:
64,192,190786,128,0,190900:0:0:0:0:
320,192,190786,128,0,190900:0:0:0:0:
192,192,190900,128,0,191015:0:0:0:0:
448,192,191015,128,0,191244:0:0:0:0:
320,192,191015,128,0,191129:0:0:0:0:
64,192,191015,128,0,191244:0:0:0:0:
320,192,191244,128,0,191358:0:0:0:0:
192,192,191301,128,0,191416:0:0:0:0:
64,192,191358,128,0,191473:0:0:0:0:
448,192,191473,1,0,0:0:0:0:
320,192,191473,1,0,0:0:0:0:
192,192,191587,1,0,0:0:0:0:
448,192,191702,128,0,191816:0:0:0:0:
192,192,191702,1,0,0:0:0:0:
192,192,191816,128,0,191931:0:0:0:0:
448,192,191931,128,0,192160:0:0:0:0:
320,192,191931,1,0,0:0:0:0:
64,192,191931,128,0,192045:0:0:0:0:
192,192,192045,128,0,192160:0:0:0:0:
320,192,192103,128,0,192217:0:0:0:0:
64,192,192160,1,0,0:0:0:0:
448,192,192274,128,0,192389:0:0:0:0:
320,192,192332,128,0,192446:0:0:0:0:
192,192,192389,1,0,0:0:0:0:
64,192,192389,1,0,0:0:0:0:
448,192,192503,1,0,0:0:0:0:
64,192,192618,128,0,192732:0:0:0:0:
448,192,192618,128,0,192732:0:0:0:0:
192,192,192732,128,0,192847:0:0:0:0:
320,192,192790,1,0,0:0:0:0:
448,192,192847,128,0,193076:0:0:0:0:
64,192,192847,128,0,193076:0:0:0:0:
320,192,192961,1,0,0:0:0:0:
192,192,193076,128,0,193190:0:0:0:0:
448,192,193305,128,0,193648:0:0:0:0:
64,192,193305,1,0,0:0:0:0:
192,192,193534,128,0,193648:0:0:0:0:
64,192,193534,128,0,193648:0:0:0:0:
320,192,193648,128,0,193763:0:0:0:0:
192,192,193763,128,0,194221:0:0:0:0:
64,192,193763,128,0,193992:0:0:0:0:
448,192,193763,128,0,193877:0:0:0:0:
448,192,193992,128,0,194106:0:0:0:0:
320,192,194106,128,0,194221:0:0:0:0:
64,192,194221,1,0,0:0:0:0:
448,192,194221,1,0,0:0:0:0:
64,192,194335,1,0,0:0:0:0:
64,192,194450,128,0,194564:0:0:0:0:
448,192,194507,1,0,0:0:0:0:
320,192,194564,1,0,0:0:0:0:
192,192,194622,1,0,0:0:0:0:
448,192,194679,128,0,194908:0:0:0:0:
64,192,194679,128,0,194908:0:0:0:0:
320,192,194679,128,0,194793:0:0:0:0:
192,192,194908,1,0,0:0:0:0:
192,192,195023,1,0,0:0:0:0:
320,192,195137,1,0,0:0:0:0:
448,192,195137,128,0,195252:0:0:0:0:
320,192,195366,128,0,195481:0:0:0:0:
64,192,195366,128,0,195481:0:0:0:0:
192,192,195481,128,0,195595:0:0:0:0:
64,192,195595,128,0,195824:0:0:0:0:
320,192,195595,1,0,0:0:0:0:
448,192,195595,128,0,195824:0:0:0:0:
320,192,195710,1,0,0:0:0:0:
192,192,195824,128,0,195939:0:0:0:0:
64,192,196053,1,0,0:0:0:0:
192,192,196053,1,0,0:0:0:0:
320,192,196168,1,0,0:0:0:0:
320,192,196282,1,0,0:0:0:0:
64,192,196282,128,0,196397:0:0:0:0:
320,192,196397,128,0,196511:0:0:0:0:
192,192,196454,1,0,0:0:0:0:
64,192,196511,128,0,196740:0:0:0:0:
448,192,196511,128,0,196740:0:0:0:0:
192,192,196626,1,0,0:0:0:0:
320,192,196740,128,0,196855:0:0:0:0:
320,192,196969,1,0,0:0:0:0:
448,192,196969,1,0,0:0:0:0:
448,192,197198,128,0,197313:0:0:0:0:
64,192,197198,1,0,0:0:0:0:
64,192,197313,1,0,0:0:0:0:
192,192,197313,128,0,197427:0:0:0:0:
320,192,197427,128,0,197656:0:0:0:0:
448,192,197427,128,0,197656:0:0:0:0:
64,192,197656,1,0,0:0:0:0:
192,192,197656,1,0,0:0:0:0:
320,192,197713,1,0,0:0:0:0:
192,192,197771,1,0,0:0:0:0:
448,192,197885,1,0,0:0:0:0:
64,192,197885,1,0,0:0:0:0:
448,192,198114,128,0,198229:0:0:0:0:
192,192,198114,128,0,198229:0:0:0:0:
320,192,198229,128,0,198343:0:0:0:0:
64,192,198343,128,0,198572:0:0:0:0:
448,192,198343,128,0,198572:0:0:0:0:
192,192,198343,128,0,198458:0:0:0:0:
192,192,198572,128,0,198687:0:0:0:0:
320,192,198629,128,0,198744:0:0:0:0:
448,192,198687,128,0,198801:0:0:0:0:
192,192,198801,1,0,0:0:0:0:
64,192,198801,1,0,0:0:0:0:
320,192,198916,1,0,0:0:0:0:
320,192,199030,1,0,0:0:0:0:
64,192,199030,128,0,199145:0:0:0:0:
320,192,199145,128,0,199259:0:0:0:0:
192,192,199259,1,0,0:0:0:0:
64,192,199259,128,0,199488:0:0:0:0:
448,192,199259,128,0,199374:0:0:0:0:
320,192,199374,128,0,199488:0:0:0:0:
192,192,199431,128,0,199545:0:0:0:0:
448,192,199488,1,0,0:0:0:0:
64,192,199603,128,0,199717:0:0:0:0:
192,192,199660,128,0,199774:0:0:0:0:
448,192,199717,1,0,0:0:0:0:
320,192,199717,1,0,0:0:0:0:
64,192,199832,1,0,0:0:0:0:
448,192,199946,128,0,200061:0:0:0:0:
64,192,199946,128,0,200061:0:0:0:0:
320,192,200061,128,0,200175:0:0:0:0:
64,192,200175,128,0,200404:0:0:0:0:
192,192,200175,128,0,200404:0:0:0:0:
448,192,200175,128,0,200404:0:0:0:0:
320,192,200404,128,0,200519:0:0:0:0:
192,192,200633,1,0,0:0:0:0:
64,192,200633,128,0,200977:0:0:0:0:
448,192,200748,1,0,0:0:0:0:
320,192,200862,128,0,200977:0:0:0:0:
448,192,200862,128,0,200977:0:0:0:0:
192,192,200977,128,0,201091:0:0:0:0:
448,192,201091,128,0,201320:0:0:0:0:
320,192,201091,128,0,201435:0:0:0:0:
64,192,201091,128,0,201206:0:0:0:0:
64,192,201320,128,0,201549:0:0:0:0:
448,192,201435,128,0,201549:0:0:0:0:
192,192,201549,1,0,0:0:0:0:
320,192,201549,1,0,0:0:0:0:
448,192,201778,128,0,201893:0:0:0:0:
64,192,201778,128,0,201893:0:0:0:0:
320,192,201893,128,0,202007:0:0:0:0:
64,192,202007,128,0,202236:0:0:0:0:
192,192,202007,1,0,0:0:0:0:
448,192,202007,128,0,202236:0:0:0:0:
320,192,202236,128,0,202351:0:0:0:0:
64,192,202465,1,0,0:0:0:0:
192,192,202465,1,0,0:0:0:0:
64,192,202694,128,0,202809:0:0:0:0:
448,192,202694,128,0,202809:0:0:0:0:
320,192,202809,128,0,202923:0:0:0:0:
192,192,202923,1,0,0:0:0:0:
64,192,202923,128,0,203152:0:0:0:0:
448,192,202923,128,0,203152:0:0:0:0:
320,192,203152,128,0,203267:0:0:0:0:
64,192,203267,1,0,0:0:0:0:
448,192,203324,1,0,0:0:0:0:
320,192,203381,1,0,0:0:0:0:
192,192,203381,128,0,203725:0:0:0:0:
64,192,203496,1,0,0:0:0:0:
448,192,203610,128,0,203725:0:0:0:0:
64,192,203610,128,0,203725:0:0:0:0:
320,192,203725,128,0,203839:0:0:0:0:
64,192,203839,128,0,204068:0:0:0:0:
192,192,203839,1,0,0:0:0:0:
448,192,203839,128,0,204068:0:0:0:0:
320,192,203954,1,0,0:0:0:0:
320,192,204068,128,0,204183:0:0:0:0:
192,192,204183,1,0,0:0:0:0:
448,192,204297,1,0,0:0:0:0:
64,192,204297,128,0,204641:0:0:0:0:
320,192,204526,128,0,204641:0:0:0:0:
448,192,204526,128,0,204641:0:0:0:0:
192,192,204641,128,0,204755:0:0:0:0:
448,192,204755,128,0,204984:0:0:0:0:
320,192,204755,1,0,0:0:0:0:
64,192,204755,128,0,205099:0:0:0:0:
320,192,204984,128,0,205099:0:0:0:0:
192,192,205099,1,0,0:0:0:0:
320,192,205156,1,0,0:0:0:0:
64,192,205213,1,0,0:0:0:0:
448,192,205213,1,0,0:0:0:0:
448,192,205442,128,0,205557:0:0:0:0:
192,192,205442,128,0,205557:0:0:0:0:
320,192,205557,128,0,205671:0:0:0:0:
64,192,205671,128,0,205900:0:0:0:0:
192,192,205671,128,0,205786:0:0:0:0:
448,192,205671,128,0,205900:0:0:0:0:
192,192,205900,128,0,206015:0:0:0:0:
320,192,205958,128,0,206072:0:0:0:0:
448,192,206015,128,0,206129:0:0:0:0:
192,192,206129,1,0,0:0:0:0:
64,192,206129,1,0,0:0:0:0:
320,192,206244,1,0,0:0:0:0:
320,192,206358,1,0,0:0:0:0:
64,192,206358,128,0,206473:0:0:0:0:
320,192,206473,128,0,206587:0:0:0:0:
192,192,206587,1,0,0:0:0:0:
64,192,206587,128,0,206816:0:0:0:0:
448,192,206587,128,0,206702:0:0:0:0:
320,192,206702,128,0,206816:0:0:0:0:
192,192,206759,128,0,206874:0:0:0:0:
448,192,206816,1,0,0:0:0:0:
64,192,206931,128,0,207045:0:0:0:0:
192,192,206988,128,0,207103:0:0:0:0:
448,192,207045,1,0,0:0:0:0:
320,192,207045,1,0,0:0:0:0:
448,192,207274,128,0,207389:0:0:0:0:
192,192,207274,128,0,207389:0:0:0:0:
320,192,207389,128,0,207503:0:0:0:0:
64,192,207503,128,0,207732:0:0:0:0:
192,192,207503,128,0,207618:0:0:0:0:
448,192,207503,128,0,207732:0:0:0:0:
192,192,207732,128,0,207847:0:0:0:0:
320,192,207790,128,0,207904:0:0:0:0:
448,192,207847,128,0,207961:0:0:0:0:
192,192,207961,1,0,0:0:0:0:
64,192,207961,1,0,0:0:0:0:
320,192,208076,1,0,0:0:0:0:
320,192,208190,1,0,0:0:0:0:
64,192,208190,128,0,208305:0:0:0:0:
320,192,208305,128,0,208419:0:0:0:0:
64,192,208419,128,0,208877:0:0:0:0:
192,192,208419,128,0,208648:0:0:0:0:
448,192,208419,128,0,208534:0:0:0:0:
448,192,208648,128,0,208763:0:0:0:0:
320,192,208763,128,0,208877:0:0:0:0:
192,192,208877,1,0,0:0:0:0:
448,192,208877,1,0,0:0:0:0:
448,192,209106,128,0,209221:0:0:0:0:
64,192,209106,128,0,209221:0:0:0:0:
320,192,209221,128,0,209335:0:0:0:0:
64,192,209335,128,0,209564:0:0:0:0:
192,192,209335,1,0,0:0:0:0:
448,192,209335,128,0,209564:0:0:0:0:
320,192,209564,128,0,209679:0:0:0:0:
64,192,209793,1,0,0:0:0:0:
192,192,209793,1,0,0:0:0:0:
64,192,210023,128,0,210137:0:0:0:0:
448,192,210023,128,0,210137:0:0:0:0:
320,192,210137,128,0,210252:0:0:0:0:
192,192,210252,1,0,0:0:0:0:
64,192,210252,128,0,210481:0:0:0:0:
448,192,210252,128,0,210481:0:0:0:0:
320,192,210481,128,0,210595:0:0:0:0:
64,192,210595,1,0,0:0:0:0:
320,192,210652,1,0,0:0:0:0:
192,192,210710,1,0,0:0:0:0:
64,192,210710,1,0,0:0:0:0:
320,192,210939,128,0,211053:0:0:0:0:
448,192,210939,128,0,211053:0:0:0:0:
192,192,211053,128,0,211168:0:0:0:0:
320,192,211168,1,0,0:0:0:0:
64,192,211168,128,0,211397:0:0:0:0:
448,192,211168,128,0,211397:0:0:0:0:
320,192,211397,128,0,211511:0:0:0:0:
64,192,211626,1,0,0:0:0:0:
192,192,211626,128,0,211969:0:0:0:0:
64,192,211855,128,0,211969:0:0:0:0:
448,192,211855,128,0,211969:0:0:0:0:
320,192,211969,128,0,212084:0:0:0:0:
192,192,212084,128,0,212313:0:0:0:0:
448,192,212084,1,0,0:0:0:0:
64,192,212084,128,0,212313:0:0:0:0:
320,192,212313,1,0,0:0:0:0:
448,192,212313,128,0,212427:0:0:0:0:
64,192,212542,1,0,0:0:0:0:
192,192,212542,1,0,0:0:0:0:
448,192,212771,128,0,212885:0:0:0:0:
64,192,212771,128,0,212885:0:0:0:0:
320,192,212885,128,0,213000:0:0:0:0:
192,192,213000,1,0,0:0:0:0:
64,192,213000,1,0,0:0:0:0:
448,192,213000,1,0,0:0:0:0:
448,192,213229,128,0,213343:0:0:0:0:
64,192,213229,128,0,213343:0:0:0:0:
192,192,213286,128,0,213400:0:0:0:0:
320,192,213343,128,0,213458:0:0:0:0:
64,192,213458,1,0,0:0:0:0:
448,192,213458,1,0,0:0:0:0:
192,192,213572,1,0,0:0:0:0:
448,192,213687,128,0,213801:0:0:0:0:
64,192,213687,128,0,213801:0:0:0:0:
320,192,213801,128,0,213916:0:0:0:0:
192,192,213916,1,0,0:0:0:0:
64,192,213916,1,0,0:0:0:0:
448,192,213916,1,0,0:0:0:0:
448,192,214145,128,0,214259:0:0:0:0:
64,192,214145,128,0,214259:0:0:0:0:
320,192,214259,128,0,214374:0:0:0:0:
448,192,214374,1,0,0:0:0:0:
192,192,214374,1,0,0:0:0:0:
64,192,214488,1,0,0:0:0:0:
448,192,214603,128,0,214717:0:0:0:0:
64,192,214603,128,0,214717:0:0:0:0:
320,192,214717,128,0,214832:0:0:0:0:
448,192,214832,1,0,0:0:0:0:
64,192,214832,1,0,0:0:0:0:
192,192,214832,128,0,215061:0:0:0:0:
448,192,215061,128,0,215175:0:0:0:0:
64,192,215061,128,0,215175:0:0:0:0:
320,192,215175,128,0,215290:0:0:0:0:
448,192,215290,1,0,0:0:0:0:
192,192,215290,128,0,215633:0:0:0:0:
448,192,215519,128,0,215633:0:0:0:0:
64,192,215519,128,0,215633:0:0:0:0:
320,192,215633,128,0,215748:0:0:0:0:
448,192,215748,128,0,215977:0:0:0:0:
64,192,215748,128,0,215977:0:0:0:0:
192,192,215748,128,0,215862:0:0:0:0:
192,192,215977,128,0,216206:0:0:0:0:
64,192,216091,128,0,216206:0:0:0:0:
320,192,216206,1,0,0:0:0:0:
448,192,216206,1,0,0:0:0:0:
64,192,216435,128,0,216549:0:0:0:0:
448,192,216435,128,0,216549:0:0:0:0:
192,192,216549,128,0,216664:0:0:0:0:
320,192,216664,1,0,0:0:0:0:
448,192,216664,1,0,0:0:0:0:
64,192,216664,1,0,0:0:0:0:
64,192,216893,128,0,217007:0:0:0:0:
448,192,216893,128,0,217007:0:0:0:0:
192,192,217007,128,0,217122:0:0:0:0:
320,192,217122,1,0,0:0:0:0:
64,192,217122,1,0,0:0:0:0:
64,192,217351,128,0,217465:0:0:0:0:
448,192,217351,128,0,217465:0:0:0:0:
192,192,217465,128,0,217580:0:0:0:0:
320,192,217580,1,0,0:0:0:0:
448,192,217580,1,0,0:0:0:0:
64,192,217580,1,0,0:0:0:0:
64,192,217809,128,0,217923:0:0:0:0:
448,192,217809,128,0,217923:0:0:0:0:
192,192,217923,128,0,218038:0:0:0:0:
64,192,218038,1,0,0:0:0:0:
320,192,218038,128,0,218381:0:0:0:0:
64,192,218267,128,0,218381:0:0:0:0:
448,192,218267,128,0,218381:0:0:0:0:
192,192,218381,128,0,218496:0:0:0:0:
64,192,218496,1,0,0:0:0:0:
320,192,218496,1,0,0:0:0:0:
448,192,218496,1,0,0:0:0:0:
320,192,218610,1,0,0:0:0:0:
64,192,218725,128,0,218839:0:0:0:0:
448,192,218725,128,0,218839:0:0:0:0:
192,192,218839,128,0,218954:0:0:0:0:
64,192,218954,1,0,0:0:0:0:
320,192,218954,128,0,219297:0:0:0:0:
64,192,219183,128,0,219297:0:0:0:0:
448,192,219183,128,0,219297:0:0:0:0:
192,192,219297,128,0,219412:0:0:0:0:
320,192,219412,1,0,0:0:0:0:
64,192,219412,128,0,219641:0:0:0:0:
448,192,219412,128,0,219755:0:0:0:0:
192,192,219641,128,0,219755:0:0:0:0:
320,192,219755,1,0,0:0:0:0:
192,192,219870,1,0,0:0:0:0:
64,192,219870,1,0,0:0:0:0:
448,192,220099,128,0,220213:0:0:0:0:
64,192,220099,128,0,220213:0:0:0:0:
320,192,220213,128,0,220328:0:0:0:0:
448,192,220328,1,0,0:0:0:0:
64,192,220328,1,0,0:0:0:0:
192,192,220328,1,0,0:0:0:0:
448,192,220557,128,0,220671:0:0:0:0:
64,192,220557,128,0,220671:0:0:0:0:
192,192,220614,128,0,220729:0:0:0:0:
320,192,220671,128,0,220786:0:0:0:0:
448,192,220786,1,0,0:0:0:0:
64,192,220786,1,0,0:0:0:0:
192,192,220900,1,0,0:0:0:0:
448,192,221015,128,0,221129:0:0:0:0:
64,192,221015,128,0,221129:0:0:0:0:
320,192,221129,128,0,221244:0:0:0:0:
448,192,221244,1,0,0:0:0:0:
64,192,221244,1,0,0:0:0:0:
192,192,221244,1,0,0:0:0:0:
448,192,221473,128,0,221587:0:0:0:0:
64,192,221473,128,0,221587:0:0:0:0:
320,192,221587,128,0,221702:0:0:0:0:
64,192,221702,1,0,0:0:0:0:
448,192,221702,1,0,0:0:0:0:
64,192,221816,1,0,0:0:0:0:
448,192,221931,128,0,222045:0:0:0:0:
64,192,221931,128,0,222045:0:0:0:0:
320,192,222045,128,0,222160:0:0:0:0:
448,192,222160,1,0,0:0:0:0:
64,192,222160,1,0,0:0:0:0:
192,192,222160,128,0,222389:0:0:0:0:
448,192,222389,128,0,222503:0:0:0:0:
64,192,222389,128,0,222503:0:0:0:0:
320,192,222503,128,0,222618:0:0:0:0:
448,192,222618,1,0,0:0:0:0:
192,192,222618,1,0,0:0:0:0:
192,192,222732,128,0,222847:0:0:0:0:
448,192,222732,128,0,222847:0:0:0:0:
192,192,222961,1,0,0:0:0:0:
448,192,222961,1,0,0:0:0:0:
448,192,223076,128,0,223305:0:0:0:0:
192,192,223076,128,0,223190:0:0:0:0:
64,192,223076,128,0,223305:0:0:0:0:
192,192,223305,128,0,223534:0:0:0:0:
64,192,223419,128,0,223534:0:0:0:0:
448,192,223534,1,0,0:0:0:0:
320,192,223534,1,0,0:0:0:0:
320,192,223648,1,0,0:0:0:0:
64,192,223763,128,0,223877:0:0:0:0:
448,192,223763,128,0,223877:0:0:0:0:
192,192,223877,128,0,223992:0:0:0:0:
64,192,223992,1,0,0:0:0:0:
448,192,223992,1,0,0:0:0:0:
320,192,223992,1,0,0:0:0:0:
64,192,224221,128,0,224335:0:0:0:0:
448,192,224221,128,0,224335:0:0:0:0:
192,192,224335,128,0,224450:0:0:0:0:
64,192,224450,1,0,0:0:0:0:
320,192,224450,128,0,224679:0:0:0:0:
64,192,224679,128,0,224793:0:0:0:0:
448,192,224679,128,0,224793:0:0:0:0:
192,192,224793,128,0,224908:0:0:0:0:
64,192,224908,1,0,0:0:0:0:
320,192,224908,1,0,0:0:0:0:
448,192,224908,1,0,0:0:0:0:
320,192,225023,1,0,0:0:0:0:
64,192,225137,128,0,225252:0:0:0:0:
448,192,225137,128,0,225252:0:0:0:0:
192,192,225252,128,0,225366:0:0:0:0:
64,192,225366,1,0,0:0:0:0:
320,192,225366,1,0,0:0:0:0:
320,192,225481,1,0,0:0:0:0:
64,192,225595,128,0,225710:0:0:0:0:
448,192,225595,128,0,225710:0:0:0:0:
192,192,225710,128,0,225824:0:0:0:0:
64,192,225824,1,0,0:0:0:0:
320,192,225824,1,0,0:0:0:0:
448,192,225824,1,0,0:0:0:0:
64,192,226053,128,0,226168:0:0:0:0:
448,192,226053,128,0,226168:0:0:0:0:
192,192,226168,128,0,226282:0:0:0:0:
64,192,226282,1,0,0:0:0:0:
320,192,226282,1,0,0:0:0:0:
320,192,226397,1,0,0:0:0:0:
64,192,226397,1,0,0:0:0:0:
448,192,226511,1,0,0:0:0:0:
320,192,226626,1,0,0:0:0:0:
64,192,226626,1,0,0:0:0:0:
64,192,226740,128,0,226969:0:0:0:0:
320,192,226740,128,0,226969:0:0:0:0:
192,192,226969,1,0,0:0:0:0:
448,192,226969,1,0,0:0:0:0:
320,192,227026,1,0,0:0:0:0:
192,192,227084,1,0,0:0:0:0:
64,192,227198,1,0,0:0:0:0:
448,192,227198,1,0,0:0:0:0:
448,192,227427,128,0,227542:0:0:0:0:
64,192,227427,128,0,227542:0:0:0:0:
320,192,227542,128,0,227656:0:0:0:0:
192,192,227656,1,0,0:0:0:0:
64,192,227656,1,0,0:0:0:0:
448,192,227656,1,0,0:0:0:0:
448,192,227885,128,0,228000:0:0:0:0:
64,192,227885,128,0,228000:0:0:0:0:
192,192,227942,128,0,228057:0:0:0:0:
320,192,228000,128,0,228114:0:0:0:0:
448,192,228114,1,0,0:0:0:0:
64,192,228114,1,0,0:0:0:0:
192,192,228229,1,0,0:0:0:0:
448,192,228343,128,0,228458:0:0:0:0:
64,192,228343,128,0,228458:0:0:0:0:
320,192,228458,128,0,228572:0:0:0:0:
192,192,228572,1,0,0:0:0:0:
64,192,228572,1,0,0:0:0:0:
448,192,228572,1,0,0:0:0:0:
448,192,228801,128,0,228916:0:0:0:0:
64,192,228801,128,0,228916:0:0:0:0:
320,192,228916,128,0,229030:0:0:0:0:
448,192,229030,1,0,0:0:0:0:
192,192,229030,1,0,0:0:0:0:
64,192,229145,1,0,0:0:0:0:
448,192,229259,128,0,229374:0:0:0:0:
64,192,229259,128,0,229374:0:0:0:0:
320,192,229374,128,0,229488:0:0:0:0:
448,192,229488,1,0,0:0:0:0:
64,192,229488,1,0,0:0:0:0:
192,192,229488,128,0,229717:0:0:0:0:
448,192,229717,128,0,229832:0:0:0:0:
64,192,229717,128,0,229832:0:0:0:0:
320,192,229832,128,0,229946:0:0:0:0:
448,192,229946,1,0,0:0:0:0:
64,192,229946,1,0,0:0:0:0:
192,192,230003,1,0,0:0:0:0:
448,192,230061,1,0,0:0:0:0:
192,192,230118,128,0,230290:0:0:0:0:
448,192,230175,128,0,230290:0:0:0:0:
64,192,230404,1,0,0:0:0:0:
192,192,230404,1,0,0:0:0:0:
448,192,230404,1,0,0:0:0:0:
192,192,230519,1,0,0:0:0:0:
448,192,230519,1,0,0:0:0:0:
448,192,230633,128,0,230748:0:0:0:0:
192,192,230633,128,0,230862:0:0:0:0:
64,192,230748,128,0,230862:0:0:0:0:
320,192,230862,1,0,0:0:0:0:
448,192,230862,1,0,0:0:0:0:
64,192,231091,128,0,231206:0:0:0:0:
448,192,231091,128,0,231206:0:0:0:0:
192,192,231206,128,0,231320:0:0:0:0:
320,192,231320,1,0,0:0:0:0:
448,192,231320,1,0,0:0:0:0:
64,192,231320,1,0,0:0:0:0:
64,192,231549,128,0,231664:0:0:0:0:
448,192,231549,128,0,231664:0:0:0:0:
192,192,231664,128,0,231778:0:0:0:0:
320,192,231778,1,0,0:0:0:0:
64,192,231778,1,0,0:0:0:0:
64,192,232007,128,0,232122:0:0:0:0:
448,192,232007,128,0,232122:0:0:0:0:
192,192,232122,128,0,232236:0:0:0:0:
320,192,232236,1,0,0:0:0:0:
448,192,232236,1,0,0:0:0:0:
64,192,232236,1,0,0:0:0:0:
64,192,232465,128,0,232580:0:0:0:0:
448,192,232465,128,0,232580:0:0:0:0:
192,192,232580,128,0,232694:0:0:0:0:
64,192,232694,1,0,0:0:0:0:
320,192,232694,128,0,233038:0:0:0:0:
64,192,232923,128,0,233038:0:0:0:0:
448,192,232923,128,0,233038:0:0:0:0:
192,192,233038,128,0,233152:0:0:0:0:
448,192,233152,1,0,0:0:0:0:
64,192,233152,128,0,233267:0:0:0:0:
320,192,233152,128,0,233267:0:0:0:0:
64,192,233381,128,0,233496:0:0:0:0:
320,192,233381,128,0,233496:0:0:0:0:
64,192,233610,1,0,0:0:0:0:
320,192,233610,1,0,0:0:0:0:
64,192,233725,128,0,233839:0:0:0:0:
320,192,233839,128,0,233954:0:0:0:0:
192,192,233954,1,0,0:0:0:0:
320,192,234068,128,0,234297:0:0:0:0:
64,192,234068,128,0,234297:0:0:0:0:
448,192,234068,1,0,0:0:0:0:
192,192,234297,1,0,0:0:0:0:
448,192,234355,1,0,0:0:0:0:
192,192,234412,1,0,0:0:0:0:
448,192,234469,1,0,0:0:0:0:
64,192,234526,1,0,0:0:0:0:
192,192,234526,1,0,0:0:0:0:
448,192,234755,128,0,234870:0:0:0:0:
64,192,234755,128,0,234870:0:0:0:0:
320,192,234870,128,0,234984:0:0:0:0:
448,192,234984,1,0,0:0:0:0:
64,192,234984,1,0,0:0:0:0:
192,192,234984,1,0,0:0:0:0:
448,192,235213,128,0,235328:0:0:0:0:
64,192,235213,128,0,235328:0:0:0:0:
192,192,235271,128,0,235385:0:0:0:0:
320,192,235328,128,0,235442:0:0:0:0:
448,192,235442,1,0,0:0:0:0:
64,192,235442,1,0,0:0:0:0:
192,192,235557,1,0,0:0:0:0:
448,192,235671,128,0,235786:0:0:0:0:
64,192,235671,128,0,235786:0:0:0:0:
320,192,235786,128,0,235900:0:0:0:0:
448,192,235900,1,0,0:0:0:0:
64,192,235900,1,0,0:0:0:0:
192,192,235900,1,0,0:0:0:0:
448,192,236129,128,0,236244:0:0:0:0:
64,192,236129,128,0,236244:0:0:0:0:
320,192,236244,128,0,236358:0:0:0:0:
64,192,236358,1,0,0:0:0:0:
448,192,236358,1,0,0:0:0:0:
64,192,236473,1,0,0:0:0:0:
448,192,236587,128,0,236702:0:0:0:0:
64,192,236587,128,0,236702:0:0:0:0:
320,192,236702,128,0,236816:0:0:0:0:
448,192,236816,1,0,0:0:0:0:
64,192,236816,1,0,0:0:0:0:
192,192,236816,128,0,237045:0:0:0:0:
448,192,237045,128,0,237160:0:0:0:0:
64,192,237045,128,0,237160:0:0:0:0:
320,192,237160,128,0,237274:0:0:0:0:
448,192,237274,1,0,0:0:0:0:
64,192,237274,1,0,0:0:0:0:
192,192,237332,1,0,0:0:0:0:
448,192,237389,1,0,0:0:0:0:
320,192,237446,1,0,0:0:0:0:
192,192,237503,1,0,0:0:0:0:
448,192,237561,1,0,0:0:0:0:
192,192,237618,1,0,0:0:0:0:
320,192,237675,1,0,0:0:0:0:
64,192,237732,1,0,0:0:0:0:
448,192,237732,1,0,0:0:0:0:
192,192,237790,1,0,0:0:0:0:
448,192,237847,1,0,0:0:0:0:
192,192,237904,1,0,0:0:0:0:
320,192,237961,128,0,238076:0:0:0:0:
448,192,238076,128,0,238190:0:0:0:0:
64,192,238076,128,0,238305:0:0:0:0:
320,192,238190,1,0,0:0:0:0:
192,192,238190,128,0,238305:0:0:0:0:
64,192,238419,128,0,238534:0:0:0:0:
448,192,238419,128,0,238534:0:0:0:0:
192,192,238534,128,0,238648:0:0:0:0:
64,192,238648,1,0,0:0:0:0:
448,192,238648,1,0,0:0:0:0:
320,192,238648,1,0,0:0:0:0:
64,192,238877,128,0,238992:0:0:0:0:
448,192,238877,128,0,238992:0:0:0:0:
192,192,238992,128,0,239106:0:0:0:0:
64,192,239106,1,0,0:0:0:0:
320,192,239106,128,0,239335:0:0:0:0:
64,192,239335,128,0,239450:0:0:0:0:
448,192,239335,128,0,239450:0:0:0:0:
192,192,239450,128,0,239564:0:0:0:0:
64,192,239564,1,0,0:0:0:0:
320,192,239564,1,0,0:0:0:0:
448,192,239564,1,0,0:0:0:0:
64,192,239793,128,0,239908:0:0:0:0:
448,192,239793,128,0,239908:0:0:0:0:
192,192,239908,128,0,240023:0:0:0:0:
320,192,239965,1,0,0:0:0:0:
64,192,240023,1,0,0:0:0:0:
448,192,240023,1,0,0:0:0:0:
448,192,240137,1,0,0:0:0:0:
64,192,240252,128,0,240366:0:0:0:0:
320,192,240252,128,0,240366:0:0:0:0:
192,192,240366,128,0,240481:0:0:0:0:
320,192,240481,1,0,0:0:0:0:
64,192,240481,128,0,240595:0:0:0:0:
448,192,240481,128,0,240595:0:0:0:0:
64,192,240710,128,0,240824:0:0:0:0:
448,192,240710,128,0,240824:0:0:0:0:
192,192,240824,128,0,240939:0:0:0:0:
448,192,240939,128,0,241082:0:0:0:0:
64,192,240939,128,0,241282:0:0:0:0:
448,192,241168,128,0,241282:0:0:0:0:
192,192,241282,1,0,0:0:0:0:
320,192,241282,1,0,0:0:0:0:
192,192,241397,128,0,241511:0:0:0:0:
448,192,241397,1,0,0:0:0:0:
64,192,241397,1,0,0:0:0:0:
192,192,241626,128,0,241740:0:0:0:0:
448,192,241855,1,0,0:0:0:0:
64,192,241855,1,0,0:0:0:0:
64,192,242084,128,0,242198:0:0:0:0:
320,192,242084,128,0,242198:0:0:0:0:
448,192,242198,128,0,242313:0:0:0:0:
192,192,242313,1,0,0:0:0:0:
64,192,242313,1,0,0:0:0:0:
320,192,242313,1,0,0:0:0:0:
448,192,242370,1,0,0:0:0:0:
192,192,242427,1,0,0:0:0:0:
448,192,242484,1,0,0:0:0:0:
64,192,242542,1,0,0:0:0:0:
64,192,242656,128,0,242771:0:0:0:0:
448,192,242656,128,0,242771:0:0:0:0:
320,192,242771,1,0,0:0:0:0:
192,192,242771,1,0,0:0:0:0:
64,192,242885,128,0,243000:0:0:0:0:
448,192,242885,128,0,243000:0:0:0:0:
320,192,243000,1,0,0:0:0:0:
64,192,243114,128,0,243229:0:0:0:0:
448,192,243114,128,0,243229:0:0:0:0:
320,192,243229,1,0,0:0:0:0:
192,192,243229,1,0,0:0:0:0:
64,192,243343,128,0,243458:0:0:0:0:
448,192,243343,128,0,243458:0:0:0:0:
192,192,243458,1,0,0:0:0:0:
64,192,243572,128,0,243687:0:0:0:0:
448,192,243572,128,0,243687:0:0:0:0:
320,192,243687,1,0,0:0:0:0:
192,192,243687,1,0,0:0:0:0:
320,192,243916,128,0,244030:0:0:0:0:
448,192,244030,128,0,244145:0:0:0:0:
64,192,244145,1,0,0:0:0:0:
192,192,244173,1,0,0:0:0:0:
320,192,244202,1,0,0:0:0:0:
448,192,244231,1,0,0:0:0:0:
64,192,244259,1,0,0:0:0:0:
192,192,244316,1,0,0:0:0:0:
320,192,244374,1,0,0:0:0:0:
448,192,244402,1,0,0:0:0:0:
64,192,244431,1,0,0:0:0:0:
192,192,244460,1,0,0:0:0:0:
320,192,244488,128,0,244603:0:0:0:0:
448,192,244603,1,0,0:0:0:0:
64,192,244603,128,0,244717:0:0:0:0:
192,192,244717,128,0,244832:0:0:0:0:
64,192,244832,128,0,244946:0:0:0:0:
192,192,244946,128,0,245061:0:0:0:0:
320,192,244946,1,0,0:0:0:0:
64,192,245061,128,0,245290:0:0:0:0:
320,192,245061,128,0,245290:0:0:0:0:
448,192,245061,128,0,245175:0:0:0:0:
192,192,245175,128,0,245290:0:0:0:0:
448,192,245290,128,0,245404:0:0:0:0:
320,192,245404,128,0,245519:0:0:0:0:
64,192,245519,1,0,0:0:0:0:
448,192,245519,1,0,0:0:0:0:
320,192,245748,128,0,245862:0:0:0:0:
64,192,245748,128,0,245862:0:0:0:0:
192,192,245862,128,0,245977:0:0:0:0:
64,192,245977,1,0,0:0:0:0:
320,192,245977,128,0,246206:0:0:0:0:
448,192,245977,128,0,246206:0:0:0:0:
192,192,246206,128,0,246320:0:0:0:0:
320,192,246320,128,0,246549:0:0:0:0:
448,192,246320,128,0,246549:0:0:0:0:
192,192,246435,1,0,0:0:0:0:
64,192,246435,1,0,0:0:0:0:
320,192,246664,128,0,246893:0:0:0:0:
448,192,246664,128,0,246893:0:0:0:0:
192,192,246778,1,0,0:0:0:0:
192,192,246893,1,0,0:0:0:0:
64,192,246893,1,0,0:0:0:0:
320,192,247007,128,0,247236:0:0:0:0:
448,192,247007,128,0,247236:0:0:0:0:
64,192,247122,128,0,247351:0:0:0:0:
192,192,247236,128,0,247351:0:0:0:0:
448,192,247351,1,0,0:0:0:0:
320,192,247351,1,0,0:0:0:0:
320,192,247465,1,0,0:0:0:0:
320,192,247580,128,0,247694:0:0:0:0:
64,192,247580,128,0,247694:0:0:0:0:
320,192,247809,128,0,247923:0:0:0:0:
64,192,247809,128,0,247923:0:0:0:0:
192,192,247809,1,0,0:0:0:0:
64,192,248038,128,0,248152:0:0:0:0:
320,192,248038,128,0,248152:0:0:0:0:
192,192,248152,1,0,0:0:0:0:
64,192,248267,128,0,248381:0:0:0:0:
320,192,248267,128,0,248381:0:0:0:0:
64,192,248496,128,0,248610:0:0:0:0:
192,192,248496,128,0,248610:0:0:0:0:
320,192,248610,128,0,248725:0:0:0:0:
64,192,248725,128,0,248954:0:0:0:0:
192,192,248725,1,0,0:0:0:0:
448,192,248725,128,0,248954:0:0:0:0:
320,192,248954,128,0,249068:0:0:0:0:
448,192,249068,1,0,0:0:0:0:
192,192,249183,1,0,0:0:0:0:
64,192,249183,1,0,0:0:0:0:
320,192,249412,128,0,249526:0:0:0:0:
64,192,249412,128,0,249526:0:0:0:0:
192,192,249526,128,0,249641:0:0:0:0:
320,192,249641,1,0,0:0:0:0:
448,192,249641,1,0,0:0:0:0:
64,192,249641,1,0,0:0:0:0:
192,192,249698,1,0,0:0:0:0:
448,192,249755,1,0,0:0:0:0:
320,192,249813,1,0,0:0:0:0:
192,192,249870,1,0,0:0:0:0:
448,192,249927,1,0,0:0:0:0:
192,192,249984,1,0,0:0:0:0:
192,192,250099,1,0,0:0:0:0:
320,192,250099,1,0,0:0:0:0:
192,192,250328,128,0,250442:0:0:0:0:
448,192,250328,128,0,250442:0:0:0:0:
64,192,250442,128,0,250557:0:0:0:0:
448,192,250557,1,0,0:0:0:0:
320,192,250585,1,0,0:0:0:0:
192,192,250614,1,0,0:0:0:0:
64,192,250643,1,0,0:0:0:0:
448,192,250671,1,0,0:0:0:0:
320,192,250729,1,0,0:0:0:0:
192,192,250786,1,0,0:0:0:0:
64,192,250814,1,0,0:0:0:0:
448,192,250843,1,0,0:0:0:0:
320,192,250872,1,0,0:0:0:0:
192,192,250900,128,0,251015:0:0:0:0:
448,192,251015,1,0,0:0:0:0:
64,192,251015,1,0,0:0:0:0:
320,192,251244,128,0,251358:0:0:0:0:
448,192,251358,128,0,251473:0:0:0:0:
320,192,251473,1,0,0:0:0:0:
64,192,251473,128,0,251702:0:0:0:0:
192,192,251473,128,0,251702:0:0:0:0:
448,192,251702,1,0,0:0:0:0:
192,192,251816,1,0,0:0:0:0:
64,192,251816,1,0,0:0:0:0:
64,192,251931,128,0,252045:0:0:0:0:
192,192,251931,128,0,252045:0:0:0:0:
64,192,252160,128,0,252389:0:0:0:0:
192,192,252160,128,0,252389:0:0:0:0:
448,192,252274,1,0,0:0:0:0:
320,192,252389,1,0,0:0:0:0:
448,192,252389,1,0,0:0:0:0:
64,192,252503,128,0,252732:0:0:0:0:
192,192,252503,128,0,252732:0:0:0:0:
320,192,252618,128,0,252732:0:0:0:0:
448,192,252732,128,0,252847:0:0:0:0:
192,192,252847,1,0,0:0:0:0:
64,192,252847,1,0,0:0:0:0:
192,192,252961,1,0,0:0:0:0:
320,192,253076,128,0,253190:0:0:0:0:
448,192,253076,128,0,253190:0:0:0:0:
192,192,253190,128,0,253305:0:0:0:0:
64,192,253305,128,0,253419:0:0:0:0:
448,192,253305,128,0,253419:0:0:0:0:
320,192,253305,1,0,0:0:0:0:
64,192,253534,128,0,253648:0:0:0:0:
448,192,253534,128,0,253648:0:0:0:0:
192,192,253648,1,0,0:0:0:0:
64,192,253763,128,0,253877:0:0:0:0:
448,192,253763,128,0,253877:0:0:0:0:
64,192,253992,128,0,254106:0:0:0:0:
448,192,253992,128,0,254106:0:0:0:0:
320,192,254106,1,0,0:0:0:0:
64,192,254221,128,0,254335:0:0:0:0:
448,192,254221,128,0,254335:0:0:0:0:
192,192,254221,1,0,0:0:0:0:
64,192,254450,128,0,254564:0:0:0:0:
448,192,254450,128,0,254564:0:0:0:0:
192,192,254564,1,0,0:0:0:0:
320,192,254679,1,0,0:0:0:0:
448,192,254679,1,0,0:0:0:0:
320,192,254793,1,0,0:0:0:0:
192,192,254908,128,0,255023:0:0:0:0:
448,192,254908,128,0,255023:0:0:0:0:
64,192,255023,128,0,255137:0:0:0:0:
192,192,255137,1,0,0:0:0:0:
320,192,255137,1,0,0:0:0:0:
448,192,255137,1,0,0:0:0:0:
64,192,255194,1,0,0:0:0:0:
320,192,255252,1,0,0:0:0:0:
192,192,255309,1,0,0:0:0:0:
64,192,255366,1,0,0:0:0:0:
320,192,255423,1,0,0:0:0:0:
64,192,255481,1,0,0:0:0:0:
192,192,255538,1,0,0:0:0:0:
320,192,255595,1,0,0:0:0:0:
448,192,255595,1,0,0:0:0:0:
320,192,255824,128,0,255939:0:0:0:0:
64,192,255824,128,0,255939:0:0:0:0:
448,192,255939,128,0,256053:0:0:0:0:
192,192,255939,1,0,0:0:0:0:
64,192,256053,128,0,256282:0:0:0:0:
192,192,256053,1,0,0:0:0:0:
320,192,256053,128,0,256282:0:0:0:0:
192,192,256282,1,0,0:0:0:0:
448,192,256282,1,0,0:0:0:0:
320,192,256339,1,0,0:0:0:0:
192,192,256397,1,0,0:0:0:0:
448,192,256511,1,0,0:0:0:0:
64,192,256511,1,0,0:0:0:0:
64,192,256740,128,0,256855:0:0:0:0:
320,192,256740,128,0,256855:0:0:0:0:
448,192,256855,128,0,256969:0:0:0:0:
64,192,256969,128,0,257198:0:0:0:0:
192,192,256969,128,0,257198:0:0:0:0:
320,192,256969,128,0,257198:0:0:0:0:
448,192,257198,128,0,257313:0:0:0:0:
64,192,257313,1,0,0:0:0:0:
192,192,257313,1,0,0:0:0:0:
192,192,257427,128,0,257542:0:0:0:0:
64,192,257427,128,0,257542:0:0:0:0:
64,192,257656,128,0,257771:0:0:0:0:
448,192,257656,128,0,257771:0:0:0:0:
320,192,257771,128,0,257885:0:0:0:0:
64,192,257885,128,0,258114:0:0:0:0:
192,192,257885,128,0,258114:0:0:0:0:
448,192,257885,128,0,258114:0:0:0:0:
320,192,258114,128,0,258343:0:0:0:0:
448,192,258229,128,0,258343:0:0:0:0:
192,192,258343,1,0,0:0:0:0:
64,192,258343,1,0,0:0:0:0:
64,192,258572,128,0,258687:0:0:0:0:
192,192,258572,128,0,258687:0:0:0:0:
320,192,258687,128,0,258801:0:0:0:0:
64,192,258801,128,0,258916:0:0:0:0:
448,192,258801,128,0,258916:0:0:0:0:
64,192,259030,128,0,259145:0:0:0:0:
448,192,259030,128,0,259145:0:0:0:0:
192,192,259145,1,0,0:0:0:0:
64,192,259259,1,0,0:0:0:0:
320,192,259259,1,0,0:0:0:0:
448,192,259488,128,0,259603:0:0:0:0:
64,192,259603,1,0,0:0:0:0:
192,192,259717,128,0,259946:0:0:0:0:
320,192,259717,128,0,259946:0:0:0:0:
448,192,259717,128,0,259832:0:0:0:0:
448,192,259946,128,0,260061:0:0:0:0:
64,192,259946,128,0,260061:0:0:0:0:
320,192,260061,128,0,260175:0:0:0:0:
64,192,260175,1,0,0:0:0:0:
192,192,260175,1,0,0:0:0:0:
320,192,260404,128,0,260519:0:0:0:0:
448,192,260404,128,0,260519:0:0:0:0:
192,192,260519,128,0,260633:0:0:0:0:
320,192,260633,1,0,0:0:0:0:
64,192,260633,128,0,260862:0:0:0:0:
448,192,260633,128,0,260862:0:0:0:0:
192,192,260862,1,0,0:0:0:0:
64,192,260977,128,0,261091:0:0:0:0:
448,192,260977,128,0,261091:0:0:0:0:
192,192,261091,1,0,0:0:0:0:
320,192,261091,1,0,0:0:0:0:
64,192,261206,128,0,261320:0:0:0:0:
448,192,261206,128,0,261320:0:0:0:0:
320,192,261320,1,0,0:0:0:0:
64,192,261435,128,0,261549:0:0:0:0:
448,192,261435,128,0,261549:0:0:0:0:
192,192,261549,1,0,0:0:0:0:
320,192,261549,1,0,0:0:0:0:
64,192,261664,128,0,261778:0:0:0:0:
448,192,261664,128,0,261778:0:0:0:0:
192,192,261778,1,0,0:0:0:0:
64,192,261893,128,0,262007:0:0:0:0:
448,192,261893,128,0,262007:0:0:0:0:
320,192,262007,1,0,0:0:0:0:
192,192,262007,1,0,0:0:0:0:
320,192,262122,1,0,0:0:0:0:
320,192,262236,128,0,262351:0:0:0:0:
64,192,262236,128,0,262351:0:0:0:0:
64,192,262465,128,0,262580:0:0:0:0:
320,192,262465,1,0,0:0:0:0:
192,192,262465,128,0,262580:0:0:0:0:
448,192,262694,128,0,262809:0:0:0:0:
320,192,262694,128,0,262809:0:0:0:0:
192,192,262809,1,0,0:0:0:0:
448,192,262923,128,0,263038:0:0:0:0:
320,192,262923,128,0,263038:0:0:0:0:
64,192,263152,128,0,263267:0:0:0:0:
320,192,263267,128,0,263381:0:0:0:0:
192,192,263381,1,0,0:0:0:0:
64,192,263381,1,0,0:0:0:0:
448,192,263381,128,0,263496:0:0:0:0:
192,192,263496,128,0,263725:0:0:0:0:
320,192,263610,128,0,263725:0:0:0:0:
448,192,263725,1,0,0:0:0:0:
192,192,263839,1,0,0:0:0:0:
64,192,263839,1,0,0:0:0:0:
320,192,264068,128,0,264183:0:0:0:0:
64,192,264068,128,0,264183:0:0:0:0:
192,192,264183,128,0,264297:0:0:0:0:
64,192,264297,128,0,264412:0:0:0:0:
448,192,264297,128,0,264412:0:0:0:0:
320,192,264297,1,0,0:0:0:0:
64,192,264526,128,0,264641:0:0:0:0:
448,192,264526,128,0,264641:0:0:0:0:
192,192,264641,1,0,0:0:0:0:
64,192,264755,128,0,264870:0:0:0:0:
448,192,264755,128,0,264870:0:0:0:0:
64,192,264984,128,0,265099:0:0:0:0:
448,192,264984,128,0,265099:0:0:0:0:
320,192,265099,1,0,0:0:0:0:
64,192,265213,128,0,265328:0:0:0:0:
448,192,265213,128,0,265328:0:0:0:0:
192,192,265213,128,0,265442:0:0:0:0:
64,192,265442,128,0,265671:0:0:0:0:
192,192,265557,128,0,265671:0:0:0:0:
448,192,265671,1,0,0:0:0:0:
320,192,265671,1,0,0:0:0:0:
448,192,265786,1,0,0:0:0:0:
320,192,265900,128,0,266015:0:0:0:0:
448,192,266015,128,0,266129:0:0:0:0:
320,192,266129,1,0,0:0:0:0:
192,192,266129,1,0,0:0:0:0:
64,192,266129,1,0,0:0:0:0:
64,192,266244,1,0,0:0:0:0:
192,192,266244,1,0,0:0:0:0:
64,192,266358,128,0,266473:0:0:0:0:
192,192,266358,128,0,266473:0:0:0:0:
448,192,266473,1,0,0:0:0:0:
192,192,266587,1,0,0:0:0:0:
64,192,266587,1,0,0:0:0:0:
64,192,266702,1,0,0:0:0:0:
192,192,266702,1,0,0:0:0:0:
192,192,266816,128,0,266931:0:0:0:0:
64,192,266816,128,0,266931:0:0:0:0:
320,192,266931,1,0,0:0:0:0:
448,192,266988,1,0,0:0:0:0:
64,192,267045,128,0,267274:0:0:0:0:
192,192,267045,128,0,267274:0:0:0:0:
320,192,267045,128,0,267160:0:0:0:0:
320,192,267274,128,0,267503:0:0:0:0:
448,192,267389,128,0,267503:0:0:0:0:
192,192,267503,1,0,0:0:0:0:
64,192,267503,1,0,0:0:0:0:
192,192,267732,128,0,267847:0:0:0:0:
448,192,267732,128,0,267847:0:0:0:0:
64,192,267847,128,0,267961:0:0:0:0:
448,192,267961,1,0,0:0:0:0:
320,192,267990,1,0,0:0:0:0:
192,192,268019,1,0,0:0:0:0:
64,192,268047,1,0,0:0:0:0:
448,192,268076,1,0,0:0:0:0:
320,192,268133,1,0,0:0:0:0:
192,192,268190,1,0,0:0:0:0:
64,192,268219,1,0,0:0:0:0:
448,192,268248,1,0,0:0:0:0:
320,192,268276,1,0,0:0:0:0:
64,192,268419,1,0,0:0:0:0:
448,192,268419,1,0,0:0:0:0:
320,192,268648,128,0,268763:0:0:0:0:
64,192,268648,128,0,268763:0:0:0:0:
448,192,268763,128,0,268877:0:0:0:0:
64,192,268877,1,0,0:0:0:0:
192,192,268906,1,0,0:0:0:0:
320,192,268935,1,0,0:0:0:0:
448,192,268963,1,0,0:0:0:0:
64,192,268992,1,0,0:0:0:0:
192,192,269049,1,0,0:0:0:0:
320,192,269106,1,0,0:0:0:0:
448,192,269135,1,0,0:0:0:0:
64,192,269164,1,0,0:0:0:0:
192,192,269192,1,0,0:0:0:0:
320,192,269335,1,0,0:0:0:0:
448,192,269335,1,0,0:0:0:0:
320,192,269450,1,0,0:0:0:0:
192,192,269564,128,0,269679:0:0:0:0:
64,192,269564,128,0,269679:0:0:0:0:
320,192,269679,128,0,269793:0:0:0:0:
192,192,269793,1,0,0:0:0:0:
64,192,269793,128,0,269908:0:0:0:0:
448,192,269793,128,0,269908:0:0:0:0:
448,192,270023,128,0,270137:0:0:0:0:
64,192,270023,128,0,270137:0:0:0:0:
192,192,270137,1,0,0:0:0:0:
448,192,270252,128,0,270366:0:0:0:0:
64,192,270252,128,0,270366:0:0:0:0:
192,192,270481,128,0,270595:0:0:0:0:
448,192,270481,128,0,270595:0:0:0:0:
320,192,270595,128,0,270710:0:0:0:0:
64,192,270595,1,0,0:0:0:0:
448,192,270710,1,0,0:0:0:0:
192,192,270710,128,0,270939:0:0:0:0:
64,192,270710,128,0,270939:0:0:0:0:
320,192,270939,1,0,0:0:0:0:
448,192,270939,1,0,0:0:0:0:
64,192,271168,1,0,0:0:0:0:
448,192,271168,1,0,0:0:0:0:
320,192,271282,1,0,0:0:0:0:
192,192,271397,1,0,0:0:0:0:
448,192,271511,1,0,0:0:0:0:
64,192,271626,1,0,0:0:0:0:
192,192,271626,128,0,271797:0:0:0:0:
320,192,271626,128,0,271740:0:0:0:0:
448,192,271740,1,0,0:0:0:0:
320,192,271855,128,0,271969:0:0:0:0:
192,192,271912,128,0,272026:0:0:0:0:
64,192,271969,128,0,272084:0:0:0:0:
320,192,272084,128,0,272313:0:0:0:0:
448,192,272084,128,0,272313:0:0:0:0:
64,192,272198,1,0,0:0:0:0:
192,192,272313,1,0,0:0:0:0:
64,192,272427,128,0,272656:0:0:0:0:
320,192,272542,1,0,0:0:0:0:
448,192,272542,1,0,0:0:0:0:
192,192,272542,128,0,272656:0:0:0:0:
448,192,272656,1,0,0:0:0:0:
192,192,272771,1,0,0:0:0:0:
320,192,272885,128,0,273000:0:0:0:0:
448,192,273000,128,0,273229:0:0:0:0:
64,192,273000,128,0,273229:0:0:0:0:
192,192,273114,1,0,0:0:0:0:
320,192,273229,128,0,273343:0:0:0:0:
64,192,273343,128,0,273458:0:0:0:0:
192,192,273458,1,0,0:0:0:0:
320,192,273458,128,0,273687:0:0:0:0:
448,192,273458,128,0,273687:0:0:0:0:
64,192,273572,1,0,0:0:0:0:
192,192,273687,1,0,0:0:0:0:
448,192,273801,128,0,274030:0:0:0:0:
64,192,273916,1,0,0:0:0:0:
320,192,273916,128,0,274030:0:0:0:0:
192,192,274030,1,0,0:0:0:0:
320,192,274145,128,0,274259:0:0:0:0:
64,192,274259,128,0,274374:0:0:0:0:
192,192,274374,128,0,274603:0:0:0:0:
320,192,274374,1,0,0:0:0:0:
448,192,274374,1,0,0:0:0:0:
64,192,274488,1,0,0:0:0:0:
448,192,274603,128,0,274832:0:0:0:0:
192,192,274717,128,0,274832:0:0:0:0:
320,192,274832,1,0,0:0:0:0:
64,192,274832,1,0,0:0:0:0:
448,192,274946,1,0,0:0:0:0:
192,192,275061,1,0,0:0:0:0:
320,192,275175,1,0,0:0:0:0:
64,192,275290,1,0,0:0:0:0:
192,192,275290,128,0,275519:0:0:0:0:
448,192,275290,128,0,275519:0:0:0:0:
320,192,275404,1,0,0:0:0:0:
64,192,275519,128,0,275633:0:0:0:0:
192,192,275633,128,0,275748:0:0:0:0:
320,192,275748,128,0,275977:0:0:0:0:
448,192,275748,128,0,275977:0:0:0:0:
64,192,275862,1,0,0:0:0:0:
192,192,275977,1,0,0:0:0:0:
64,192,276091,128,0,276320:0:0:0:0:
320,192,276206,1,0,0:0:0:0:
448,192,276206,1,0,0:0:0:0:
192,192,276206,128,0,276320:0:0:0:0:
320,192,276320,1,0,0:0:0:0:
192,192,276435,1,0,0:0:0:0:
448,192,276549,128,0,276664:0:0:0:0:
320,192,276664,128,0,276893:0:0:0:0:
64,192,276664,128,0,276893:0:0:0:0:
192,192,276778,1,0,0:0:0:0:
192,192,276893,128,0,277007:0:0:0:0:
320,192,277007,128,0,277122:0:0:0:0:
64,192,277122,1,0,0:0:0:0:
192,192,277122,128,0,277351:0:0:0:0:
448,192,277122,128,0,277351:0:0:0:0:
320,192,277236,1,0,0:0:0:0:
320,192,277351,1,0,0:0:0:0:
64,192,277465,128,0,277694:0:0:0:0:
448,192,277580,128,0,277694:0:0:0:0:
192,192,277580,1,0,0:0:0:0:
320,192,277694,1,0,0:0:0:0:
448,192,277809,128,0,277923:0:0:0:0:
64,192,277923,128,0,278038:0:0:0:0:
320,192,278038,128,0,278267:0:0:0:0:
192,192,278038,1,0,0:0:0:0:
448,192,278038,128,0,278152:0:0:0:0:
64,192,278152,1,0,0:0:0:0:
448,192,278267,128,0,278381:0:0:0:0:
192,192,278381,1,0,0:0:0:0:
64,192,278496,1,0,0:0:0:0:
448,192,278496,1,0,0:0:0:0:
320,192,278610,1,0,0:0:0:0:
192,192,278725,1,0,0:0:0:0:
448,192,278839,1,0,0:0:0:0:
64,192,278954,1,0,0:0:0:0:
192,192,278954,128,0,279126:0:0:0:0:
320,192,278954,128,0,279068:0:0:0:0:
448,192,279068,1,0,0:0:0:0:
320,192,279183,128,0,279297:0:0:0:0:
192,192,279240,128,0,279355:0:0:0:0:
64,192,279297,128,0,279412:0:0:0:0:
320,192,279412,128,0,279641:0:0:0:0:
448,192,279412,128,0,279641:0:0:0:0:
64,192,279526,1,0,0:0:0:0:
192,192,279641,1,0,0:0:0:0:
64,192,279755,128,0,279984:0:0:0:0:
320,192,279870,1,0,0:0:0:0:
448,192,279870,1,0,0:0:0:0:
192,192,279870,128,0,279984:0:0:0:0:
448,192,279984,1,0,0:0:0:0:
64,192,280099,1,0,0:0:0:0:
320,192,280213,128,0,280328:0:0:0:0:
192,192,280328,128,0,280442:0:0:0:0:
64,192,280328,128,0,280442:0:0:0:0:
448,192,280442,1,0,0:0:0:0:
320,192,280557,128,0,280671:0:0:0:0:
64,192,280557,128,0,280671:0:0:0:0:
192,192,280671,1,0,0:0:0:0:
64,192,280786,1,0,0:0:0:0:
320,192,280786,128,0,281015:0:0:0:0:
448,192,280786,128,0,281015:0:0:0:0:
192,192,280900,1,0,0:0:0:0:
64,192,281015,1,0,0:0:0:0:
448,192,281129,128,0,281358:0:0:0:0:
192,192,281244,1,0,0:0:0:0:
320,192,281244,1,0,0:0:0:0:
64,192,281358,1,0,0:0:0:0:
320,192,281473,128,0,281587:0:0:0:0:
192,192,281587,128,0,281702:0:0:0:0:
64,192,281702,128,0,281931:0:0:0:0:
320,192,281702,1,0,0:0:0:0:
448,192,281702,1,0,0:0:0:0:
192,192,281816,1,0,0:0:0:0:
448,192,281931,128,0,282160:0:0:0:0:
64,192,282045,1,0,0:0:0:0:
320,192,282160,1,0,0:0:0:0:
192,192,282160,1,0,0:0:0:0:
320,192,282274,1,0,0:0:0:0:
320,192,282389,128,0,282503:0:0:0:0:
64,192,282503,128,0,282618:0:0:0:0:
320,192,282618,1,0,0:0:0:0:
192,192,282618,128,0,282732:0:0:0:0:
448,192,282618,128,0,282732:0:0:0:0:
64,192,282732,1,0,0:0:0:0:
192,192,282847,128,0,282961:0:0:0:0:
320,192,282847,1,0,0:0:0:0:
320,192,282961,1,0,0:0:0:0:
64,192,283076,128,0,283305:0:0:0:0:
448,192,283076,128,0,283305:0:0:0:0:
192,192,283190,1,0,0:0:0:0:
320,192,283305,1,0,0:0:0:0:
192,192,283419,128,0,283648:0:0:0:0:
64,192,283534,1,0,0:0:0:0:
448,192,283534,1,0,0:0:0:0:
320,192,283534,128,0,283648:0:0:0:0:
64,192,283648,1,0,0:0:0:0:
320,192,283763,1,0,0:0:0:0:
192,192,283877,1,0,0:0:0:0:
448,192,283992,1,0,0:0:0:0:
64,192,283992,1,0,0:0:0:0:
448,192,284106,1,0,0:0:0:0:
448,192,284221,1,0,0:0:0:0:
448,192,284335,128,0,284450:0:0:0:0:
320,192,284450,1,0,0:0:0:0:
192,192,284450,1,0,0:0:0:0:
64,192,284450,1,0,0:0:0:0:
448,192,284564,128,0,284679:0:0:0:0:
64,192,284679,1,0,0:0:0:0:
448,192,284793,128,0,284908:0:0:0:0:
64,192,284908,128,0,285023:0:0:0:0:
192,192,284908,128,0,285023:0:0:0:0:
192,192,285137,128,0,285252:0:0:0:0:
320,192,285137,128,0,285252:0:0:0:0:
448,192,285252,1,0,0:0:0:0:
64,192,285252,1,0,0:0:0:0:
192,192,285366,1,0,0:0:0:0:
320,192,285366,128,0,285595:0:0:0:0:
448,192,285366,128,0,285595:0:0:0:0:
192,192,285595,1,0,0:0:0:0:
64,192,285595,1,0,0:0:0:0:
320,192,285652,1,0,0:0:0:0:
192,192,285710,1,0,0:0:0:0:
64,192,285824,1,0,0:0:0:0:
448,192,285824,1,0,0:0:0:0:
320,192,285939,1,0,0:0:0:0:
192,192,286053,1,0,0:0:0:0:
448,192,286168,1,0,0:0:0:0:
64,192,286282,1,0,0:0:0:0:
192,192,286282,128,0,286454:0:0:0:0:
320,192,286282,128,0,286397:0:0:0:0:
448,192,286397,1,0,0:0:0:0:
320,192,286511,128,0,286626:0:0:0:0:
192,192,286568,128,0,286683:0:0:0:0:
64,192,286626,128,0,286740:0:0:0:0:
320,192,286740,128,0,286969:0:0:0:0:
448,192,286740,128,0,286969:0:0:0:0:
64,192,286855,1,0,0:0:0:0:
192,192,286969,1,0,0:0:0:0:
64,192,287084,128,0,287313:0:0:0:0:
320,192,287198,1,0,0:0:0:0:
448,192,287198,1,0,0:0:0:0:
192,192,287198,128,0,287313:0:0:0:0:
448,192,287313,1,0,0:0:0:0:
192,192,287427,1,0,0:0:0:0:
320,192,287542,128,0,287656:0:0:0:0:
448,192,287656,128,0,287885:0:0:0:0:
64,192,287656,1,0,0:0:0:0:
64,192,287771,128,0,287885:0:0:0:0:
320,192,287885,128,0,288000:0:0:0:0:
64,192,288000,128,0,288114:0:0:0:0:
192,192,288114,1,0,0:0:0:0:
320,192,288114,128,0,288343:0:0:0:0:
448,192,288114,128,0,288343:0:0:0:0:
64,192,288229,1,0,0:0:0:0:
192,192,288343,128,0,288572:0:0:0:0:
448,192,288458,128,0,288687:0:0:0:0:
64,192,288572,1,0,0:0:0:0:
320,192,288572,128,0,288687:0:0:0:0:
192,192,288687,1,0,0:0:0:0:
192,192,288801,128,0,288916:0:0:0:0:
320,192,288916,128,0,289030:0:0:0:0:
192,192,289030,128,0,289259:0:0:0:0:
64,192,289030,1,0,0:0:0:0:
448,192,289030,1,0,0:0:0:0:
320,192,289145,1,0,0:0:0:0:
448,192,289259,128,0,289488:0:0:0:0:
192,192,289374,128,0,289488:0:0:0:0:
320,192,289488,1,0,0:0:0:0:
64,192,289488,1,0,0:0:0:0:
448,192,289603,1,0,0:0:0:0:
192,192,289717,1,0,0:0:0:0:
320,192,289832,1,0,0:0:0:0:
64,192,289946,1,0,0:0:0:0:
192,192,289946,128,0,290175:0:0:0:0:
448,192,289946,128,0,290175:0:0:0:0:
320,192,290061,1,0,0:0:0:0:
64,192,290175,128,0,290290:0:0:0:0:
192,192,290290,128,0,290404:0:0:0:0:
320,192,290404,128,0,290633:0:0:0:0:
448,192,290404,128,0,290633:0:0:0:0:
64,192,290519,128,0,290633:0:0:0:0:
192,192,290633,1,0,0:0:0:0:
64,192,290748,128,0,290977:0:0:0:0:
320,192,290862,1,0,0:0:0:0:
192,192,290862,128,0,290977:0:0:0:0:
448,192,290862,128,0,291091:0:0:0:0:
320,192,290977,1,0,0:0:0:0:
192,192,291091,1,0,0:0:0:0:
448,192,291206,128,0,291320:0:0:0:0:
64,192,291320,128,0,291406:0:0:0:0:
192,192,291349,128,0,291435:0:0:0:0:
448,192,291435,128,0,291521:0:0:0:0:
320,192,291463,128,0,291549:0:0:0:0:
64,192,291549,128,0,291635:0:0:0:0:
192,192,291578,128,0,291664:0:0:0:0:
448,192,291664,128,0,291750:0:0:0:0:
320,192,291692,128,0,291778:0:0:0:0:
64,192,291778,1,0,0:0:0:0:
192,192,291778,1,0,0:0:0:0:
448,192,291835,1,0,0:0:0:0:
192,192,291893,1,0,0:0:0:0:
320,192,291950,1,0,0:0:0:0:
448,192,292007,1,0,0:0:0:0:
192,192,292064,1,0,0:0:0:0:
448,192,292122,1,0,0:0:0:0:
320,192,292179,1,0,0:0:0:0:
192,192,292236,1,0,0:0:0:0:
64,192,292236,1,0,0:0:0:0:
448,192,292351,1,0,0:0:0:0:
192,192,292465,128,0,292580:0:0:0:0:
64,192,292580,128,0,292694:0:0:0:0:
448,192,292694,128,0,292923:0:0:0:0:
320,192,292694,1,0,0:0:0:0:
192,192,292694,1,0,0:0:0:0:
64,192,292809,1,0,0:0:0:0:
320,192,292923,128,0,293038:0:0:0:0:
192,192,293038,1,0,0:0:0:0:
64,192,293152,1,0,0:0:0:0:
448,192,293152,1,0,0:0:0:0:
320,192,293267,1,0,0:0:0:0:
192,192,293381,128,0,293496:0:0:0:0:
64,192,293381,128,0,293496:0:0:0:0:
448,192,293496,1,0,0:0:0:0:
64,192,293610,1,0,0:0:0:0:
320,192,293610,128,0,293725:0:0:0:0:
192,192,293610,128,0,293725:0:0:0:0:
448,192,293725,1,0,0:0:0:0:
320,192,293839,128,0,293954:0:0:0:0:
192,192,293897,128,0,294011:0:0:0:0:
64,192,293954,128,0,294068:0:0:0:0:
320,192,294068,128,0,294183:0:0:0:0:
448,192,294068,128,0,294183:0:0:0:0:
64,192,294183,1,0,0:0:0:0:
320,192,294297,128,0,294412:0:0:0:0:
192,192,294297,128,0,294412:0:0:0:0:
448,192,294412,1,0,0:0:0:0:
320,192,294526,1,0,0:0:0:0:
192,192,294526,1,0,0:0:0:0:
64,192,294526,1,0,0:0:0:0:
448,192,294641,1,0,0:0:0:0:
192,192,294755,1,0,0:0:0:0:
64,192,294870,128,0,294984:0:0:0:0:
320,192,294984,1,0,0:0:0:0:
448,192,294984,1,0,0:0:0:0:
320,192,295099,128,0,295328:0:0:0:0:
192,192,295213,128,0,295328:0:0:0:0:
64,192,295328,128,0,295442:0:0:0:0:
192,192,295442,128,0,295557:0:0:0:0:
320,192,295442,1,0,0:0:0:0:
448,192,295442,128,0,295557:0:0:0:0:
64,192,295557,1,0,0:0:0:0:
320,192,295671,1,0,0:0:0:0:
192,192,295671,128,0,295786:0:0:0:0:
320,192,295786,1,0,0:0:0:0:
64,192,295900,128,0,296015:0:0:0:0:
448,192,295900,128,0,296015:0:0:0:0:
192,192,296015,1,0,0:0:0:0:
448,192,296129,128,0,296244:0:0:0:0:
192,192,296244,128,0,296473:0:0:0:0:
320,192,296358,1,0,0:0:0:0:
64,192,296358,1,0,0:0:0:0:
448,192,296358,128,0,296473:0:0:0:0:
64,192,296473,1,0,0:0:0:0:
192,192,296587,128,0,296702:0:0:0:0:
448,192,296587,128,0,296702:0:0:0:0:
320,192,296702,1,0,0:0:0:0:
192,192,296816,128,0,296931:0:0:0:0:
64,192,296816,128,0,296931:0:0:0:0:
320,192,296931,1,0,0:0:0:0:
64,192,297045,128,0,297160:0:0:0:0:
448,192,297045,128,0,297160:0:0:0:0:
192,192,297160,1,0,0:0:0:0:
448,192,297274,128,0,297389:0:0:0:0:
64,192,297274,1,0,0:0:0:0:
320,192,297274,128,0,297503:0:0:0:0:
192,192,297389,128,0,297618:0:0:0:0:
448,192,297503,128,0,297732:0:0:0:0:
320,192,297618,128,0,297847:0:0:0:0:
64,192,297732,1,0,0:0:0:0:
192,192,297732,128,0,297847:0:0:0:0:
448,192,297847,1,0,0:0:0:0:
64,192,297961,128,0,298076:0:0:0:0:
192,192,297961,128,0,298076:0:0:0:0:
448,192,298076,1,0,0:0:0:0:
320,192,298190,128,0,298305:0:0:0:0:
64,192,298190,128,0,298305:0:0:0:0:
192,192,298190,1,0,0:0:0:0:
448,192,298305,1,0,0:0:0:0:
64,192,298419,128,0,298648:0:0:0:0:
320,192,298419,128,0,298648:0:0:0:0:
448,192,298648,128,0,298877:0:0:0:0:
192,192,298648,128,0,298877:0:0:0:0:
320,192,298877,128,0,298992:0:0:0:0:
448,192,298992,128,0,299106:0:0:0:0:
64,192,299106,128,0,299335:0:0:0:0:
192,192,299106,128,0,299335:0:0:0:0:
320,192,299106,128,0,299335:0:0:0:0:
320,192,299450,128,0,299679:0:0:0:0:
448,192,299450,128,0,299679:0:0:0:0:
192,192,299564,1,0,0:0:0:0:
64,192,299564,1,0,0:0:0:0:
64,192,299679,1,0,0:0:0:0:
320,192,299793,1,0,0:0:0:0:
192,192,299908,1,0,0:0:0:0:
64,192,299908,1,0,0:0:0:0:
448,192,300023,1,0,0:0:0:0:
320,192,300137,1,0,0:0:0:0:
192,192,300252,1,0,0:0:0:0:
64,192,300252,1,0,0:0:0:0:
448,192,300481,1,0,0:0:0:0:
64,192,300481,1,0,0:0:0:0:
320,192,300595,1,0,0:0:0:0:
448,192,300710,128,0,300824:0:0:0:0:
192,192,300710,128,0,300824:0:0:0:0:
320,192,300824,128,0,300939:0:0:0:0:
64,192,300939,128,0,301168:0:0:0:0:
448,192,300939,128,0,301168:0:0:0:0:
192,192,300939,128,0,301053:0:0:0:0:
192,192,301168,128,0,301282:0:0:0:0:
320,192,301225,128,0,301339:0:0:0:0:
448,192,301282,128,0,301397:0:0:0:0:
192,192,301397,1,0,0:0:0:0:
64,192,301397,1,0,0:0:0:0:
320,192,301511,1,0,0:0:0:0:
320,192,301626,1,0,0:0:0:0:
64,192,301626,128,0,301740:0:0:0:0:
320,192,301740,128,0,301855:0:0:0:0:
192,192,301855,1,0,0:0:0:0:
64,192,301855,128,0,302084:0:0:0:0:
448,192,301855,128,0,302084:0:0:0:0:
320,192,301969,1,0,0:0:0:0:
192,192,302084,128,0,302313:0:0:0:0:
64,192,302198,128,0,302313:0:0:0:0:
448,192,302313,1,0,0:0:0:0:
320,192,302313,1,0,0:0:0:0:
192,192,302427,1,0,0:0:0:0:
448,192,302542,128,0,302656:0:0:0:0:
64,192,302542,128,0,302656:0:0:0:0:
192,192,302656,128,0,302771:0:0:0:0:
64,192,302771,128,0,303000:0:0:0:0:
448,192,302771,128,0,303000:0:0:0:0:
320,192,302771,128,0,302885:0:0:0:0:
320,192,303000,128,0,303229:0:0:0:0:
192,192,303114,128,0,303229:0:0:0:0:
448,192,303229,1,0,0:0:0:0:
64,192,303229,128,0,303572:0:0:0:0:
192,192,303343,1,0,0:0:0:0:
320,192,303458,128,0,303572:0:0:0:0:
448,192,303458,128,0,303572:0:0:0:0:
192,192,303572,128,0,303687:0:0:0:0:
448,192,303687,128,0,303916:0:0:0:0:
64,192,303687,128,0,303801:0:0:0:0:
320,192,303687,128,0,303916:0:0:0:0:
64,192,303916,128,0,304145:0:0:0:0:
192,192,304145,1,0,0:0:0:0:
448,192,304145,1,0,0:0:0:0:
320,192,304259,1,0,0:0:0:0:
448,192,304374,128,0,304488:0:0:0:0:
64,192,304374,128,0,304488:0:0:0:0:
320,192,304488,128,0,304603:0:0:0:0:
64,192,304603,128,0,304832:0:0:0:0:
192,192,304603,1,0,0:0:0:0:
448,192,304603,128,0,304832:0:0:0:0:
320,192,304832,128,0,305061:0:0:0:0:
448,192,304946,128,0,305061:0:0:0:0:
192,192,305061,1,0,0:0:0:0:
64,192,305061,1,0,0:0:0:0:
320,192,305175,1,0,0:0:0:0:
64,192,305290,128,0,305404:0:0:0:0:
448,192,305290,128,0,305404:0:0:0:0:
320,192,305404,128,0,305519:0:0:0:0:
192,192,305519,1,0,0:0:0:0:
64,192,305519,128,0,305748:0:0:0:0:
448,192,305519,128,0,305748:0:0:0:0:
320,192,305748,128,0,305977:0:0:0:0:
64,192,305862,128,0,305977:0:0:0:0:
448,192,305977,1,0,0:0:0:0:
192,192,305977,1,0,0:0:0:0:
448,192,306091,1,0,0:0:0:0:
448,192,306206,128,0,306320:0:0:0:0:
64,192,306206,128,0,306320:0:0:0:0:
192,192,306320,128,0,306435:0:0:0:0:
320,192,306435,1,0,0:0:0:0:
448,192,306435,128,0,306664:0:0:0:0:
64,192,306435,128,0,306664:0:0:0:0:
192,192,306664,1,0,0:0:0:0:
192,192,306778,128,0,306893:0:0:0:0:
64,192,306893,128,0,307007:0:0:0:0:
448,192,306893,128,0,307007:0:0:0:0:
320,192,307007,1,0,0:0:0:0:
192,192,307122,128,0,307236:0:0:0:0:
448,192,307122,128,0,307236:0:0:0:0:
320,192,307236,128,0,307351:0:0:0:0:
192,192,307351,1,0,0:0:0:0:
64,192,307351,128,0,307465:0:0:0:0:
448,192,307351,128,0,307580:0:0:0:0:
320,192,307580,128,0,307694:0:0:0:0:
64,192,307580,128,0,307694:0:0:0:0:
192,192,307694,1,0,0:0:0:0:
64,192,307809,1,0,0:0:0:0:
448,192,307809,1,0,0:0:0:0:
320,192,307923,1,0,0:0:0:0:
64,192,308038,128,0,308152:0:0:0:0:
448,192,308038,1,0,0:0:0:0:
192,192,308152,128,0,308267:0:0:0:0:
448,192,308267,128,0,308496:0:0:0:0:
320,192,308267,128,0,308381:0:0:0:0:
64,192,308267,128,0,308496:0:0:0:0:
320,192,308496,128,0,308610:0:0:0:0:
192,192,308553,128,0,308668:0:0:0:0:
64,192,308610,128,0,308725:0:0:0:0:
448,192,308725,1,0,0:0:0:0:
320,192,308725,1,0,0:0:0:0:
192,192,308839,1,0,0:0:0:0:
448,192,308954,128,0,309068:0:0:0:0:
192,192,308954,1,0,0:0:0:0:
192,192,309068,128,0,309183:0:0:0:0:
448,192,309183,128,0,309412:0:0:0:0:
64,192,309183,128,0,309412:0:0:0:0:
320,192,309183,128,0,309297:0:0:0:0:
320,192,309412,128,0,309641:0:0:0:0:
192,192,309412,1,0,0:0:0:0:
448,192,309526,128,0,309641:0:0:0:0:
192,192,309641,1,0,0:0:0:0:
64,192,309641,1,0,0:0:0:0:
320,192,309755,1,0,0:0:0:0:
64,192,309870,128,0,309984:0:0:0:0:
448,192,309870,128,0,309984:0:0:0:0:
320,192,309984,128,0,310099:0:0:0:0:
448,192,310099,128,0,310328:0:0:0:0:
192,192,310099,128,0,310213:0:0:0:0:
64,192,310099,128,0,310328:0:0:0:0:
192,192,310328,128,0,310557:0:0:0:0:
320,192,310442,128,0,310557:0:0:0:0:
448,192,310557,128,0,310900:0:0:0:0:
64,192,310557,1,0,0:0:0:0:
192,192,310786,128,0,310900:0:0:0:0:
64,192,310786,128,0,310900:0:0:0:0:
320,192,310900,128,0,311015:0:0:0:0:
64,192,311015,128,0,311244:0:0:0:0:
192,192,311015,128,0,311244:0:0:0:0:
448,192,311015,128,0,311129:0:0:0:0:
448,192,311244,128,0,311473:0:0:0:0:
64,192,311473,1,0,0:0:0:0:
320,192,311473,1,0,0:0:0:0:
64,192,311587,1,0,0:0:0:0:
64,192,311702,128,0,311816:0:0:0:0:
320,192,311702,128,0,311816:0:0:0:0:
192,192,311816,128,0,311931:0:0:0:0:
448,192,311931,128,0,312160:0:0:0:0:
320,192,311931,128,0,312045:0:0:0:0:
64,192,311931,128,0,312160:0:0:0:0:
192,192,312160,1,0,0:0:0:0:
192,192,312274,128,0,312389:0:0:0:0:
448,192,312389,128,0,312503:0:0:0:0:
320,192,312389,128,0,312503:0:0:0:0:
192,192,312503,1,0,0:0:0:0:
320,192,312618,128,0,312732:0:0:0:0:
64,192,312618,128,0,312732:0:0:0:0:
192,192,312732,128,0,312847:0:0:0:0:
64,192,312847,128,0,312961:0:0:0:0:
448,192,312847,128,0,313076:0:0:0:0:
320,192,312847,128,0,312961:0:0:0:0:
64,192,313076,128,0,313190:0:0:0:0:
192,192,313076,128,0,313305:0:0:0:0:
448,192,313190,128,0,313305:0:0:0:0:
64,192,313305,1,0,0:0:0:0:
320,192,313305,128,0,313534:0:0:0:0:
64,192,313419,1,0,0:0:0:0:
64,192,313534,128,0,313648:0:0:0:0:
448,192,313534,128,0,313648:0:0:0:0:
320,192,313648,128,0,313763:0:0:0:0:
192,192,313763,128,0,314106:0:0:0:0:
64,192,313763,128,0,313992:0:0:0:0:
448,192,313763,128,0,313992:0:0:0:0:
320,192,313992,1,0,0:0:0:0:
320,192,314106,128,0,314221:0:0:0:0:
448,192,314221,128,0,314335:0:0:0:0:
64,192,314221,128,0,314335:0:0:0:0:
320,192,314450,128,0,314564:0:0:0:0:
64,192,314450,128,0,314564:0:0:0:0:
192,192,314564,128,0,314679:0:0:0:0:
448,192,314564,1,0,0:0:0:0:
320,192,314679,1,0,0:0:0:0:
64,192,314679,128,0,314793:0:0:0:0:
448,192,314679,128,0,314793:0:0:0:0:
192,192,314908,1,0,0:0:0:0:
448,192,314908,1,0,0:0:0:0:
320,192,314965,1,0,0:0:0:0:
192,192,315023,1,0,0:0:0:0:
448,192,315137,1,0,0:0:0:0:
64,192,315137,1,0,0:0:0:0:
192,192,315252,1,0,0:0:0:0:
64,192,315366,128,0,315481:0:0:0:0:
320,192,315366,128,0,315481:0:0:0:0:
192,192,315481,128,0,315595:0:0:0:0:
448,192,315595,128,0,315824:0:0:0:0:
320,192,315595,128,0,315710:0:0:0:0:
64,192,315595,128,0,315824:0:0:0:0:
320,192,315824,128,0,315939:0:0:0:0:
192,192,315881,128,0,315996:0:0:0:0:
64,192,315939,128,0,316053:0:0:0:0:
320,192,316053,1,0,0:0:0:0:
448,192,316053,1,0,0:0:0:0:
192,192,316168,1,0,0:0:0:0:
192,192,316282,1,0,0:0:0:0:
448,192,316282,128,0,316397:0:0:0:0:
192,192,316397,128,0,316511:0:0:0:0:
448,192,316511,128,0,316740:0:0:0:0:
320,192,316511,128,0,316626:0:0:0:0:
64,192,316511,128,0,316740:0:0:0:0:
192,192,316626,1,0,0:0:0:0:
320,192,316740,128,0,316969:0:0:0:0:
448,192,316855,128,0,316969:0:0:0:0:
64,192,316969,1,0,0:0:0:0:
192,192,316969,1,0,0:0:0:0:
64,192,317084,128,0,317198:0:0:0:0:
320,192,317198,128,0,317313:0:0:0:0:
448,192,317198,128,0,317313:0:0:0:0:
64,192,317313,128,0,317427:0:0:0:0:
448,192,317427,128,0,317656:0:0:0:0:
320,192,317427,128,0,317656:0:0:0:0:
192,192,317427,128,0,317542:0:0:0:0:
192,192,317656,1,0,0:0:0:0:
320,192,317771,128,0,317885:0:0:0:0:
64,192,317885,1,0,0:0:0:0:
448,192,317885,1,0,0:0:0:0:
192,192,318000,1,0,0:0:0:0:
320,192,318114,1,0,0:0:0:0:
64,192,318114,128,0,318229:0:0:0:0:
320,192,318229,128,0,318343:0:0:0:0:
192,192,318343,128,0,318572:0:0:0:0:
64,192,318343,128,0,318572:0:0:0:0:
448,192,318343,128,0,318458:0:0:0:0:
448,192,318572,128,0,318801:0:0:0:0:
320,192,318801,1,0,0:0:0:0:
64,192,318801,1,0,0:0:0:0:
192,192,318916,1,0,0:0:0:0:
64,192,319030,128,0,319145:0:0:0:0:
448,192,319030,128,0,319145:0:0:0:0:
192,192,319145,128,0,319259:0:0:0:0:
448,192,319259,128,0,319488:0:0:0:0:
320,192,319259,1,0,0:0:0:0:
64,192,319259,128,0,319488:0:0:0:0:
192,192,319488,128,0,319717:0:0:0:0:
64,192,319603,128,0,319717:0:0:0:0:
320,192,319717,1,0,0:0:0:0:
448,192,319717,1,0,0:0:0:0:
192,192,319832,1,0,0:0:0:0:
448,192,319946,128,0,320061:0:0:0:0:
64,192,319946,128,0,320061:0:0:0:0:
192,192,320061,128,0,320175:0:0:0:0:
320,192,320175,1,0,0:0:0:0:
448,192,320175,128,0,320404:0:0:0:0:
64,192,320175,128,0,320404:0:0:0:0:
320,192,320404,128,0,320633:0:0:0:0:
448,192,320519,128,0,320633:0:0:0:0:
64,192,320633,128,0,320719:0:0:0:0:
192,192,320662,128,0,320748:0:0:0:0:
448,192,320748,128,0,320834:0:0:0:0:
320,192,320776,128,0,320862:0:0:0:0:
64,192,320862,128,0,320948:0:0:0:0:
192,192,320891,128,0,320977:0:0:0:0:
448,192,320977,128,0,321063:0:0:0:0:
320,192,321005,128,0,321091:0:0:0:0:
64,192,321091,1,0,0:0:0:0:
192,192,321091,1,0,0:0:0:0:
448,192,321148,1,0,0:0:0:0:
192,192,321206,1,0,0:0:0:0:
320,192,321263,1,0,0:0:0:0:
448,192,321320,1,0,0:0:0:0:
192,192,321377,1,0,0:0:0:0:
448,192,321435,1,0,0:0:0:0:
320,192,321492,1,0,0:0:0:0:
192,192,321549,128,0,321664:0:0:0:0:
64,192,321549,128,0,321664:0:0:0:0:
448,192,321664,1,0,0:0:0:0:
320,192,321778,128,0,321893:0:0:0:0:
64,192,321778,128,0,321893:0:0:0:0:
192,192,321893,128,0,322007:0:0:0:0:
448,192,322007,128,0,322122:0:0:0:0:
320,192,322007,128,0,322236:0:0:0:0:
64,192,322007,128,0,322236:0:0:0:0:
192,192,322236,128,0,322351:0:0:0:0:
448,192,322236,128,0,322351:0:0:0:0:
320,192,322351,1,0,0:0:0:0:
448,192,322465,1,0,0:0:0:0:
64,192,322465,1,0,0:0:0:0:
192,192,322580,1,0,0:0:0:0:
448,192,322694,128,0,322809:0:0:0:0:
64,192,322694,128,0,322809:0:0:0:0:
320,192,322809,128,0,322923:0:0:0:0:
64,192,322923,128,0,323152:0:0:0:0:
192,192,322923,128,0,323038:0:0:0:0:
448,192,322923,128,0,323152:0:0:0:0:
192,192,323152,128,0,323267:0:0:0:0:
320,192,323210,128,0,323324:0:0:0:0:
448,192,323267,128,0,323381:0:0:0:0:
64,192,323381,1,0,0:0:0:0:
192,192,323381,1,0,0:0:0:0:
320,192,323496,1,0,0:0:0:0:
64,192,323610,128,0,323725:0:0:0:0:
320,192,323610,1,0,0:0:0:0:
320,192,323725,128,0,323839:0:0:0:0:
64,192,323839,128,0,324068:0:0:0:0:
448,192,323839,128,0,324068:0:0:0:0:
192,192,323839,128,0,323954:0:0:0:0:
192,192,324068,128,0,324297:0:0:0:0:
320,192,324068,1,0,0:0:0:0:
64,192,324183,128,0,324297:0:0:0:0:
320,192,324297,1,0,0:0:0:0:
448,192,324297,1,0,0:0:0:0:
448,192,324412,128,0,324526:0:0:0:0:
192,192,324526,128,0,324641:0:0:0:0:
64,192,324526,128,0,324641:0:0:0:0:
448,192,324641,128,0,324755:0:0:0:0:
64,192,324755,128,0,324984:0:0:0:0:
192,192,324755,128,0,324984:0:0:0:0:
320,192,324755,128,0,324870:0:0:0:0:
320,192,324984,128,0,325213:0:0:0:0:
192,192,325099,128,0,325213:0:0:0:0:
448,192,325213,1,0,0:0:0:0:
64,192,325213,1,0,0:0:0:0:
192,192,325442,1,0,0:0:0:0:
448,192,325442,128,0,325557:0:0:0:0:
192,192,325557,128,0,325671:0:0:0:0:
448,192,325671,128,0,325900:0:0:0:0:
320,192,325671,128,0,325900:0:0:0:0:
64,192,325671,128,0,325786:0:0:0:0:
64,192,325900,128,0,326129:0:0:0:0:
448,192,326129,1,0,0:0:0:0:
192,192,326129,1,0,0:0:0:0:
320,192,326244,1,0,0:0:0:0:
448,192,326358,128,0,326473:0:0:0:0:
64,192,326358,128,0,326473:0:0:0:0:
320,192,326473,128,0,326587:0:0:0:0:
64,192,326587,128,0,326816:0:0:0:0:
192,192,326587,128,0,326702:0:0:0:0:
448,192,326587,128,0,326816:0:0:0:0:
320,192,326816,1,0,0:0:0:0:
320,192,326931,128,0,327045:0:0:0:0:
64,192,327045,128,0,327160:0:0:0:0:
192,192,327045,128,0,327160:0:0:0:0:
320,192,327160,1,0,0:0:0:0:
192,192,327274,128,0,327389:0:0:0:0:
448,192,327274,128,0,327389:0:0:0:0:
320,192,327389,128,0,327503:0:0:0:0:
192,192,327503,128,0,327732:0:0:0:0:
448,192,327503,128,0,327618:0:0:0:0:
64,192,327503,128,0,327732:0:0:0:0:
448,192,327732,128,0,327847:0:0:0:0:
320,192,327732,128,0,327961:0:0:0:0:
64,192,327847,128,0,327961:0:0:0:0:
448,192,327961,128,0,328534:0:0:0:0:
192,192,327961,128,0,328305:0:0:0:0:
320,192,328190,128,0,328305:0:0:0:0:
64,192,328190,128,0,328305:0:0:0:0:
192,192,328419,128,0,328763:0:0:0:0:
64,192,328419,128,0,328763:0:0:0:0:
320,192,328419,128,0,328534:0:0:0:0:
320,192,328648,128,0,328763:0:0:0:0:
448,192,328648,128,0,328763:0:0:0:0:
64,192,328877,1,0,0:0:0:0:
448,192,328877,1,0,0:0:0:0:
320,192,328992,1,0,0:0:0:0:
192,192,329106,1,0,0:0:0:0:
64,192,329106,1,0,0:0:0:0:
448,192,329221,1,0,0:0:0:0:
64,192,329221,1,0,0:0:0:0:
320,192,329335,1,0,0:0:0:0:
448,192,329335,1,0,0:0:0:0:
192,192,329335,1,0,0:0:0:0:
64,192,329450,1,0,0:0:0:0:
448,192,329564,1,0,0:0:0:0:
320,192,329564,1,0,0:0:0:0:
64,192,329793,1,0,0:0:0:0:
448,192,329793,1,0,0:0:0:0:
