osu file format v14

[General]
AudioFilename: audio.mp3
AudioLeadIn: 0
PreviewTime: 88034
Countdown: 1
SampleSet: None
StackLeniency: 0.7
Mode: 0
LetterboxInBreaks: 0
WidescreenStoryboard: 0

[Editor]
Bookmarks: 19284
DistanceSpacing: 0.9
BeatDivisor: 8
GridSize: 4
TimelineZoom: 1.7

[Metadata]
Title:Mambo
TitleUnicode:Mambo
Artist:Helena Paparizou
ArtistUnicode:Helena Paparizou
Creator:AxE Galaxy
Version:Insane
Source:
Tags:
BeatmapID:1761699
BeatmapSetID:841905

[Difficulty]
HPDrainRate:6
CircleSize:4
OverallDifficulty:7
ApproachRate:9.2
SliderMultiplier:3.39999990463257
SliderTickRate:1

[Events]
//Background and Video events
0,0,"bg.jpg",0,0
//Break Periods
//Storyboard Layer 0 (Background)
//Storyboard Layer 1 (Fail)
//Storyboard Layer 2 (Pass)
//Storyboard Layer 3 (Foreground)
//Storyboard Sound Samples

[TimingPoints]
534,500,4,1,0,60,1,0
534,-400,4,1,0,60,0,0
634,-100,4,1,0,60,0,0
2534,-400,4,1,0,60,0,0
3034,-100,4,1,0,60,0,0
4534,-400,4,1,0,60,0,0
5034,-100,4,1,0,60,0,0
6534,-200,4,1,0,60,0,0
7034,-133.333333333333,4,1,0,60,0,0
7534,-100,4,1,0,60,0,0
31534,-133.333333333333,4,1,0,60,0,0
31909,-100,4,1,0,60,0,0
32534,-80,4,1,0,60,0,0

[HitObjects]
337,134,534,6,0,P|313:161|310:193,1,63.7499982118607
380,270,1034,2,0,B|318:252|318:252|214:274,1,169.999995231629
93,318,1409,1,0,0:0:0:0:
42,186,1534,2,0,P|32:142|32:101,1,84.9999976158143
170,99,1784,2,0,P|173:58|186:16,1,84.9999976158143
385,68,2034,2,0,B|406:96|406:96|314:88,1,127.499996423721
269,108,2284,2,0,P|282:154|275:189,1,84.9999976158143
108,295,2534,2,0,L|175:291,1,63.7499982118607
247,331,3034,2,0,P|326:300|403:329,1,169.999995231629
480,384,3409,1,0,0:0:0:0:
413,231,3534,2,0,P|401:186|407:145,1,84.9999976158143
294,112,3784,2,0,P|311:71|343:43,1,84.9999976158143
320,224,4034,2,0,B|274:239|274:239|196:221,1,127.499996423721
170,183,4284,2,0,P|181:140|171:97,1,84.9999976158143
0,224,4534,2,0,P|33:231|65:223,1,63.7499982118607
172,100,5034,2,0,B|271:94|240:136|337:132,1,169.999995231629
478,87,5409,1,0,0:0:0:0:
401,214,5534,2,0,L|395:306,1,84.9999976158143
267,277,5784,2,0,L|261:369,1,84.9999976158143
336,132,6034,1,0,0:0:0:0:
336,132,6284,2,0,P|291:143|249:137,1,84.9999976158143
130,145,6534,2,0,B|174:126|174:126|258:139,1,127.499996423721
258,338,7034,2,0,P|239:269|257:213,1,127.50000128746
336,132,7409,1,0,0:0:0:0:
433,340,7534,2,0,B|390:351|390:351|348:342,1,84.9999976158143
171,219,7784,2,0,B|214:208|214:208|256:217,1,84.9999976158143
418,226,8034,2,0,L|432:96,1,127.499996423721
329,47,8284,2,0,L|336:132,1,84.9999976158143
171,219,8534,2,0,P|237:180|311:222,1,169.999995231629
336,319,8909,1,0,0:0:0:0:
426,376,9034,2,0,P|469:383|511:374,1,84.9999976158143
247,315,9284,2,0,P|204:308|162:317,1,84.9999976158143
44,344,9534,2,0,L|36:300,4,42.4999988079071
126,196,9909,1,0,0:0:0:0:
38,85,10034,2,0,P|28:51|38:1,1,84.9999976158143
207,189,10284,2,0,P|170:202|126:196,1,84.9999976158143
209,278,10534,2,0,B|303:288|285:245|374:256,1,169.999995231629
476,306,10909,1,0,0:0:0:0:
388,338,11034,2,0,B|299:327|317:370|223:360,1,169.999995231629
116,320,11409,1,0,0:0:0:0:
154,102,11534,1,0,0:0:0:0:
193,204,11659,1,0,0:0:0:0:
225,69,11784,1,0,0:0:0:0:
121,223,11909,1,0,0:0:0:0:
291,127,12034,2,0,L|376:115,1,84.9999976158143
486,235,12284,2,0,L|401:223,1,84.9999976158143
121,223,12534,2,0,P|197:189|273:224,1,169.999995231629
320,312,12909,1,0,0:0:0:0:
339,154,13034,2,0,L|348:68,1,84.9999976158143
394,260,13284,2,0,L|403:346,1,84.9999976158143
432,184,13534,2,0,B|383:179|383:179|349:188|349:188|304:180,1,127.499996423721
271,174,13784,1,0,0:0:0:0:
155,247,13909,1,0,0:0:0:0:
155,247,14034,2,0,P|183:207|188:168,1,84.9999976158143
86,2,14284,2,0,P|42:1|3:17,1,84.9999976158143
105,177,14534,2,0,B|169:195|169:195|270:174,1,169.999995231629
363,199,14909,1,0,0:0:0:0:
404,112,15034,2,0,P|322:109|270:173,1,169.999995231629
287,295,15409,1,0,0:0:0:0:
363,199,15534,1,0,0:0:0:0:
367,286,15659,1,0,0:0:0:0:
434,154,15784,1,0,0:0:0:0:
287,295,15909,1,0,0:0:0:0:
297,122,16034,2,0,B|304:30|304:30|325:60,1,127.499996423721
324,58,16284,2,0,P|261:71|195:57,1,127.499996423721
108,94,16534,2,0,P|114:141|107:177,1,84.9999976158143
159,297,16784,2,0,P|165:250|181:217,1,84.9999976158143
179,73,17034,2,0,P|160:116|136:144,1,84.9999976158143
121,274,17284,2,0,P|149:236|180:216,1,84.9999976158143
250,91,17534,2,0,P|212:119|177:131,1,84.9999976158143
99,236,17784,2,0,P|142:218|179:215,1,84.9999976158143
323,291,18034,1,0,0:0:0:0:
323,291,18284,2,0,P|365:285|406:298,1,84.9999976158143
323,291,18534,2,0,B|298:177|298:177|317:121,1,169.999995231629
219,109,18909,1,0,0:0:0:0:
382,181,19034,2,0,L|467:173,1,84.9999976158143
388,66,19284,2,0,L|473:58,1,84.9999976158143
440,278,19534,1,0,0:0:0:0:
382,181,19659,1,0,0:0:0:0:
372,314,19784,1,0,0:0:0:0:
455,160,19909,1,0,0:0:0:0:
321,252,20034,2,0,P|252:274|196:247,1,127.499996423721
155,198,20284,2,0,P|165:152|152:116,1,84.9999976158143
132,300,20534,2,0,L|210:249,1,84.9999976158143
380,84,20784,2,0,L|302:135,1,84.9999976158143
127,335,21034,2,0,L|205:284,1,84.9999976158143
385,49,21284,2,0,L|307:100,1,84.9999976158143
256,341,21534,2,0,P|306:348|341:331,1,84.9999976158143
351,323,21721,1,0,0:0:0:0:
367,305,21784,2,0,B|355:248|355:248|366:214,1,84.9999976158143
414,127,22034,1,0,0:0:0:0:
439,253,22159,1,0,0:0:0:0:
476,78,22284,2,0,B|460:29|460:29|438:55,1,84.9999976158143
212,146,22534,2,0,P|182:104|175:69,1,84.9999976158143
311,197,22784,2,0,P|346:170|364:134,1,84.9999976158143
194,251,23034,2,0,P|148:238|121:208,1,84.9999976158143
312,308,23284,2,0,P|358:305|393:286,1,84.9999976158143
223,160,23534,1,0,0:0:0:0:
298,115,23659,1,0,0:0:0:0:
180,92,23784,1,0,0:0:0:0:
334,189,23909,1,0,0:0:0:0:
370,72,24034,2,0,B|365:19|365:19|341:44,1,84.9999976158143
188,233,24284,2,0,B|137:241|137:241|160:217,1,84.9999976158143
335,283,24534,2,0,P|425:288|453:223,1,169.999995231629
410,110,24909,1,0,0:0:0:0:
336,186,25034,2,0,L|250:197,1,84.9999976158143
110,71,25284,2,0,L|194:82,1,84.9999976158143
356,38,25534,2,0,L|278:78,1,84.9999976158143
153,244,25784,2,0,L|182:162,1,84.9999976158143
168,0,26034,2,0,L|194:83,1,84.9999976158143
251,297,26284,1,0,0:0:0:0:
251,297,26534,2,0,B|141:319|141:319|88:297,1,169.999995231629
221,384,26909,1,0,0:0:0:0:
144,237,27034,2,0,P|131:197|135:154,1,84.9999976158143
332,216,27284,2,0,P|332:174|318:132,1,84.9999976158143
152,65,27534,1,0,0:0:0:0:
295,50,27659,1,0,0:0:0:0:
141,88,27784,1,0,0:0:0:0:
310,45,27909,1,0,0:0:0:0:
136,114,28034,1,0,0:0:0:0:
324,33,28159,1,0,0:0:0:0:
260,165,28284,1,0,0:0:0:0:
200,27,28409,1,0,0:0:0:0:
186,227,28534,2,0,P|258:268|332:232,1,169.999995231629
389,142,28909,1,0,0:0:0:0:
445,294,29034,2,0,P|450:338|440:381,1,84.9999976158143
260,165,29284,2,0,L|277:77,1,84.9999976158143
353,269,29534,1,0,0:0:0:0:
313,157,29659,1,0,0:0:0:0:
331,288,29784,1,0,0:0:0:0:
260,165,29909,1,0,0:0:0:0:
317,313,30034,1,0,0:0:0:0:
215,190,30159,1,0,0:0:0:0:
314,341,30284,2,0,L|239:296,1,84.9999976158143
95,211,30534,1,0,0:0:0:0:
95,211,30784,1,0,0:0:0:0:
95,211,31034,1,0,0:0:0:0:
95,211,31284,1,0,0:0:0:0:
95,211,31534,2,0,L|108:147,1,63.7500006437302
107,148,31721,1,0,0:0:0:0:
107,148,31784,1,0,0:0:0:0:
217,90,31909,1,0,0:0:0:0:
242,237,32034,1,0,0:0:0:0:
242,237,32284,1,0,0:0:0:0:
297,53,32409,1,0,0:0:0:0:
339,248,32534,2,0,B|310:341|219:340|219:340|176:308,1,212.499994039536
111,261,32909,1,0,0:0:0:0:
148,88,33034,2,0,P|165:135|148:191,1,106.249997019768
269,87,33284,2,0,P|316:61|366:69,1,106.249997019768
347,249,33534,2,0,B|330:141|330:141|351:162|383:169,1,159.374995529652
398,176,33784,1,0,0:0:0:0:
338,328,33909,1,0,0:0:0:0:
251,207,34034,2,0,P|173:176|109:216,1,159.374995529652
98,234,34284,2,0,B|93:192|93:192|76:174|76:174|73:133,1,106.249997019768
320,40,34534,2,0,P|414:82|313:116,1,265.62499254942
212,112,34909,2,0,P|264:104|315:118,1,106.249997019768
314,117,35284,2,0,B|310:175|310:175|285:217|285:217|282:269,1,159.374995529652
340,310,35534,2,0,P|291:341|245:328,1,106.249997019768
148,201,35784,2,0,L|158:94,1,106.249997019768
252,217,36034,1,0,0:0:0:0:
321,77,36159,1,0,0:0:0:0:
333,192,36284,1,0,0:0:0:0:
230,32,36409,1,0,0:0:0:0:
0,196,36534,2,0,B|43:220|43:220|158:199,1,159.374995529652
213,291,36784,2,0,L|107:283,1,106.249997019768
54,129,37034,2,0,P|47:75|64:27,1,106.249997019768
278,162,37284,1,0,0:0:0:0:
278,162,37534,2,0,B|294:204|294:204|299:151|317:88,1,159.374995529652
409,121,37784,2,0,P|394:172|389:225,1,106.249997019768
403,348,38034,1,0,0:0:0:0:
323,227,38159,1,0,0:0:0:0:
320,320,38284,1,0,0:0:0:0:
409,121,38409,1,0,0:0:0:0:
253,155,38534,2,0,P|179:171|109:127,1,159.374995529652
