osu file format v14

[General]
AudioFilename: pla.mp3
AudioLeadIn: 0
PreviewTime: 30510
Countdown: 0
SampleSet: Soft
StackLeniency: 0.6
Mode: 0
LetterboxInBreaks: 1
WidescreenStoryboard: 1

[Editor]
DistanceSpacing: 1.5
BeatDivisor: 4
GridSize: 4
TimelineZoom: 1

[Metadata]
Title:platinum
TitleUnicode:platinum
Artist:Helblinde
ArtistUnicode:Helblinde
Creator:-Mizu
Version:MagicalGrill
Source:
Tags:Madoka
BeatmapID:1356671
BeatmapSetID:639690

[Difficulty]
HPDrainRate:6
CircleSize:4
OverallDifficulty:7
ApproachRate:9.3
SliderMultiplier:1.8
SliderTickRate:1

[Events]
//Background and Video events
0,0,"418436.jpg",0,0
//Break Periods
2,57264,62510
//Storyboard Layer 0 (Background)
//Storyboard Layer 1 (Fail)
//Storyboard Layer 2 (Pass)
//Storyboard Layer 3 (Foreground)
//Storyboard Sound Samples

[TimingPoints]
664,300,4,1,0,60,1,0
4264,-100,4,1,0,30,0,0
4489,-100,4,1,0,60,0,0
8164,-166.666666666667,4,1,0,60,0,0
8614,-100,4,1,0,60,0,0
11314,-200,4,1,0,60,0,0
12064,-100,4,1,0,60,0,0
17164,-133.333333333333,4,1,0,60,0,0
18514,-100,4,1,0,60,0,0
24814,-66.6666666666667,4,1,0,60,0,0
25564,-100,4,1,0,60,0,0
30664,-100,4,1,0,60,0,1
32764,-100,4,1,0,60,0,0
32914,-100,4,1,0,60,0,1
40189,-100,4,1,0,60,0,0
40264,-100,4,1,0,60,0,1
42364,-100,4,1,0,60,0,0
42464,-100,4,1,0,60,0,1
48364,-100,4,1,0,60,0,0
63064,-100,4,2,0,60,0,0

[Colours]
Combo1 : 192,192,192
Combo2 : 255,255,0
Combo3 : 255,128,64
Combo4 : 255,0,0

[HitObjects]
160,104,1564,5,2,0:0:0:0:
368,104,1864,1,4,0:0:0:0:
256,72,3064,5,0,0:0:0:0:
256,152,3214,1,0,0:0:0:0:
256,224,3364,1,0,0:0:0:0:
256,296,3514,1,8,0:0:0:0:
352,256,3664,2,0,P|388:300|364:344,2,90,2|0|2,0:0|0:0|0:0,0:0:0:0:
404,168,4114,1,4,0:0:0:0:
356,60,4264,1,2,0:0:0:0:
72,64,4564,6,0,P|116:32|152:56,1,90,8|0,0:0|0:0,0:0:0:0:
208,104,4864,1,0,0:0:0:0:
104,184,5014,1,0,0:0:0:0:
200,264,5164,2,0,L|200:360,1,90,8|0,0:0|0:0,0:0:0:0:
256,192,5464,1,0,0:0:0:0:
372,96,5614,5,0,0:0:0:0:
372,116,5689,1,0,0:0:0:0:
372,136,5764,1,8,0:0:0:0:
416,220,5914,1,0,0:0:0:0:
360,296,6064,2,0,P|364:344|308:348,1,90
236,344,6364,1,8,0:0:0:0:
140,344,6514,2,0,L|92:300,2,45
84,236,6814,1,0,0:0:0:0:
204,220,6964,1,8,0:0:0:0:
96,40,7114,5,0,0:0:0:0:
160,40,7264,2,0,P|208:40|244:88,1,90
84,152,7564,1,8,0:0:0:0:
100,308,7714,2,0,B|148:284|156:240|160:240,1,90
256,52,8014,1,0,0:0:0:0:
368,152,8164,2,0,L|420:180,1,45,8|0,0:0|0:0,0:0:0:0:
344,296,8464,1,0,0:0:0:0:
204,220,8614,1,0,0:0:0:0:
340,332,8764,5,8,0:0:0:0:
340,232,8914,1,0,0:0:0:0:
96,72,9064,2,0,P|168:48|180:56,1,90
180,164,9364,2,0,P|128:200|152:236,1,90,8|0,0:0|0:0,0:0:0:0:
96,332,9664,1,0,0:0:0:0:
128,352,9739,1,0,0:0:0:0:
160,352,9814,1,0,0:0:0:0:
248,96,9964,5,0,0:0:0:0:
192,228,10114,1,0,0:0:0:0:
136,128,10264,1,0,0:0:0:0:
248,336,10414,1,0,0:0:0:0:
344,132,10564,1,0,0:0:0:0:
248,96,10714,2,0,B|288:132|224:172|224:176|224:176|300:224,1,180
180,232,11314,6,0,B|260:248|316:232|316:232|344:184,1,180
56,112,12214,1,0,0:0:0:0:
144,64,12364,1,0,0:0:0:0:
156,172,12514,1,0,0:0:0:0:
288,52,12664,2,0,L|388:52,1,90
284,156,12964,2,0,L|408:152,1,90
444,304,13264,1,0,0:0:0:0:
444,304,13414,1,0,0:0:0:0:
444,304,13564,1,0,0:0:0:0:
444,304,13714,2,0,L|440:200,1,90
76,108,14014,6,0,L|140:76,4,45
192,148,14464,1,0,0:0:0:0:
400,48,14614,1,0,0:0:0:0:
432,172,14764,2,0,P|464:240|440:264,1,90
328,344,15064,2,0,P|268:272|264:272,1,90
440,208,15364,1,0,0:0:0:0:
284,208,15514,1,0,0:0:0:0:
108,208,15664,1,0,0:0:0:0:
68,56,15814,1,0,0:0:0:0:
92,48,15889,1,0,0:0:0:0:
120,40,15964,1,0,0:0:0:0:
56,200,16114,6,0,P|116:164|132:184,1,90
88,320,16414,2,0,L|184:300,2,90
204,196,16864,1,0,0:0:0:0:
300,64,17014,1,0,0:0:0:0:
256,192,17164,12,0,18364,0:0:0:0:
64,88,18664,5,0,0:0:0:0:
192,56,18814,1,0,0:0:0:0:
152,168,18964,1,0,0:0:0:0:
216,240,19114,1,0,0:0:0:0:
32,272,19264,2,0,P|112:340|192:308,1,180
336,240,19714,5,0,0:0:0:0:
362,229,19789,1,0,0:0:0:0:
387,216,19864,1,0,0:0:0:0:
408,198,19939,1,0,0:0:0:0:
424,176,20014,1,0,0:0:0:0:
432,148,20089,5,0,0:0:0:0:
435,121,20164,1,0,0:0:0:0:
432,93,20239,1,0,0:0:0:0:
423,66,20314,1,0,0:0:0:0:
256,36,20464,1,0,0:0:0:0:
256,192,20614,12,0,21139,0:0:0:0:
148,76,21364,6,0,P|96:128|112:168,1,90
172,172,21664,2,0,P|224:168|220:104,1,90
392,100,21964,5,0,0:0:0:0:
412,120,22039,1,0,0:0:0:0:
432,144,22114,1,0,0:0:0:0:
392,304,22264,1,0,0:0:0:0:
160,340,22414,6,0,P|72:296|104:232,1,180
260,184,22864,1,0,0:0:0:0:
396,96,23014,1,0,0:0:0:0:
396,248,23314,1,0,0:0:0:0:
48,176,23464,5,0,0:0:0:0:
73,138,23539,1,0,0:0:0:0:
106,109,23614,1,0,0:0:0:0:
148,92,23689,5,0,0:0:0:0:
192,87,23764,1,0,0:0:0:0:
228,92,23914,2,0,P|280:64|308:72,1,90
400,164,24214,2,0,L|316:256,1,90
256,328,24664,1,0,0:0:0:0:
376,312,24814,6,0,P|448:300|444:236,1,135.000005149842
400,200,25114,2,0,P|324:192|320:256,1,135.000005149842
60,296,25414,1,0,0:0:0:0:
61,228,25489,1,0,0:0:0:0:
63,161,25564,1,0,0:0:0:0:
120,48,25714,2,0,L|172:32,2,45
320,52,26464,2,0,L|392:60,1,45
384,128,26764,6,0,L|316:144,1,45
436,292,27064,1,0,0:0:0:0:
336,328,27214,2,0,P|240:312|180:232,1,180
144,184,27664,1,0,0:0:0:0:
72,80,27814,5,0,0:0:0:0:
109,72,27889,1,0,0:0:0:0:
148,71,27964,1,0,0:0:0:0:
186,77,28039,1,0,0:0:0:0:
223,89,28114,5,0,0:0:0:0:
257,107,28189,1,0,0:0:0:0:
288,129,28264,1,0,0:0:0:0:
400,200,28414,1,0,0:0:0:0:
220,284,28564,1,0,0:0:0:0:
116,220,28714,6,0,P|80:180|108:164,1,90
144,60,29014,2,0,L|244:60,1,90
352,44,29314,2,0,L|404:76,2,45
320,336,29614,5,0,0:0:0:0:
352,320,29689,1,0,0:0:0:0:
412,260,29839,2,0,L|472:280,2,45
368,108,30064,2,0,L|432:80,2,45
292,60,30364,2,0,L|340:40,2,45
72,48,30664,6,0,L|156:96,1,90
256,188,30964,1,0,0:0:0:0:
92,200,31114,5,0,0:0:0:0:
148,88,31264,2,0,L|288:212,1,180
280,204,31714,1,0,0:0:0:0:
88,272,31864,2,0,L|140:232,2,45
232,332,32164,5,0,0:0:0:0:
232,332,32239,1,0,0:0:0:0:
232,332,32314,1,0,0:0:0:0:
340,320,32464,2,0,L|424:272,1,90
256,188,32764,1,0,0:0:0:0:
360,64,33064,6,0,L|424:96,2,45
320,112,33364,2,0,L|360:148,2,45
160,64,33664,2,0,L|104:100,2,45
200,112,33964,6,0,L|152:144,2,45
256,200,34264,2,0,L|256:300,1,90
256,112,34564,1,0,0:0:0:0:
384,264,34714,2,0,L|328:348,1,90
204,340,35014,2,0,L|136:252,1,90
56,80,35314,6,0,L|164:80,2,90
56,168,35764,2,0,L|248:168,1,180
72,304,36214,1,0,0:0:0:0:
102,271,36289,1,0,0:0:0:0:
133,238,36364,1,0,0:0:0:0:
256,320,36514,2,0,L|256:192,1,90
256,108,36814,1,0,0:0:0:0:
352,292,36964,6,0,P|412:276|408:232,1,90
420,152,37264,1,0,0:0:0:0:
284,216,37414,1,0,0:0:0:0:
256,108,37564,2,0,P|280:40|324:28,1,90
84,200,37864,2,0,P|72:264|120:276,1,90
92,108,38164,6,0,L|204:108,1,90
340,112,38464,1,0,0:0:0:0:
408,228,38614,1,0,0:0:0:0:
256,296,38764,2,0,P|148:316|112:256,1,180
184,184,39214,2,0,L|184:76,1,90
264,88,39514,2,0,L|264:200,1,90
40,160,39814,5,0,0:0:0:0:
63,121,39889,1,0,0:0:0:0:
86,83,39964,1,0,0:0:0:0:
172,184,40114,1,0,0:0:0:0:
195,145,40189,5,0,0:0:0:0:
219,107,40264,1,0,0:0:0:0:
368,64,40414,2,0,P|420:64|448:104,1,90
344,172,40714,2,0,P|400:172|424:208,1,90
340,304,41014,1,0,0:0:0:0:
64,288,41164,6,0,B|216:288|216:288|232:256,1,180
76,200,41614,2,0,L|140:112,1,90
172,44,41914,2,0,L|216:44,2,45
328,64,42214,1,0,0:0:0:0:
320,60,42289,1,0,0:0:0:0:
312,56,42364,5,0,0:0:0:0:
492,88,42514,2,0,L|424:172,1,90
435,157,42814,2,0,L|360:244,1,90
372,232,43114,2,0,L|296:316,1,90
311,298,43414,2,0,L|208:300,1,90
64,232,43714,1,0,0:0:0:0:
260,192,43864,5,0,0:0:0:0:
260,200,43939,1,0,0:0:0:0:
260,208,44014,1,0,0:0:0:0:
260,216,44089,1,0,0:0:0:0:
260,224,44164,5,0,0:0:0:0:
260,232,44239,1,0,0:0:0:0:
260,240,44314,1,0,0:0:0:0:
256,112,44464,6,0,L|256:16,1,90
256,28,44764,1,0,0:0:0:0:
96,48,44914,2,0,B|96:184|96:184|44:184|44:184|116:240,1,270
196,304,45514,2,0,P|272:340|368:280,1,180
408,192,45964,1,0,0:0:0:0:
356,96,46114,1,0,0:0:0:0:
148,96,46264,5,0,0:0:0:0:
100,200,46414,2,0,L|216:200,1,90
408,192,46714,2,0,L|280:192,1,90
256,160,47014,2,0,L|256:48,2,90
256,160,47464,2,0,B|256:272|256:272|272:288|272:288|236:328,1,180
440,124,47914,6,0,P|432:60|384:40,2,90
360,132,48364,2,0,P|320:96|344:48,1,90
60,156,48964,1,0,0:0:0:0:
67,126,49039,1,0,0:0:0:0:
80,100,49114,5,0,0:0:0:0:
100,76,49189,1,0,0:0:0:0:
124,60,49264,1,0,0:0:0:0:
256,40,49864,2,0,L|368:64,1,90
388,200,50164,2,0,L|284:228,1,90
60,48,50464,1,0,0:0:0:0:
164,168,50614,5,0,0:0:0:0:
116,296,50764,1,0,0:0:0:0:
304,224,50914,1,0,0:0:0:0:
184,176,51064,2,0,L|84:164,1,90
416,324,51364,2,0,L|412:208,1,90
100,136,51664,2,0,L|180:72,1,90
368,56,51964,5,0,0:0:0:0:
152,248,52264,1,0,0:0:0:0:
212,92,52414,1,0,0:0:0:0:
300,248,52564,1,0,0:0:0:0:
344,96,52714,1,0,0:0:0:0:
344,96,52789,1,0,0:0:0:0:
344,96,52864,1,0,0:0:0:0:
260,188,53014,1,0,0:0:0:0:
176,276,53164,1,0,0:0:0:0:
260,336,53314,1,0,0:0:0:0:
348,296,53464,6,0,P|400:276|384:216,1,90
412,176,53764,2,0,P|444:136|400:92,1,90
431,104,54064,2,0,L|396:56,1,45
92,56,54364,1,0,0:0:0:0:
256,56,54514,1,0,0:0:0:0:
104,196,54664,2,0,L|216:196,1,90
256,192,54964,12,0,57064,0:0:0:0:
104,224,63064,6,0,P|128:136|224:128,1,180
208,308,63664,5,0,0:0:0:0:
320,224,63814,1,0,0:0:0:0:
300,72,63964,1,0,0:0:0:0:
322,86,64039,1,0,0:0:0:0:
344,101,64114,5,0,0:0:0:0:
367,116,64189,1,0,0:0:0:0:
384,128,64264,2,0,L|388:256,1,90
356,324,64564,2,0,L|164:324,2,180
256,228,65464,1,0,0:0:0:0:
60,220,65764,6,0,P|56:140|56:128,1,90
148,124,66064,2,0,L|160:244,1,90
264,224,66364,2,0,L|256:104,2,90
364,52,66814,1,0,0:0:0:0:
380,68,66889,1,0,0:0:0:0:
400,92,66964,1,0,0:0:0:0:
408,296,67114,5,0,0:0:0:0:
280,332,67264,1,0,0:0:0:0:
112,272,67564,2,0,P|64:212|112:116,1,180
192,40,68014,1,0,0:0:0:0:
332,148,68164,5,0,0:0:0:0:
236,292,68314,2,0,L|140:224,1,90
220,128,68614,1,0,0:0:0:0:
92,56,68764,2,0,L|88:256,1,180
308,72,69214,5,0,0:0:0:0:
436,184,69364,1,0,0:0:0:0:
312,320,69514,2,0,L|232:252,1,90
140,116,69814,1,0,0:0:0:0:
116,252,69964,5,0,0:0:0:0:
196,116,70114,1,0,0:0:0:0:
268,264,70264,1,0,0:0:0:0:
196,116,70414,1,0,0:0:0:0:
328,116,70564,5,0,0:0:0:0:
208,240,70714,1,0,0:0:0:0:
196,116,70864,1,0,0:0:0:0:
208,240,71014,1,0,0:0:0:0:
340,240,71164,1,0,0:0:0:0:
256,88,71314,2,0,L|256:200,1,90
44,212,71614,5,0,0:0:0:0:
120,176,71764,1,0,0:0:0:0:
188,128,71914,2,0,L|272:72,1,90
348,76,72214,2,0,P|404:88|440:132,1,90
420,244,72514,1,0,0:0:0:0:
420,244,72664,1,0,0:0:0:0:
80,108,73114,5,0,0:0:0:0:
128,232,73264,1,0,0:0:0:0:
80,108,73414,1,0,0:0:0:0:
256,192,73564,1,0,0:0:0:0:
80,108,73714,1,0,0:0:0:0:
256,80,73864,1,0,0:0:0:0:
88,292,74164,5,0,0:0:0:0:
88,196,74464,1,0,0:0:0:0:
96,124,74614,2,0,P|188:100|288:128,1,180
352,304,75364,2,0,L|476:304,1,90
348,208,75664,2,0,B|464:152|464:152|432:100,1,180
268,52,76114,1,0,0:0:0:0:
