osu file format v14

[General]
AudioFilename: audio.mp3
AudioLeadIn: 0
PreviewTime: 36739
Countdown: 0
SampleSet: Drum
StackLeniency: 0.7
Mode: 2
LetterboxInBreaks: 0
WidescreenStoryboard: 1

[Editor]
Bookmarks: 11989,27417,41131,54846,70274,83989,107131,116989
DistanceSpacing: 1
BeatDivisor: 4
GridSize: 32
TimelineZoom: 1.4

[Metadata]
Title:Unconquered
TitleUnicode:Unconquered
Artist:Helblinde
ArtistUnicode:Helblinde
Creator:Du5t
Version:Platter
Source:osu!
Tags:FA featured artist idust idu5t jbh jbhyperion mbomb magic bomb dust electronic instrumental Omnia Vanitas
BeatmapID:2228318
BeatmapSetID:975136

[Difficulty]
HPDrainRate:5
CircleSize:3
OverallDifficulty:8
ApproachRate:8
SliderMultiplier:1.8
SliderTickRate:2

[Events]
//Background and Video events
0,0,"landscape-tree-nature-forest-plant-fog-686646-pxhere.com.jpg",0,0
//Break Periods
//Storyboard Layer 0 (Background)
//Storyboard Layer 1 (Fail)
//Storyboard Layer 2 (Pass)
//Storyboard Layer 3 (Foreground)
//Storyboard Layer 4 (Overlay)
//Storyboard Sound Samples

[TimingPoints]
-11,428.571428571429,4,2,0,60,1,0
11989,-100,4,3,11,50,0,0
13703,-100,4,3,11,60,0,0
21203,-100,4,3,11,60,0,0
21310,-100,4,3,11,60,0,0
23131,-100,4,3,11,60,0,0
23667,-100,4,3,11,60,0,0
27417,-100,4,3,22,65,0,0
32560,-100,4,3,22,60,0,0
33417,-100,4,3,22,60,0,0
34274,-100,4,3,33,70,0,0
37703,-100,4,3,33,75,0,0
39417,-100,4,3,33,80,0,0
40274,-100,4,3,33,60,0,0
41131,-100,4,3,33,85,0,1
53989,-100,4,3,11,60,0,0
56131,-100,4,3,11,60,0,0
56346,-100,4,3,11,60,0,0
57846,-100,4,3,11,60,0,0
58061,-100,4,3,11,60,0,0
59560,-100,4,3,11,60,0,0
59775,-100,4,3,11,60,0,0
62989,-100,4,3,11,60,0,0
63204,-100,4,3,11,60,0,0
64703,-100,4,3,11,60,0,0
64918,-100,4,3,11,60,0,0
70274,-100,4,3,44,85,0,1
72846,-100,4,3,44,85,0,1
73274,-100,4,3,44,85,0,1
83989,-100,4,3,33,60,0,0
85274,-100,4,3,33,60,0,0
85703,-100,4,3,33,70,0,0
85917,-100,4,3,33,60,0,0
86346,-100,4,3,33,60,0,0
86989,-100,4,3,33,60,0,0
87096,-100,4,3,33,60,0,0
87417,-100,4,3,33,60,0,0
89131,-100,4,3,33,60,0,0
89560,-100,4,3,33,60,0,0
91274,-100,4,3,33,60,0,0
91703,-100,4,3,33,70,0,0
92989,-100,4,3,33,60,0,0
93096,-100,4,3,33,60,0,0
93417,-100,4,3,33,60,0,0
95989,-100,4,3,33,60,0,0
96417,-100,4,3,33,60,0,0
98131,-100,4,3,33,60,0,0
98560,-100,4,3,33,70,0,0
99846,-100,4,3,33,60,0,0
99953,-100,4,3,33,60,0,0
100274,-100,4,3,33,60,0,0
102846,-100,4,3,33,60,0,0
103274,-100,4,3,33,60,0,0
104989,-100,4,3,33,60,0,0
105417,-100,4,3,33,70,0,0
106703,-100,4,3,33,60,0,0
106810,-100,4,3,33,60,0,0
107131,-100,4,3,33,50,0,0
107560,-100,4,3,33,60,0,0
107774,-100,4,3,33,60,0,0
108417,-100,4,3,33,60,0,0
108631,-100,4,3,33,60,0,0
108846,-100,4,3,33,70,0,0
110774,-100,4,3,33,50,0,0
116989,-100,4,3,33,60,0,0

[Colours]
Combo1 : 0,125,0
Combo2 : 1,228,18
Combo3 : 192,225,4

[HitObjects]
274,291,11989,6,0,L|280:183,1,90
183,172,12417,2,0,L|124:175,2,45,0|0|0,0:0|0:0|0:0,0:0:0:0:
381,116,12846,2,0,L|270:110,1,90,2|2,0:0|0:0,0:0:0:0:
384,165,13274,2,0,L|392:268,1,90,2|0,0:0|0:0,0:0:0:0:
101,268,13703,6,0,L|266:255,2,135,12|0|0,0:0|0:0|0:0,0:0:0:0:
299,195,14560,2,0,P|350:183|278:105,1,180,2|8,0:0|0:0,0:0:0:0:
25,281,15417,5,2,0:0:0:0:
174,279,15739,1,0,0:0:0:0:
322,276,16060,1,0,0:0:0:0:
123,222,16274,1,2,0:0:0:0:
34,176,16489,1,0,0:0:0:0:
48,78,16703,1,2,0:0:0:0:
140,44,16917,1,2,0:0:0:0:
428,303,17131,6,0,L|260:298,2,135,10|0|0,0:0|0:0|0:0,0:0:0:0:
226,236,17989,2,0,P|161:213|207:124,1,180,2|8,0:0|0:0,0:0:0:0:
481,278,18846,6,0,L|391:275,1,90,2|0,0:0|0:0,0:0:0:0:
297,262,19274,1,0,0:0:0:0:
249,235,19381,1,0,0:0:0:0:
245,180,19489,1,0,0:0:0:0:
283,142,19596,1,0,0:0:0:0:
336,135,19703,2,0,P|393:119|333:44,1,180,2|2,0:0|0:0,0:0:0:0:
397,38,20239,1,0,0:0:0:0:
344,18,20346,1,0,0:0:0:0:
56,263,20560,6,0,L|211:269,2,135,10|0|0,0:0|0:0|0:0,0:0:0:0:
259,213,21417,2,0,P|324:202|276:103,1,180,2|8,0:0|0:0,0:0:0:0:
21,253,22274,5,2,0:0:0:0:
169,249,22596,1,0,0:0:0:0:
317,242,22917,1,0,0:0:0:0:
114,187,23131,1,2,0:0:0:0:
184,127,23346,1,2,0:0:0:0:
168,80,23453,1,0,0:0:0:0:
123,57,23560,1,2,0:0:0:0:
31,50,23774,1,0,0:0:0:0:
321,283,23989,5,12,0:0:0:0:
256,192,24203,12,0,26989,0:0:0:0:
334,245,27417,6,0,L|448:247,2,90,4|0|2,0:0|0:0|0:0,0:0:0:0:
136,177,28060,2,0,L|32:174,2,90,8|2|0,0:0|0:0|0:0,0:0:0:0:
244,109,28703,1,10,0:0:0:0:
124,94,28917,1,2,0:0:0:0:
411,291,29131,6,0,L|420:183,1,90,0|0,0:0|0:0,0:0:0:0:
328,189,29560,1,2,0:0:0:0:
128,203,29774,2,0,L|228:212,2,90,8|2|0,0:0|0:0|0:0,0:0:0:0:
35,102,30417,2,0,L|26:195,1,90,8|2,0:0|0:0,0:0:0:0:
317,290,30846,6,0,L|420:296,2,90,0|0|2,0:0|0:0|0:0,0:0:0:0:
116,231,31489,1,8,0:0:0:0:
205,235,31703,2,0,L|211:118,1,90,2|0,0:0|0:0,0:0:0:0:
98,91,32131,1,10,0:0:0:0:
199,70,32346,1,2,0:0:0:0:
489,295,32560,5,8,0:0:0:0:
237,236,33417,2,0,L|233:166,1,45,0|0,0:0|0:0,0:0:0:0:
405,166,33846,2,0,L|458:169,2,45,0|0|0,0:0|0:0|0:0,0:0:0:0:
113,275,34274,6,0,L|106:71,1,180,8|8,0:0|0:0,0:0:0:0:
406,77,35131,2,0,L|414:273,1,180,8|8,0:0|0:0,0:0:0:0:
122,290,35989,6,0,L|340:276,1,180,8|8,0:0|0:0,0:0:0:0:
17,238,36846,2,0,L|29:34,1,180,8|8,0:0|0:0,0:0:0:0:
337,177,37703,6,0,L|444:177,3,90,8|8|8|8,0:0|0:0|0:0|0:0,0:0:0:0:
226,103,38560,2,0,L|117:101,3,90,8|8|8|8,0:0|0:0|0:0|0:0,0:0:0:0:
418,294,39417,5,8,0:0:0:0:
466,270,39524,1,8,0:0:0:0:
497,225,39631,1,8,0:0:0:0:
498,170,39739,1,8,0:0:0:0:
480,118,39846,1,8,0:0:0:0:
438,83,39953,1,8,0:0:0:0:
388,62,40060,1,8,0:0:0:0:
100,274,40274,6,0,P|49:265|103:175,1,180,0|0,0:0|0:0,0:0:0:0:
404,258,41131,6,0,L|409:190,1,45,2|0,0:0|0:0,0:0:0:0:
297,186,41453,1,0,0:0:0:0:
428,159,41560,2,0,L|438:60,1,90,8|2,0:0|0:0,0:0:0:0:
312,49,41989,1,0,0:0:0:0:
365,45,42096,1,2,0:0:0:0:
418,42,42203,1,0,0:0:0:0:
219,224,42417,2,0,L|328:219,1,90,8|0,0:0|0:0,0:0:0:0:
21,216,42846,6,0,L|28:112,1,90,2|0,0:0|0:0,0:0:0:0:
80,128,43167,1,0,0:0:0:0:
206,138,43274,1,8,0:0:0:0:
258,126,43381,1,0,0:0:0:0:
287,80,43489,1,2,0:0:0:0:
271,28,43596,1,0,0:0:0:0:
134,178,43703,5,2,0:0:0:0:
96,222,43810,1,0,0:0:0:0:
95,280,43917,1,2,0:0:0:0:
140,316,44024,1,0,0:0:0:0:
269,295,44131,2,0,L|164:290,1,90,10|2,0:0|0:0,0:0:0:0:
463,258,44560,6,0,L|468:200,1,45,2|0,0:0|0:0,0:0:0:0:
368,202,44881,1,0,0:0:0:0:
224,200,44989,2,0,L|221:98,1,90,8|2,0:0|0:0,0:0:0:0:
274,103,45310,1,0,0:0:0:0:
310,142,45417,1,0,0:0:0:0:
302,195,45524,1,2,0:0:0:0:
255,221,45631,1,0,0:0:0:0:
453,303,45846,2,0,L|462:190,1,90,8|0,0:0|0:0,0:0:0:0:
173,202,46274,6,0,L|73:197,1,90,2|0,0:0|0:0,0:0:0:0:
128,194,46596,1,0,0:0:0:0:
267,198,46703,1,8,0:0:0:0:
311,202,46810,1,0,0:0:0:0:
267,198,46917,1,2,0:0:0:0:
222,192,47024,1,0,0:0:0:0:
361,163,47131,5,2,0:0:0:0:
409,138,47239,1,0,0:0:0:0:
423,86,47346,1,2,0:0:0:0:
392,41,47453,1,0,0:0:0:0:
254,83,47560,2,0,L|358:90,1,90,10|2,0:0|0:0,0:0:0:0:
55,268,47989,6,0,L|50:207,1,45,2|0,0:0|0:0,0:0:0:0:
147,214,48310,1,0,0:0:0:0:
288,221,48417,2,0,L|296:113,1,90,8|2,0:0|0:0,0:0:0:0:
240,102,48739,1,0,0:0:0:0:
186,88,48846,1,0,0:0:0:0:
235,84,48953,1,2,0:0:0:0:
284,81,49060,1,0,0:0:0:0:
85,151,49274,2,0,L|81:271,1,90,8|0,0:0|0:0,0:0:0:0:
375,268,49703,6,0,L|380:157,1,90,2|2,0:0|0:0,0:0:0:0:
329,174,50024,1,0,0:0:0:0:
193,178,50131,1,8,0:0:0:0:
148,155,50239,1,0,0:0:0:0:
146,105,50346,1,2,0:0:0:0:
192,88,50453,1,0,0:0:0:0:
331,81,50560,5,2,0:0:0:0:
372,108,50667,1,0,0:0:0:0:
371,157,50774,1,2,0:0:0:0:
332,188,50881,1,0,0:0:0:0:
191,248,50989,2,0,L|85:243,1,90,10|2,0:0|0:0,0:0:0:0:
393,238,51417,6,0,L|396:177,1,45,2|0,0:0|0:0,0:0:0:0:
292,182,51739,1,0,0:0:0:0:
422,115,51846,2,0,L|435:14,1,90,8|2,0:0|0:0,0:0:0:0:
388,19,52167,1,0,0:0:0:0:
339,51,52274,1,0,0:0:0:0:
336,109,52381,1,2,0:0:0:0:
376,151,52489,1,0,0:0:0:0:
177,238,52703,2,0,L|72:231,1,90,8|0,0:0|0:0,0:0:0:0:
374,205,53131,6,0,L|435:208,2,45,2|0|0,0:0|0:0|0:0,0:0:0:0:
238,146,53453,2,0,L|166:142,2,45,2|0|0,0:0|0:0|0:0,0:0:0:0:
306,114,53774,1,2,0:0:0:0:
21,262,53989,1,4,0:0:0:0:
298,314,54846,6,0,P|360:310|276:141,1,360,10|0,0:0|0:0,0:0:0:0:
106,246,56131,6,0,L|104:145,1,90,0|0,0:0|0:0,0:0:0:0:
305,162,56560,2,0,L|312:108,1,45,8|8,0:0|0:0,0:0:0:0:
205,96,56881,1,8,0:0:0:0:
381,296,57417,2,0,L|444:300,1,45,2|0,0:0|0:0,0:0:0:0:
268,205,57846,2,0,L|371:201,1,90,0|0,0:0|0:0,0:0:0:0:
160,130,58274,6,0,L|110:127,1,45,8|8,0:0|0:0,0:0:0:0:
218,59,58596,1,8,0:0:0:0:
55,244,58917,2,0,L|203:254,2,135,8|8|8,0:0|0:0|0:0,0:0:0:0:
342,226,59989,6,0,L|349:160,1,45,8|8,0:0|0:0,0:0:0:0:
245,167,60310,1,8,0:0:0:0:
390,122,60631,2,0,L|398:20,1,90,8|2,0:0|0:0,0:0:0:0:
351,27,60953,1,0,0:0:0:0:
219,199,61274,2,0,L|335:195,1,90,0|0,0:0|0:0,0:0:0:0:
108,142,61703,6,0,L|107:84,1,45,8|8,0:0|0:0,0:0:0:0:
208,84,62024,1,8,0:0:0:0:
39,257,62560,2,0,L|94:253,1,45,2|0,0:0|0:0,0:0:0:0:
236,172,62989,2,0,L|116:160,1,90,0|0,0:0|0:0,0:0:0:0:
349,280,63417,6,0,L|352:227,1,45,8|8,0:0|0:0,0:0:0:0:
235,222,63739,1,8,0:0:0:0:
425,150,64274,2,0,L|361:148,1,45,2|0,0:0|0:0,0:0:0:0:
211,135,64703,2,0,L|114:131,1,90,0|0,0:0|0:0,0:0:0:0:
419,289,65131,5,8,0:0:0:0:
283,284,65453,1,8,0:0:0:0:
148,278,65774,1,8,0:0:0:0:
283,284,66096,1,8,0:0:0:0:
422,291,66417,2,0,L|330:289,1,90,8|8,0:0|0:0,0:0:0:0:
42,238,66846,5,4,0:0:0:0:
132,241,67060,2,0,P|184:230|113:104,1,270,2|0,0:0|0:0,0:0:0:0:
325,272,68560,2,0,L|327:166,1,90,8|8,0:0|0:0,0:0:0:0:
148,122,69417,2,0,L|301:117,1,135,2|0,0:0|0:0,0:0:0:0:
147,205,69846,2,0,L|28:210,1,90,8|0,0:0|0:0,0:0:0:0:
357,305,70274,6,0,P|388:277|321:216,1,150,4|0,0:0|0:0,0:0:0:0:
298,215,70703,1,8,0:0:0:0:
412,161,70917,1,0,0:0:0:0:
218,120,71131,2,0,L|208:240,1,90,0|0,0:0|0:0,0:0:0:0:
411,71,71560,2,0,L|463:73,2,45,10|2|2,0:0|0:0|0:0,0:0:0:0:
112,295,71989,6,0,P|59:278|111:222,1,150,0|0,0:0|0:0,0:0:0:0:
130,220,72417,1,8,0:0:0:0:
226,218,72631,1,0,0:0:0:0:
29,157,72846,2,0,B|206:144|206:144|102:121,1,270,2|0,0:0|0:0,0:0:0:0:
404,283,73703,6,0,L|463:285,2,45,0|0|0,0:0|0:0|0:0,0:0:0:0:
201,265,74131,2,0,L|199:156,1,90,8|0,0:0|0:0,0:0:0:0:
289,175,74560,1,0,0:0:0:0:
19,116,74989,2,0,L|23:62,1,45,10|2,0:0|0:0,0:0:0:0:
67,73,75203,1,2,0:0:0:0:
359,302,75417,6,0,L|185:292,1,150,0|0,0:0|0:0,0:0:0:0:
177,293,75846,1,8,0:0:0:0:
276,238,76060,1,0,0:0:0:0:
74,222,76274,2,0,L|68:108,1,90,8|0,0:0|0:0,0:0:0:0:
276,74,76703,2,0,L|146:68,1,90,8|0,0:0|0:0,0:0:0:0:
478,319,77131,6,0,L|483:145,1,150,0|0,0:0|0:0,0:0:0:0:
483,138,77560,1,8,0:0:0:0:
391,135,77774,1,0,0:0:0:0:
193,132,77989,2,0,L|187:252,1,90,0|0,0:0|0:0,0:0:0:0:
388,271,78417,2,0,L|447:272,2,45,10|2|2,0:0|0:0|0:0,0:0:0:0:
102,295,78846,6,0,P|71:258|145:205,1,150,0|0,0:0|0:0,0:0:0:0:
171,209,79274,1,8,0:0:0:0:
51,148,79489,1,0,0:0:0:0:
244,164,79703,2,0,L|251:57,1,90,0|0,0:0|0:0,0:0:0:0:
200,71,80024,1,0,0:0:0:0:
63,64,80131,2,0,L|57:122,1,45,8|0,0:0|0:0,0:0:0:0:
108,112,80346,1,0,0:0:0:0:
392,298,80560,5,0,0:0:0:0:
441,299,80667,2,0,L|445:226,1,45,0|0,0:0|0:0,0:0:0:0:
243,210,80989,2,0,L|336:203,1,90,8|0,0:0|0:0,0:0:0:0:
218,128,81417,1,0,0:0:0:0:
496,131,81846,2,0,L|493:66,1,45,10|2,0:0|0:0,0:0:0:0:
444,85,82060,1,2,0:0:0:0:
158,256,82274,6,0,P|101:244|134:179,1,150,0|0,0:0|0:0,0:0:0:0:
169,179,82703,1,8,0:0:0:0:
264,180,82917,1,0,0:0:0:0:
67,123,83131,2,0,L|61:26,1,90,0|0,0:0|0:0,0:0:0:0:
110,25,83453,1,0,0:0:0:0:
247,80,83560,1,8,0:0:0:0:
197,77,83667,1,0,0:0:0:0:
147,72,83774,1,0,0:0:0:0:
447,316,83989,6,0,P|492:293|432:232,1,135,4|0,0:0|0:0,0:0:0:0:
414,225,84417,2,0,L|506:208,1,90,8|0,0:0|0:0,0:0:0:0:
300,133,84846,2,0,L|184:123,1,90,2|0,0:0|0:0,0:0:0:0:
316,61,85274,2,0,L|323:191,1,90,0|0,0:0|0:0,0:0:0:0:
32,258,85703,5,0,0:0:0:0:
121,260,85917,2,0,P|204:258|244:161,1,180,0|0,0:0|0:0,0:0:0:0:
48,163,86560,2,0,L|44:54,1,90,8|0,0:0|0:0,0:0:0:0:
151,45,86989,1,0,0:0:0:0:
106,45,87096,1,0,0:0:0:0:
61,44,87203,1,0,0:0:0:0:
369,252,87417,5,2,0:0:0:0:
202,179,87846,1,8,0:0:0:0:
405,160,88060,1,2,0:0:0:0:
223,74,88489,1,2,0:0:0:0:
423,57,88703,2,0,L|429:171,1,90,0|0,0:0|0:0,0:0:0:0:
313,227,89131,1,0,0:0:0:0:
358,232,89239,1,0,0:0:0:0:
402,232,89346,1,0,0:0:0:0:
120,247,89560,5,0,0:0:0:0:
30,249,89774,2,0,L|37:138,1,90,8|2,0:0|0:0,0:0:0:0:
319,163,90417,1,8,0:0:0:0:
139,129,91060,1,2,0:0:0:0:
337,64,91274,2,0,L|343:166,1,90,8|0,0:0|0:0,0:0:0:0:
58,259,91703,5,0,0:0:0:0:
160,254,91917,2,0,L|348:243,1,180,0|0,0:0|0:0,0:0:0:0:
245,181,92560,2,0,L|222:71,1,90,0|0,0:0|0:0,0:0:0:0:
418,78,92989,2,0,L|475:79,2,45,0|0|0,0:0|0:0|0:0,0:0:0:0:
126,232,93417,5,2,0:0:0:0:
308,192,93846,1,8,0:0:0:0:
107,144,94060,1,2,0:0:0:0:
284,92,94489,1,8,0:0:0:0:
83,51,94703,1,2,0:0:0:0:
325,222,95346,1,0,0:0:0:0:
228,172,95560,1,0,0:0:0:0:
272,166,95667,1,0,0:0:0:0:
316,159,95774,1,0,0:0:0:0:
117,293,95989,6,0,P|66:280|99:216,1,135,0|0,0:0|0:0,0:0:0:0:
133,213,96417,1,2,0:0:0:0:
420,142,96846,2,0,L|311:134,3,90,8|2|2|2,0:0|0:0|0:0|0:0,0:0:0:0:
131,266,97703,6,0,L|125:160,1,90,8|2,0:0|0:0,0:0:0:0:
229,127,98131,2,0,L|114:115,1,90,0|0,0:0|0:0,0:0:0:0:
434,283,98560,5,0,0:0:0:0:
344,284,98774,2,0,P|272:270|294:176,1,180,0|0,0:0|0:0,0:0:0:0:
484,182,99417,2,0,L|488:68,1,90,2|0,0:0|0:0,0:0:0:0:
287,62,99846,1,0,0:0:0:0:
331,59,99953,1,0,0:0:0:0:
375,55,100060,1,0,0:0:0:0:
88,272,100274,6,0,L|82:165,1,90,2|2,0:0|0:0,0:0:0:0:
285,169,100703,2,0,L|280:57,1,90,8|2,0:0|0:0,0:0:0:0:
171,40,101131,2,0,L|269:36,1,90,2|2,0:0|0:0,0:0:0:0:
462,258,101560,5,8,0:0:0:0:
258,250,101989,2,0,L|250:136,1,90,0|0,0:0|0:0,0:0:0:0:
356,144,102417,2,0,L|402:143,2,45,0|0|0,0:0|0:0|0:0,0:0:0:0:
158,83,102846,2,0,L|97:85,2,45,0|0|0,0:0|0:0|0:0,0:0:0:0:
445,282,103274,6,0,L|340:275,1,90,8|8,0:0|0:0,0:0:0:0:
151,251,103703,2,0,L|148:134,1,90,4|2,0:0|0:0,0:0:0:0:
344,154,104131,5,2,0:0:0:0:
383,131,104239,1,0,0:0:0:0:
399,89,104346,1,2,0:0:0:0:
375,50,104453,1,0,0:0:0:0:
334,31,104560,1,2,0:0:0:0:
229,31,104774,1,0,0:0:0:0:
427,208,104989,2,0,L|434:323,1,90,8|0,0:0|0:0,0:0:0:0:
140,268,105417,5,0,0:0:0:0:
229,270,105631,2,0,P|279:237|205:159,1,180,0|0,0:0|0:0,0:0:0:0:
26,154,106274,2,0,L|30:39,1,90,2|2,0:0|0:0,0:0:0:0:
144,36,106703,1,0,0:0:0:0:
99,31,106810,1,0,0:0:0:0:
54,26,106917,1,0,0:0:0:0:
349,242,107131,5,6,0:0:0:0:
193,238,107560,1,0,0:0:0:0:
193,238,107774,1,0,0:0:0:0:
393,244,107989,1,2,0:0:0:0:
172,245,108846,6,0,L|160:192,2,45
261,140,109274,2,0,L|313:137,2,45
63,79,109703,1,0,0:0:0:0:
107,77,109810,1,0,0:0:0:0:
151,71,109917,1,0,0:0:0:0:
195,70,110024,1,0,0:0:0:0:
239,69,110131,1,0,0:0:0:0:
147,141,110346,1,0,0:0:0:0:
428,213,110560,5,6,0:0:0:0:
256,192,110989,12,0,112703,0:0:0:0:
256,192,113131,12,0,116989,0:0:0:0:
