osu file format v14

[General]
AudioFilename: audio.mp3
AudioLeadIn: 0
PreviewTime: 36739
Countdown: 0
SampleSet: Drum
StackLeniency: 0.7
Mode: 2
LetterboxInBreaks: 0
WidescreenStoryboard: 1

[Editor]
Bookmarks: 11989,27417,41131,54846,70274,83989,107131,116989
DistanceSpacing: 1.2
BeatDivisor: 4
GridSize: 8
TimelineZoom: 1.4

[Metadata]
Title:Unconquered
TitleUnicode:Unconquered
Artist:Helblinde
ArtistUnicode:Helblinde
Creator:Du5t
Version:MBomb's Salad
Source:osu!
Tags:FA featured artist idust idu5t jbh jbhyperion mbomb magic bomb dust electronic instrumental Omnia Vanitas
BeatmapID:2228317
BeatmapSetID:975136

[Difficulty]
HPDrainRate:4
CircleSize:2.5
OverallDifficulty:7
ApproachRate:7
SliderMultiplier:1.6
SliderTickRate:1

[Events]
//Background and Video events
0,0,"landscape-tree-nature-forest-plant-fog-686646-pxhere.com.jpg",0,0
//Break Periods
2,24189,26517
//Storyboard Layer 0 (Background)
//Storyboard Layer 1 (Fail)
//Storyboard Layer 2 (Pass)
//Storyboard Layer 3 (Foreground)
//Storyboard Layer 4 (Overlay)
//Storyboard Sound Samples

[TimingPoints]
-11,428.571428571429,4,2,0,60,1,0
11989,-100,4,3,11,50,0,0
13703,-100,4,3,11,60,0,0
21203,-100,4,3,11,60,0,0
21310,-100,4,3,11,60,0,0
23131,-100,4,3,11,60,0,0
23667,-100,4,3,11,60,0,0
27417,-100,4,3,22,65,0,0
32560,-100,4,3,22,60,0,0
33417,-100,4,3,22,60,0,0
34274,-100,4,3,33,70,0,0
37703,-100,4,3,33,75,0,0
39417,-100,4,3,33,80,0,0
40274,-100,4,3,33,60,0,0
41131,-100,4,3,33,85,0,1
53989,-100,4,3,11,60,0,0
56131,-100,4,3,11,60,0,0
56346,-100,4,3,11,60,0,0
57846,-100,4,3,11,60,0,0
58061,-100,4,3,11,60,0,0
59560,-100,4,3,11,60,0,0
59775,-100,4,3,11,60,0,0
62989,-100,4,3,11,60,0,0
63204,-100,4,3,11,60,0,0
64703,-100,4,3,11,60,0,0
64918,-100,4,3,11,60,0,0
70274,-100,4,3,44,85,0,1
72846,-100,4,3,44,85,0,1
73274,-100,4,3,44,85,0,1
83989,-100,4,3,33,60,0,0
85274,-100,4,3,33,60,0,0
85703,-100,4,3,33,70,0,0
85917,-100,4,3,33,60,0,0
86346,-100,4,3,33,60,0,0
86989,-100,4,3,33,60,0,0
87096,-100,4,3,33,60,0,0
87417,-100,4,3,33,60,0,0
89131,-100,4,3,33,60,0,0
89560,-100,4,3,33,60,0,0
91274,-100,4,3,33,60,0,0
91703,-100,4,3,33,70,0,0
92989,-100,4,3,33,60,0,0
93096,-100,4,3,33,60,0,0
93417,-100,4,3,33,60,0,0
95989,-100,4,3,33,60,0,0
96417,-100,4,3,33,60,0,0
98131,-100,4,3,33,60,0,0
98560,-100,4,3,33,70,0,0
99846,-100,4,3,33,60,0,0
99953,-100,4,3,33,60,0,0
100274,-100,4,3,33,60,0,0
102846,-100,4,3,33,60,0,0
103274,-100,4,3,33,60,0,0
104989,-100,4,3,33,60,0,0
105417,-100,4,3,33,70,0,0
106703,-100,4,3,33,60,0,0
106810,-100,4,3,33,60,0,0
107131,-100,4,3,33,50,0,0
107560,-100,4,3,33,60,0,0
107774,-100,4,3,33,60,0,0
108417,-100,4,3,33,60,0,0
108631,-100,4,3,33,60,0,0
108846,-100,4,3,33,70,0,0
110774,-100,4,3,33,50,0,0
116989,-100,4,3,33,60,0,0

[Colours]
Combo1 : 0,125,0
Combo2 : 1,228,18
Combo3 : 192,225,4

[HitObjects]
240,192,11989,5,0,0:0:0:0:
336,192,12203,1,0,0:0:0:0:
240,192,12417,2,0,L|152:192,1,80,0|0,0:0|0:0,0:0:0:0:
384,192,12846,2,0,L|472:192,2,80,2|2|2,0:0|0:0|0:0,0:0:0:0:
64,192,13703,6,0,L|192:192,2,120,12|0|0,0:0|0:0|0:0,0:0:0:0:
160,192,14560,1,2,0:0:0:0:
337,192,14989,1,8,0:0:0:0:
160,192,15417,6,0,P|80:168|64:104,2,120,2|0|0,0:0|0:0|0:0,0:0:0:0:
256,192,16274,2,0,L|344:192,1,80,2|0,0:0|0:0,0:0:0:0:
224,192,16703,2,0,L|144:192,1,80,2|2,0:0|0:0,0:0:0:0:
368,192,17131,6,0,P|456:176|480:128,2,120,10|0|0,0:0|0:0|0:0,0:0:0:0:
256,192,17989,1,2,0:0:0:0:
440,192,18417,1,8,0:0:0:0:
248,192,18846,5,2,0:0:0:0:
168,192,19060,1,0,0:0:0:0:
280,192,19274,2,0,L|368:192,1,80,0|0,0:0|0:0,0:0:0:0:
248,192,19703,2,0,P|152:168|136:112,1,160,2|2,0:0|0:0,0:0:0:0:
224,192,20346,1,0,0:0:0:0:
448,192,20560,6,0,P|408:144|344:128,2,120,10|0|0,0:0|0:0|0:0,0:0:0:0:
352,192,21417,1,2,0:0:0:0:
176,192,21846,1,8,0:0:0:0:
352,192,22274,6,0,P|440:160|448:128,2,120,2|0|0,0:0|0:0|0:0,0:0:0:0:
128,192,23131,2,0,P|40:168|48:96,1,160,2|2,0:0|0:0,0:0:0:0:
368,192,23989,5,12,0:0:0:0:
368,192,27417,6,0,L|448:192,2,80,4|0|2,0:0|0:0|0:0,0:0:0:0:
272,192,28060,1,8,0:0:0:0:
176,192,28274,2,0,L|344:192,1,160,2|10,0:0|0:0,0:0:0:0:
240,192,28917,1,2,0:0:0:0:
16,192,29131,6,0,P|8:160|96:96,1,160,0|2,0:0|0:0,0:0:0:0:
200,192,29774,1,8,0:0:0:0:
104,192,29989,2,0,L|24:192,2,80,2|0|8,0:0|0:0|0:0,0:0:0:0:
200,192,30631,1,2,0:0:0:0:
424,192,30846,6,0,P|480:176|424:136,1,160,0|2,0:0|0:0,0:0:0:0:
312,192,31489,2,0,L|232:192,2,80,8|2|0,0:0|0:0|0:0,0:0:0:0:
424,192,32131,1,10,0:0:0:0:
312,192,32346,1,2,0:0:0:0:
88,192,32560,6,0,P|48:176|96:104,1,160,8|0,0:0|0:0,0:0:0:0:
216,192,33417,1,0,0:0:0:0:
40,192,33846,2,0,L|120:192,1,80,0|0,0:0|0:0,0:0:0:0:
344,192,34274,5,8,0:0:0:0:
184,192,34703,2,0,L|184:112,1,80,8|0,0:0|0:0,0:0:0:0:
296,192,35131,1,8,0:0:0:0:
480,192,35560,2,0,L|480:104,1,80,8|0,0:0|0:0,0:0:0:0:
256,192,35989,5,8,0:0:0:0:
80,192,36417,2,0,L|176:192,1,80,8|0,0:0|0:0,0:0:0:0:
272,192,36846,1,8,0:0:0:0:
96,192,37274,2,0,L|184:192,1,80,8|0,0:0|0:0,0:0:0:0:
400,192,37703,5,8,0:0:0:0:
480,192,37917,1,8,0:0:0:0:
480,192,38131,1,8,0:0:0:0:
400,192,38346,1,8,0:0:0:0:
176,192,38560,1,8,0:0:0:0:
96,192,38774,1,8,0:0:0:0:
96,192,38989,1,8,0:0:0:0:
176,192,39203,1,8,0:0:0:0:
400,192,39417,6,0,L|488:192,3,80,8|8|8|8,0:0|0:0|0:0|0:0,0:0:0:0:
256,192,40274,1,0,0:0:0:0:
144,192,40703,1,0,0:0:0:0:
480,192,41131,6,0,L|424:192,1,40,2|0,0:0|0:0,0:0:0:0:
288,192,41560,1,8,0:0:0:0:
192,192,41774,2,0,L|192:144,1,40,2|0,0:0|0:0,0:0:0:0:
288,192,42096,2,0,L|288:144,1,40,2|0,0:0|0:0,0:0:0:0:
176,192,42417,2,0,L|80:192,1,80,8|0,0:0|0:0,0:0:0:0:
320,192,42846,5,2,0:0:0:0:
192,192,43274,1,8,0:0:0:0:
304,192,43489,2,0,L|384:192,2,80,2|2|2,0:0|0:0|0:0,0:0:0:0:
192,192,44131,2,0,L|280:192,1,80,10|2,0:0|0:0,0:0:0:0:
48,192,44560,6,0,L|48:152,1,40,2|0,0:0|0:0,0:0:0:0:
192,192,44989,1,8,0:0:0:0:
288,192,45203,2,0,L|288:144,1,40,2|0,0:0|0:0,0:0:0:0:
192,192,45524,2,0,L|192:144,1,40,2|0,0:0|0:0,0:0:0:0:
304,192,45846,2,0,L|400:192,1,80,8|0,0:0|0:0,0:0:0:0:
160,192,46274,6,0,P|56:176|32:128,1,160,2|8,0:0|0:0,0:0:0:0:
136,192,46917,2,0,L|224:192,2,80,2|2|2,0:0|0:0|0:0,0:0:0:0:
24,192,47560,2,0,L|24:112,1,80,10|2,0:0|0:0,0:0:0:0:
248,192,47989,6,0,L|320:192,1,40,2|0,0:0|0:0,0:0:0:0:
144,192,48417,1,8,0:0:0:0:
240,192,48631,2,0,L|240:144,1,40,2|0,0:0|0:0,0:0:0:0:
144,192,48953,2,0,L|144:144,1,40,2|0,0:0|0:0,0:0:0:0:
240,192,49274,2,0,L|352:192,1,80,8|0,0:0|0:0,0:0:0:0:
96,192,49703,6,0,P|40:176|72:96,1,160,2|8,0:0|0:0,0:0:0:0:
176,192,50346,1,2,0:0:0:0:
96,192,50560,1,2,0:0:0:0:
16,192,50774,1,2,0:0:0:0:
112,192,50989,1,10,0:0:0:0:
208,192,51203,1,2,0:0:0:0:
432,192,51417,6,0,L|488:192,1,40,2|0,0:0|0:0,0:0:0:0:
328,192,51846,1,8,0:0:0:0:
424,192,52060,2,0,L|424:144,1,40,2|0,0:0|0:0,0:0:0:0:
328,192,52381,2,0,L|328:144,1,40,2|0,0:0|0:0,0:0:0:0:
424,192,52703,2,0,L|328:192,1,80,8|0,0:0|0:0,0:0:0:0:
120,192,53131,6,0,P|48:176|32:120,2,120,2|2|2,0:0|0:0|0:0,0:0:0:0:
352,192,53989,2,0,P|408:144|352:120,1,160,4|0,0:0|0:0,0:0:0:0:
256,192,54631,1,0,0:0:0:0:
32,192,54846,6,0,P|16:160|112:104,1,160,10|0,0:0|0:0,0:0:0:0:
240,192,55703,1,0,0:0:0:0:
48,192,56131,2,0,L|152:192,1,80,0|0,0:0|0:0,0:0:0:0:
352,192,56560,6,0,L|408:192,1,40,8|8,0:0|0:0,0:0:0:0:
280,192,56881,1,8,0:0:0:0:
104,192,57417,1,2,0:0:0:0:
216,192,57631,1,0,0:0:0:0:
312,192,57846,2,0,L|400:192,1,80,0|0,0:0|0:0,0:0:0:0:
168,192,58274,6,0,L|120:192,1,40,8|8,0:0|0:0,0:0:0:0:
240,192,58596,1,8,0:0:0:0:
96,192,58917,1,8,0:0:0:0:
240,192,59239,1,8,0:0:0:0:
96,192,59560,2,0,L|176:192,1,80,8|0,0:0|0:0,0:0:0:0:
400,192,59989,6,0,L|456:192,1,40,8|8,0:0|0:0,0:0:0:0:
328,192,60310,1,8,0:0:0:0:
184,192,60631,1,8,0:0:0:0:
328,192,60953,1,0,0:0:0:0:
472,192,61274,2,0,L|392:192,1,80,0|0,0:0|0:0,0:0:0:0:
160,192,61703,6,0,L|96:192,1,40,8|8,0:0|0:0,0:0:0:0:
232,192,62024,1,8,0:0:0:0:
408,192,62560,1,2,0:0:0:0:
312,192,62774,1,0,0:0:0:0:
216,192,62989,2,0,L|120:192,1,80,0|0,0:0|0:0,0:0:0:0:
360,192,63417,6,0,L|360:144,1,40,8|8,0:0|0:0,0:0:0:0:
248,192,63739,1,8,0:0:0:0:
64,192,64274,1,2,0:0:0:0:
160,192,64489,1,0,0:0:0:0:
64,192,64703,2,0,L|152:192,1,80,0|0,0:0|0:0,0:0:0:0:
368,192,65131,6,0,P|448:160|456:120,1,120,8|8,0:0|0:0,0:0:0:0:
312,192,65774,2,0,L|192:192,1,120,8|8,0:0|0:0,0:0:0:0:
360,192,66417,2,0,L|440:192,1,80,8|8,0:0|0:0,0:0:0:0:
216,192,66846,6,0,L|216:112,1,80,4|2,0:0|0:0,0:0:0:0:
216,192,68560,6,0,L|216:112,1,80,8|8,0:0|0:0,0:0:0:0:
216,192,69417,1,2,0:0:0:0:
392,192,69846,1,8,0:0:0:0:
72,192,70274,6,0,P|16:144|88:120,1,160,4|8,0:0|0:0,0:0:0:0:
168,192,70917,1,0,0:0:0:0:
264,192,71131,1,0,0:0:0:0:
88,192,71560,2,0,L|176:192,1,80,10|2,0:0|0:0,0:0:0:0:
392,192,71989,5,0,0:0:0:0:
216,192,72417,2,0,L|216:112,1,80,8|0,0:0|0:0,0:0:0:0:
384,192,73060,2,0,L|464:192,2,80,0|8|0,0:0|0:0|0:0,0:0:0:0:
160,192,73703,5,0,0:0:0:0:
336,192,74131,2,0,L|424:192,2,80,8|0|0,0:0|0:0|0:0,0:0:0:0:
160,192,74989,2,0,L|240:192,1,80,10|2,0:0|0:0,0:0:0:0:
464,192,75417,5,0,0:0:0:0:
288,192,75846,2,0,L|208:192,1,80,8|0,0:0|0:0,0:0:0:0:
320,192,76274,2,0,L|408:192,1,80,8|0,0:0|0:0,0:0:0:0:
296,192,76703,2,0,L|400:192,1,80,8|0,0:0|0:0,0:0:0:0:
152,192,77131,6,0,P|56:160|40:104,1,160,0|8,0:0|0:0,0:0:0:0:
128,192,77774,1,0,0:0:0:0:
216,192,77989,1,0,0:0:0:0:
120,192,78203,1,0,0:0:0:0:
24,192,78417,2,0,L|120:192,1,80,10|2,0:0|0:0,0:0:0:0:
328,192,78846,5,0,0:0:0:0:
488,192,79274,2,0,L|384:192,1,80,8|0,0:0|0:0,0:0:0:0:
296,192,79703,1,0,0:0:0:0:
408,192,79917,2,0,L|496:192,2,80,0|8|0,0:0|0:0|0:0,0:0:0:0:
184,192,80560,5,0,0:0:0:0:
16,192,80989,2,0,L|120:192,1,80,8|0,0:0|0:0,0:0:0:0:
192,192,81417,1,0,0:0:0:0:
288,192,81631,1,0,0:0:0:0:
192,192,81846,2,0,L|104:192,1,80,10|2,0:0|0:0,0:0:0:0:
336,192,82274,5,0,0:0:0:0:
176,192,82703,2,0,L|80:192,1,80,8|0,0:0|0:0,0:0:0:0:
192,192,83131,1,0,0:0:0:0:
288,192,83346,1,0,0:0:0:0:
384,192,83560,2,0,L|296:192,1,80,8|0,0:0|0:0,0:0:0:0:
80,192,83989,6,0,P|24:152|72:120,1,120,4|0,0:0|0:0,0:0:0:0:
96,192,84417,1,8,0:0:0:0:
272,192,84846,1,2,0:0:0:0:
184,192,85060,1,0,0:0:0:0:
96,192,85274,2,0,L|176:192,1,80,0|0,0:0|0:0,0:0:0:0:
400,192,85703,5,0,0:0:0:0:
480,192,85917,2,0,P|496:128|424:72,1,160,0|0,0:0|0:0,0:0:0:0:
320,192,86560,2,0,L|224:192,1,80,8|0,0:0|0:0,0:0:0:0:
351,192,86989,2,0,L|351:152,1,40,0|0,0:0|0:0,0:0:0:0:
64,192,87417,6,0,P|16:168|80:112,1,160,2|8,0:0|0:0,0:0:0:0:
184,192,88060,2,0,L|16:192,1,160,2|2,0:0|0:0,0:0:0:0:
120,192,88703,1,0,0:0:0:0:
216,192,88917,1,0,0:0:0:0:
120,192,89131,6,0,L|120:152,1,40,0|0,0:0|0:0,0:0:0:0:
408,192,89560,2,0,L|488:192,1,80,0|8,0:0|0:0,0:0:0:0:
376,192,89989,6,0,P|384:144|496:120,1,160,2|8,0:0|0:0,0:0:0:0:
480,192,91060,1,2,0:0:0:0:
368,192,91274,2,0,L|464:192,1,80,8|0,0:0|0:0,0:0:0:0:
224,192,91703,5,0,0:0:0:0:
128,192,91917,2,0,P|88:160|160:96,1,160,0|0,0:0|0:0,0:0:0:0:
248,192,92560,2,0,L|328:192,1,80,0|0,0:0|0:0,0:0:0:0:
216,192,92989,2,0,L|168:192,1,40,0|0,0:0|0:0,0:0:0:0:
464,192,93417,6,0,P|488:152|408:96,1,160,2|8,0:0|0:0,0:0:0:0:
312,192,94060,2,0,P|472:192|472:192,1,160,2|8,0:0|0:0,0:0:0:0:
368,192,94703,5,2,0:0:0:0:
272,192,94917,2,0,L|272:112,1,80,0|0,0:0|0:0,0:0:0:0:
392,192,95346,2,0,L|480:192,2,80,0|0|0,0:0|0:0|0:0,0:0:0:0:
272,192,95989,2,0,L|464:192,1,160,0|2,0:0|0:0,0:0:0:0:
112,192,96846,5,8,0:0:0:0:
208,192,97060,2,0,L|296:192,2,80,2|2|2,0:0|0:0|0:0,0:0:0:0:
112,192,97703,2,0,L|32:192,1,80,8|2,0:0|0:0,0:0:0:0:
128,192,98131,2,0,L|40:192,1,80,0|0,0:0|0:0,0:0:0:0:
272,192,98560,6,0,L|376:192,1,80,0|0,0:0|0:0,0:0:0:0:
192,192,99203,1,0,0:0:0:0:
96,192,99417,2,0,L|208:192,1,80,2|0,0:0|0:0,0:0:0:0:
288,192,99846,2,0,L|344:192,1,40,0|0,0:0|0:0,0:0:0:0:
32,192,100274,6,0,L|136:192,1,80,2|2,0:0|0:0,0:0:0:0:
224,192,100703,1,8,0:0:0:0:
128,192,100917,2,0,L|48:192,2,80,2|2|2,0:0|0:0|0:0,0:0:0:0:
240,192,101560,1,8,0:0:0:0:
432,192,101989,6,0,L|432:104,1,80,0|0,0:0|0:0,0:0:0:0:
336,192,102417,2,0,L|232:192,1,80,0|0,0:0|0:0,0:0:0:0:
368,192,102846,2,0,L|432:192,1,40,0|0,0:0|0:0,0:0:0:0:
264,192,103274,1,8,0:0:0:0:
168,192,103489,1,8,0:0:0:0:
280,192,103703,6,0,L|360:192,2,80,4|2|2,0:0|0:0|0:0,0:0:0:0:
184,192,104346,1,2,0:0:0:0:
24,192,104774,1,0,0:0:0:0:
120,192,104989,2,0,L|40:192,1,80,8|0,0:0|0:0,0:0:0:0:
264,192,105417,5,0,0:0:0:0:
368,192,105631,2,0,P|432:168|360:128,1,160,0|0,0:0|0:0,0:0:0:0:
272,192,106274,2,0,L|176:192,1,80,2|2,0:0|0:0,0:0:0:0:
304,192,106703,2,0,L|360:192,1,40,0|0,0:0|0:0,0:0:0:0:
48,192,107131,6,0,P|16:160|88:104,1,160,6|0,0:0|0:0,0:0:0:0:
168,192,107774,1,0,0:0:0:0:
256,192,107989,1,2,0:0:0:0:
256,192,108846,6,0,L|152:192,1,80,0|0,0:0|0:0,0:0:0:0:
64,192,109274,2,0,L|64:152,1,40,0|0,0:0|0:0,0:0:0:0:
200,192,109703,5,0,0:0:0:0:
48,192,110131,2,0,L|128:192,1,80,0|0,0:0|0:0,0:0:0:0:
360,192,110560,5,6,0:0:0:0:
256,192,110989,12,0,116989,0:0:0:0:
