osu file format v14

[General]
AudioFilename: audio.mp3
AudioLeadIn: 0
PreviewTime: 36739
Countdown: 0
SampleSet: Drum
StackLeniency: 0.7
Mode: 2
LetterboxInBreaks: 0
WidescreenStoryboard: 1

[Editor]
DistanceSpacing: 1.8
BeatDivisor: 6
GridSize: 32
TimelineZoom: 2.1

[Metadata]
Title:Unconquered
TitleUnicode:Unconquered
Artist:Helblinde
ArtistUnicode:Helblinde
Creator:Du5t
Version:Indestructible
Source:osu!
Tags:FA featured artist idust idu5t jbh jbhyperion mbomb magic bomb dust electronic instrumental Omnia Vanitas
BeatmapID:2041090
BeatmapSetID:975136

[Difficulty]
HPDrainRate:6
CircleSize:4
OverallDifficulty:9.4
ApproachRate:9.4
SliderMultiplier:2.4
SliderTickRate:2

[Events]
//Background and Video events
0,0,"landscape-tree-nature-forest-plant-fog-686646-pxhere.com.jpg",0,0
//Break Periods
//Storyboard Layer 0 (Background)
//Storyboard Layer 1 (Fail)
//Storyboard Layer 2 (Pass)
//Storyboard Layer 3 (Foreground)
//Storyboard Layer 4 (Overlay)
//Storyboard Sound Samples

[TimingPoints]
-11,428.571428571429,4,3,11,60,1,0
11989,-100,4,3,11,50,0,0
13703,-100,4,3,11,60,0,0
27417,-100,4,3,22,65,0,0
34274,-100,4,3,33,70,0,0
37703,-100,4,3,33,75,0,0
39417,-100,4,3,33,80,0,0
40274,-100,4,3,33,60,0,0
41131,-66.6666666666667,4,3,33,85,0,1
53989,-100,4,3,11,60,0,0
70274,-100,4,3,44,85,0,1
72846,-50,4,3,44,85,0,1
73274,-100,4,3,44,85,0,1
83989,-100,4,3,33,60,0,0
85274,-50,4,3,33,60,0,0
85703,-100,4,3,33,70,0,0
86989,-50,4,3,33,60,0,0
87417,-100,4,3,33,60,0,0
89131,-50,4,3,33,60,0,0
89560,-100,4,3,33,60,0,0
91274,-50,4,3,33,60,0,0
91703,-100,4,3,33,70,0,0
92989,-50,4,3,33,60,0,0
93417,-100,4,3,33,60,0,0
95989,-50,4,3,33,60,0,0
96417,-100,4,3,33,60,0,0
98131,-50,4,3,33,60,0,0
98560,-100,4,3,33,70,0,0
99846,-50,4,3,33,60,0,0
100274,-100,4,3,33,60,0,0
102846,-50,4,3,33,60,0,0
103274,-100,4,3,33,60,0,0
104989,-50,4,3,33,60,0,0
105417,-100,4,3,33,70,0,0
106703,-50,4,3,33,60,0,0
107131,-100,4,3,33,50,0,0
108846,-100,4,3,33,70,0,0
110774,-100,4,3,33,50,0,0
116989,-100,4,3,33,60,0,0

[Colours]
Combo1 : 0,125,0
Combo2 : 1,228,18
Combo3 : 192,225,4

[HitObjects]
356,222,11989,5,0,0:0:0:0:
238,103,12203,1,0,0:0:0:0:
120,233,12417,1,0,0:0:0:0:
183,237,12524,1,0,0:0:0:0:
120,233,12631,1,0,0:0:0:0:
302,185,12846,2,0,L|309:120,1,60,2|0,0:0|0:0,0:0:0:0:
189,81,13060,2,0,L|128:76,1,60,2|0,0:0|0:0,0:0:0:0:
310,55,13274,1,2,0:0:0:0:
304,113,13381,1,0,0:0:0:0:
242,105,13489,1,0,0:0:0:0:
360,119,13596,1,0,0:0:0:0:
117,306,13703,6,0,P|63:267|140:202,1,180,12|0,0:0|0:0,0:0:0:0:
310,209,14346,2,0,L|312:147,1,60
190,102,14560,2,0,L|122:99,2,60,2|0|0,0:0|0:0|0:0,0:0:0:0:
471,90,14989,2,0,L|467:221,1,120,8|0,0:0|0:0,0:0:0:0:
172,291,15417,6,0,L|360:287,2,180,2|0|0,0:0|0:0|0:0,0:0:0:0:
390,202,16274,2,0,L|397:79,1,120,2|0,0:0|0:0,0:0:0:0:
336,79,16596,1,0,0:0:0:0:
216,213,16703,2,0,L|221:134,1,60,2|0,0:0|0:0,0:0:0:0:
339,310,16917,2,0,L|271:303,1,60,2|0,0:0|0:0,0:0:0:0:
69,288,17131,6,0,P|24:247|108:177,1,180,10|0,0:0|0:0,0:0:0:0:
271,116,17774,2,0,L|273:180,1,60
91,74,17989,2,0,L|27:71,2,60,2|0|0,0:0|0:0|0:0,0:0:0:0:
374,260,18417,2,0,L|506:266,1,120,8|0,0:0|0:0,0:0:0:0:
195,195,18846,5,2,0:0:0:0:
75,189,19060,1,0,0:0:0:0:
196,126,19274,2,0,L|266:127,1,60
256,66,19489,2,0,L|184:64,1,60
256,66,19703,1,2,0:0:0:0:
61,275,20131,2,0,L|56:202,1,60,2|0,0:0|0:0,0:0:0:0:
179,137,20346,2,0,L|114:140,1,60
333,270,20560,6,0,P|403:245|327:192,1,180,10|0,0:0|0:0,0:0:0:0:
175,100,21203,2,0,L|179:167,1,60
301,56,21417,1,2,0:0:0:0:
360,55,21524,1,0,0:0:0:0:
419,51,21631,1,0,0:0:0:0:
128,337,21846,2,0,L|119:198,1,120,8|0,0:0|0:0,0:0:0:0:
423,187,22274,6,0,L|229:172,2,180,2|0|0,0:0|0:0|0:0,0:0:0:0:
207,47,23131,2,0,L|291:48,1,80,2|0,0:0|0:0,0:0:0:0:
193,118,23346,2,0,L|186:202,1,60,2|0,0:0|0:0,0:0:0:0:
401,298,23560,2,0,L|408:166,1,120,2|0,0:0|0:0,0:0:0:0:
347,175,23881,1,0,0:0:0:0:
89,309,23989,5,12,0:0:0:0:
256,192,24203,12,0,27203,0:0:0:0:
322,205,27417,5,4,0:0:0:0:
202,189,27631,2,0,L|194:122,1,60
317,46,27846,2,0,L|325:130,1,60,2|0,0:0|0:0,0:0:0:0:
140,278,28060,1,8,0:0:0:0:
263,262,28274,2,0,L|256:184,1,60,2|0,0:0|0:0,0:0:0:0:
134,125,28489,2,0,L|146:208,1,60
325,119,28703,2,0,L|318:37,1,60,10|0,0:0|0:0,0:0:0:0:
260,62,28917,1,2,0:0:0:0:
381,48,29024,1,0,0:0:0:0:
168,295,29131,5,0,0:0:0:0:
290,225,29346,2,0,L|223:222,1,60
111,217,29560,2,0,L|105:298,1,60,2|0,0:0|0:0,0:0:0:0:
319,148,29774,1,8,0:0:0:0:
196,53,29989,1,2,0:0:0:0:
279,59,30096,1,0,0:0:0:0:
196,53,30203,1,0,0:0:0:0:
112,45,30310,1,0,0:0:0:0:
352,360,30417,1,8,0:0:0:0:
395,339,30471,1,0,0:0:0:0:
398,291,30524,1,0,0:0:0:0:
355,267,30578,1,0,0:0:0:0:
286,208,30631,1,2,0:0:0:0:
334,205,30685,1,0,0:0:0:0:
382,202,30739,1,0,0:0:0:0:
165,171,30846,5,0,0:0:0:0:
288,119,31060,2,0,L|363:115,1,60
228,45,31274,2,0,L|163:47,1,60,2|0,0:0|0:0,0:0:0:0:
384,41,31489,1,8,0:0:0:0:
264,212,31703,2,0,L|195:215,1,60,2|0,0:0|0:0,0:0:0:0:
327,247,31917,2,0,L|331:329,1,60
146,155,32131,2,0,L|153:73,1,60,10|0,0:0|0:0,0:0:0:0:
211,98,32345,1,2,0:0:0:0:
90,84,32452,1,0,0:0:0:0:
335,105,32560,5,8,0:0:0:0:
335,105,33417,2,0,L|341:30,1,60
209,281,33846,1,0,0:0:0:0:
166,268,33899,1,0,0:0:0:0:
166,212,33953,1,0,0:0:0:0:
208,195,34006,1,0,0:0:0:0:
277,120,34060,1,0,0:0:0:0:
228,116,34114,1,0,0:0:0:0:
180,111,34167,1,0,0:0:0:0:
402,286,34274,6,0,L|412:166,1,120,8|0,0:0|0:0,0:0:0:0:
193,69,34703,2,0,L|179:201,1,120,8|0,0:0|0:0,0:0:0:0:
402,286,35131,2,0,L|412:166,1,120,8|0,0:0|0:0,0:0:0:0:
193,69,35560,2,0,L|179:201,1,120,8|0,0:0|0:0,0:0:0:0:
470,48,35989,6,0,L|345:41,1,120,8|0,0:0|0:0,0:0:0:0:
35,280,36417,2,0,L|172:289,1,120,8|0,0:0|0:0,0:0:0:0:
493,47,36846,2,0,L|368:40,1,120,8|0,0:0|0:0,0:0:0:0:
19,278,37274,2,0,L|156:287,1,120,8|0,0:0|0:0,0:0:0:0:
496,200,37703,5,8,0:0:0:0:
328,193,37917,1,8,0:0:0:0:
160,189,38131,1,8,0:0:0:0:
328,193,38346,1,8,0:0:0:0:
22,52,38560,1,8,0:0:0:0:
237,54,38774,1,8,0:0:0:0:
453,54,38989,1,8,0:0:0:0:
118,219,39203,1,8,0:0:0:0:
478,158,39417,6,0,L|395:153,1,60,8|8,0:0|0:0,0:0:0:0:
214,147,39631,2,0,L|210:221,1,60,8|8,0:0|0:0,0:0:0:0:
452,42,39846,2,0,L|383:38,1,60,8|8,0:0|0:0,0:0:0:0:
93,323,40060,2,0,L|158:326,1,60,8|8,0:0|0:0,0:0:0:0:
486,337,40274,2,0,L|488:86,1,240
80,176,41131,6,0,L|175:173,1,90.0000034332277,2|0,0:0|0:0,0:0:0:0:
349,167,41453,1,0,0:0:0:0:
170,19,41560,2,0,L|163:116,1,90.0000034332277,8|0,0:0|0:0,0:0:0:0:
254,237,41774,2,0,L|248:342,1,90.0000034332277,2|0,0:0|0:0,0:0:0:0:
158,318,41989,1,0,0:0:0:0:
338,82,42096,2,0,L|247:74,2,90.0000034332277,2|0|0,0:0|0:0|0:0,0:0:0:0:
157,159,42417,2,0,L|145:261,1,90.0000034332277,8|0,0:0|0:0,0:0:0:0:
331,158,42631,2,0,L|228:148,1,90.0000034332277
423,309,42846,5,2,0:0:0:0:
238,269,43060,2,0,L|231:376,1,90.0000034332277
414,205,43274,2,0,L|424:105,1,90.0000034332277,8|0,0:0|0:0,0:0:0:0:
330,52,43489,2,0,L|426:60,1,90.0000034332277,2|0,0:0|0:0,0:0:0:0:
228,172,43703,2,0,L|111:163,1,90.0000034332277,2|0,0:0|0:0,0:0:0:0:
329,318,43917,2,0,L|455:330,1,90.0000034332277,2|0,0:0|0:0,0:0:0:0:
235,0,44131,2,0,L|227:109,1,90.0000034332277,10|0,0:0|0:0,0:0:0:0:
422,211,44346,2,0,L|314:203,1,90.0000034332277,2|0,0:0|0:0,0:0:0:0:
156,162,44560,6,0,L|149:266,1,90.0000034332277,2|0,0:0|0:0,0:0:0:0:
349,269,44881,1,0,0:0:0:0:
179,29,44989,2,0,L|171:135,1,90.0000034332277,8|0,0:0|0:0,0:0:0:0:
262,196,45203,1,2,0:0:0:0:
172,192,45310,1,0,0:0:0:0:
82,183,45417,1,0,0:0:0:0:
265,364,45524,2,0,L|363:368,2,90.0000034332277,2|0|0,0:0|0:0|0:0,0:0:0:0:
448,194,45846,2,0,L|454:91,1,90.0000034332277,8|0,0:0|0:0,0:0:0:0:
271,46,46060,2,0,L|364:51,1,90.0000034332277
179,196,46274,5,2,0:0:0:0:
357,205,46489,2,0,L|363:107,1,90.0000034332277
178,11,46703,2,0,L|170:125,1,90.0000034332277,8|0,0:0|0:0,0:0:0:0:
262,316,46917,2,0,L|150:307,1,90.0000034332277,2|0,0:0|0:0,0:0:0:0:
369,204,47131,2,0,L|375:106,1,90.0000034332277,2|0,0:0|0:0,0:0:0:0:
178,189,47346,2,0,L|185:78,1,90.0000034332277,2|0,0:0|0:0,0:0:0:0:
370,29,47560,2,0,L|480:33,1,90.0000034332277,10|0,0:0|0:0,0:0:0:0:
277,22,47774,2,0,L|166:17,1,90.0000034332277,2|0,0:0|0:0,0:0:0:0:
374,318,47989,6,0,L|378:226,1,90.0000034332277,2|0,0:0|0:0,0:0:0:0:
178,189,48310,1,0,0:0:0:0:
369,165,48417,2,0,L|374:60,1,90.0000034332277,8|0,0:0|0:0,0:0:0:0:
282,172,48631,2,0,L|276:281,1,90.0000034332277,2|0,0:0|0:0,0:0:0:0:
367,268,48846,1,0,0:0:0:0:
181,75,48953,2,0,L|281:78,2,90.0000034332277,2|0|0,0:0|0:0|0:0,0:0:0:0:
369,132,49274,2,0,L|365:239,1,90.0000034332277,8|0,0:0|0:0,0:0:0:0:
180,268,49489,2,0,L|298:274,1,90.0000034332277
80,177,49703,5,2,0:0:0:0:
267,192,49917,2,0,L|274:93,1,90.0000034332277,2|0,0:0|0:0,0:0:0:0:
91,58,50131,2,0,L|83:157,1,90.0000034332277,8|0,0:0|0:0,0:0:0:0:
178,227,50346,2,0,L|67:223,1,90.0000034332277,2|0,0:0|0:0,0:0:0:0:
281,167,50560,2,0,L|384:171,1,90.0000034332277,2|0,0:0|0:0,0:0:0:0:
185,35,50774,2,0,L|179:138,1,90.0000034332277,2|0,0:0|0:0,0:0:0:0:
371,294,50989,2,0,L|254:289,1,90.0000034332277,10|0,0:0|0:0,0:0:0:0:
99,190,51203,2,0,L|103:83,1,90.0000034332277,2|0,0:0|0:0,0:0:0:0:
288,75,51417,6,0,L|284:174,1,90.0000034332277,2|0,0:0|0:0,0:0:0:0:
99,189,51739,1,0,0:0:0:0:
284,164,51846,2,0,L|289:67,1,90.0000034332277,8|0,0:0|0:0,0:0:0:0:
197,56,52060,2,0,L|100:52,2,90.0000034332277,2|0|0,0:0|0:0|0:0,0:0:0:0:
392,277,52381,2,0,L|292:274,2,90.0000034332277,2|0|0,0:0|0:0|0:0,0:0:0:0:
201,256,52703,6,0,L|207:149,1,90.0000034332277,8|0,0:0|0:0,0:0:0:0:
295,168,52917,1,0,0:0:0:0:
113,162,53024,1,0,0:0:0:0:
303,73,53131,2,0,L|187:67,2,90.0000034332277,2|0|0,0:0|0:0|0:0,0:0:0:0:
88,329,53453,2,0,L|195:335,2,90.0000034332277,2|0|0,0:0|0:0|0:0,0:0:0:0:
378,157,53774,2,0,L|276:154,1,90.0000034332277,2|0,0:0|0:0,0:0:0:0:
25,235,53989,5,4,0:0:0:0:
276,218,54631,2,0,L|208:214,1,60
437,336,54846,2,0,P|475:288|269:14,1,480,10|0,0:0|0:0,0:0:0:0:
138,285,56131,1,0,0:0:0:0:
155,246,56185,1,0,0:0:0:0:
186,218,56239,1,0,0:0:0:0:
225,206,56292,1,0,0:0:0:0:
157,160,56346,1,0,0:0:0:0:
109,153,56399,1,0,0:0:0:0:
61,145,56453,1,0,0:0:0:0:
314,134,56560,6,0,L|382:133,1,60,8|8,0:0|0:0,0:0:0:0:
183,39,56881,2,0,L|106:33,1,60,8|8,0:0|0:0,0:0:0:0:
358,311,57417,2,0,L|365:224,1,60,2|0,0:0|0:0,0:0:0:0:
184,246,57846,1,0,0:0:0:0:
201,207,57900,1,0,0:0:0:0:
232,179,57954,1,0,0:0:0:0:
271,167,58007,1,0,0:0:0:0:
203,121,58061,1,0,0:0:0:0:
155,114,58114,1,0,0:0:0:0:
107,106,58168,1,0,0:0:0:0:
343,68,58274,6,0,L|408:67,1,60,8|8,0:0|0:0,0:0:0:0:
211,283,58596,2,0,L|138:276,1,60,8|8,0:0|0:0,0:0:0:0:
343,183,58917,2,0,L|156:171,2,180,8|8|8,0:0|0:0|0:0,0:0:0:0:
384,173,59614,1,0,0:0:0:0:
336,170,59667,1,0,0:0:0:0:
287,166,59721,1,0,0:0:0:0:
336,170,59774,1,0,0:0:0:0:
384,173,59828,1,0,0:0:0:0:
431,174,59881,1,0,0:0:0:0:
186,68,59989,6,0,L|121:64,1,60,8|8,0:0|0:0,0:0:0:0:
317,265,60310,2,0,L|386:268,1,60,8|8,0:0|0:0,0:0:0:0:
186,222,60631,1,8,0:0:0:0:
304,188,60846,2,0,L|308:122,1,60,2|0,0:0|0:0,0:0:0:0:
113,138,61274,1,0,0:0:0:0:
64,132,61328,1,0,0:0:0:0:
111,138,61381,1,0,0:0:0:0:
157,123,61435,1,0,0:0:0:0:
179,80,61489,1,0,0:0:0:0:
166,34,61542,1,0,0:0:0:0:
118,27,61596,1,0,0:0:0:0:
360,246,61703,6,0,L|429:241,1,60,8|8,0:0|0:0,0:0:0:0:
228,176,62024,1,8,0:0:0:0:
392,163,62560,2,0,L|394:93,1,60,2|0,0:0|0:0,0:0:0:0:
214,139,62989,1,0,0:0:0:0:
263,133,63043,1,0,0:0:0:0:
216,139,63096,1,0,0:0:0:0:
176,110,63150,1,0,0:0:0:0:
173,61,63204,1,0,0:0:0:0:
205,28,63256,1,0,0:0:0:0:
251,14,63310,1,0,0:0:0:0:
30,283,63417,6,0,L|29:201,1,60,8|8,0:0|0:0,0:0:0:0:
226,217,63739,2,0,L|310:218,1,60,8|8,0:0|0:0,0:0:0:0:
61,80,64274,2,0,L|59:156,1,60,2|0,0:0|0:0,0:0:0:0:
238,247,64703,1,0,0:0:0:0:
281,234,64756,1,0,0:0:0:0:
281,178,64810,1,0,0:0:0:0:
239,161,64863,1,0,0:0:0:0:
170,85,64917,1,0,0:0:0:0:
219,81,64971,1,0,0:0:0:0:
267,76,65024,1,0,0:0:0:0:
489,198,65131,5,8,0:0:0:0:
335,193,65453,1,8,0:0:0:0:
183,189,65774,1,8,0:0:0:0:
28,184,66096,1,8,0:0:0:0:
212,75,66417,2,0,L|216:143,1,60,8|8,0:0|0:0,0:0:0:0:
106,214,66631,2,0,L|166:223,1,60,8|8,0:0|0:0,0:0:0:0:
407,252,66846,5,4,0:0:0:0:
238,298,67060,2,0,B|167:284|167:284|291:237|306:155|266:99|203:48|109:60|109:60|391:24,1,720,2|0,0:0|0:0,0:0:0:0:
79,316,68560,5,8,0:0:0:0:
79,316,68774,1,8,0:0:0:0:
403,217,69417,1,2,0:0:0:0:
42,211,69846,2,0,P|62:145|172:96,1,180,8|0,0:0|0:0,0:0:0:0:
376,81,70274,5,4,0:0:0:0:
435,81,70381,1,0,0:0:0:0:
166,251,70489,1,0,0:0:0:0:
69,241,70631,1,0,0:0:0:0:
379,204,70703,1,8,0:0:0:0:
210,186,70917,1,0,0:0:0:0:
494,106,71131,2,0,L|486:234,1,120
195,100,71560,1,10,0:0:0:0:
376,46,71667,1,2,0:0:0:0:
195,100,71774,1,2,0:0:0:0:
376,141,71881,1,2,0:0:0:0:
130,276,71989,5,0,0:0:0:0:
36,180,72203,2,0,L|126:174,1,80
313,184,72417,1,8,0:0:0:0:
146,112,72631,1,0,0:0:0:0:
419,309,72846,2,0,B|189:246|189:246|430:178,1,480,2|8,0:0|0:0,0:0:0:0:
339,160,73417,1,0,0:0:0:0:
425,131,73489,2,0,L|436:59,1,60
217,228,73703,6,0,L|137:220,1,60
275,136,73917,2,0,L|179:125,1,80
431,266,74131,1,8,0:0:0:0:
470,162,74346,1,0,0:0:0:0:
195,195,74560,2,0,L|76:183,1,120
366,74,74989,1,10,0:0:0:0:
185,20,75096,1,2,0:0:0:0:
366,74,75203,1,2,0:0:0:0:
185,116,75310,1,2,0:0:0:0:
426,295,75417,6,0,P|479:254|461:193,1,120
428,202,75774,1,0,0:0:0:0:
220,182,75846,1,8,0:0:0:0:
389,142,76060,1,0,0:0:0:0:
65,287,76274,2,0,L|57:153,1,120,8|0,0:0|0:0,0:0:0:0:
432,273,76703,2,0,L|447:128,1,120,8|0,0:0|0:0,0:0:0:0:
53,99,77131,6,0,P|45:172|107:199,1,120
136,198,77489,1,0,0:0:0:0:
347,104,77560,1,8,0:0:0:0:
177,64,77774,1,0,0:0:0:0:
463,308,77989,2,0,L|476:173,1,120
127,137,78417,1,10,0:0:0:0:
309,120,78524,1,2,0:0:0:0:
492,107,78631,1,2,0:0:0:0:
311,32,78739,1,2,0:0:0:0:
67,284,78846,6,0,P|39:224|90:188,1,120
130,194,79203,1,0,0:0:0:0:
336,133,79274,1,8,0:0:0:0:
163,100,79489,1,0,0:0:0:0:
448,303,79703,2,0,L|461:180,1,120
430,180,79971,1,0,0:0:0:0:
400,177,80024,1,0,0:0:0:0:
194,152,80131,2,0,L|181:229,1,60,8|0,0:0|0:0,0:0:0:0:
407,113,80346,1,0,0:0:0:0:
438,99,80399,1,0,0:0:0:0:
472,92,80453,1,0,0:0:0:0:
204,291,80560,6,0,L|122:286,1,60
261,215,80774,2,0,L|176:209,1,80
413,240,80989,1,8,0:0:0:0:
444,129,81203,1,0,0:0:0:0:
160,116,81417,2,0,L|143:249,1,120
432,45,81846,1,10,0:0:0:0:
251,41,81953,1,2,0:0:0:0:
67,33,82060,1,2,0:0:0:0:
247,122,82167,1,2,0:0:0:0:
488,319,82274,6,0,P|495:250|453:211,1,120
401,213,82631,1,0,0:0:0:0:
190,179,82703,1,8,0:0:0:0:
359,129,82917,1,0,0:0:0:0:
71,305,83131,2,0,L|61:182,1,120
92,184,83399,1,0,0:0:0:0:
123,183,83453,1,0,0:0:0:0:
332,97,83560,2,0,L|343:175,1,60,8|0,0:0|0:0,0:0:0:0:
135,62,83774,1,0,0:0:0:0:
88,54,83828,1,0,0:0:0:0:
40,48,83881,1,0,0:0:0:0:
384,311,83989,6,0,P|454:297|486:179,1,180,4|0,0:0|0:0,0:0:0:0:
318,193,84417,2,0,L|461:187,1,120,8|0,0:0|0:0,0:0:0:0:
131,78,84846,2,0,L|109:207,1,120,2|0,0:0|0:0,0:0:0:0:
285,286,85274,2,0,B|242:163|242:163|475:120,1,360
188,299,85703,5,0,0:0:0:0:
141,289,85756,1,0,0:0:0:0:
94,275,85810,1,0,0:0:0:0:
309,232,85917,1,0,0:0:0:0:
356,223,85971,1,0,0:0:0:0:
395,196,86024,1,0,0:0:0:0:
414,151,86078,1,0,0:0:0:0:
409,103,86131,1,0,0:0:0:0:
379,64,86185,1,0,0:0:0:0:
333,46,86239,1,0,0:0:0:0:
282,41,86292,1,0,0:0:0:0:
228,49,86346,1,0,0:0:0:0:
170,63,86399,1,0,0:0:0:0:
106,95,86453,1,0,0:0:0:0:
390,323,86560,6,0,L|410:188,1,120,8|0,0:0|0:0,0:0:0:0:
115,191,86989,1,0,0:0:0:0:
212,192,87096,2,0,P|129:105|-5:97,1,240
341,309,87417,2,0,P|412:290|471:176,1,180,2|0,0:0|0:0,0:0:0:0:
251,200,87846,1,8,0:0:0:0:
406,175,88060,2,0,P|482:146|471:47,1,180,2|0,0:0|0:0,0:0:0:0:
284,132,88489,1,2,0:0:0:0:
166,179,88703,1,0,0:0:0:0:
154,126,88756,1,0,0:0:0:0:
142,67,88810,1,0,0:0:0:0:
236,52,88917,1,0,0:0:0:0:
70,177,88989,2,0,L|12:173,1,40
289,276,89131,6,0,P|234:166|8:98,1,360
242,75,89560,1,0,0:0:0:0:
290,72,89614,1,0,0:0:0:0:
337,69,89667,1,0,0:0:0:0:
96,257,89774,1,8,0:0:0:0:
144,252,89828,1,0,0:0:0:0:
191,246,89881,1,0,0:0:0:0:
409,182,89989,5,2,0:0:0:0:
68,137,90417,1,8,0:0:0:0:
68,137,91060,1,2,0:0:0:0:
289,260,91274,2,0,P|231:138|13:61,1,360,8|0,0:0|0:0,0:0:0:0:
272,37,91703,5,0,0:0:0:0:
319,36,91756,1,0,0:0:0:0:
367,33,91810,1,0,0:0:0:0:
155,301,91917,1,0,0:0:0:0:
108,292,91971,1,0,0:0:0:0:
69,265,92024,1,0,0:0:0:0:
50,220,92078,1,0,0:0:0:0:
55,172,92131,1,0,0:0:0:0:
85,133,92185,1,0,0:0:0:0:
131,115,92239,1,0,0:0:0:0:
182,110,92292,1,0,0:0:0:0:
236,118,92346,1,0,0:0:0:0:
294,132,92399,1,0,0:0:0:0:
358,164,92453,1,0,0:0:0:0:
100,313,92560,6,0,L|92:178,1,120
367,190,92989,1,0,0:0:0:0:
294,185,93096,2,0,P|377:98|511:90,1,240
173,308,93417,2,0,P|102:289|43:175,1,180,2|0,0:0|0:0,0:0:0:0:
263,199,93846,1,8,0:0:0:0:
99,182,94060,2,0,P|23:142|11:44,1,180,2|0,0:0|0:0,0:0:0:0:
212,47,94489,1,8,0:0:0:0:
327,63,94703,5,2,0:0:0:0:
88,200,95346,1,0,0:0:0:0:
271,191,95560,1,0,0:0:0:0:
319,185,95614,1,0,0:0:0:0:
366,179,95667,1,0,0:0:0:0:
258,95,95774,1,0,0:0:0:0:
414,84,95846,2,0,L|470:81,1,40
193,295,95989,6,0,P|248:185|474:117,1,360
192,113,96417,1,2,0:0:0:0:
411,295,96846,1,8,0:0:0:0:
223,259,97060,2,0,L|218:174,1,60,2|0,0:0|0:0,0:0:0:0:
342,188,97274,2,0,L|341:105,1,60,2|0,0:0|0:0,0:0:0:0:
462,124,97489,2,0,L|460:40,1,60,2|0,0:0|0:0,0:0:0:0:
208,106,97703,6,0,L|136:100,1,60,8|0,0:0|0:0,0:0:0:0:
266,33,97917,2,0,L|265:98,1,60,2|0,0:0|0:0,0:0:0:0:
182,283,98131,2,0,B|250:169|250:169|10:136,1,360
265,81,98560,5,0,0:0:0:0:
313,77,98614,1,0,0:0:0:0:
360,74,98667,1,0,0:0:0:0:
141,266,98774,1,0,0:0:0:0:
93,259,98828,1,0,0:0:0:0:
141,245,98881,1,0,0:0:0:0:
191,235,98935,1,0,0:0:0:0:
236,210,98989,1,0,0:0:0:0:
268,171,99042,1,0,0:0:0:0:
275,120,99096,1,0,0:0:0:0:
249,76,99149,1,0,0:0:0:0:
201,56,99203,1,0,0:0:0:0:
150,55,99256,1,0,0:0:0:0:
88,72,99310,1,0,0:0:0:0:
297,275,99417,6,0,L|451:261,1,120,2|0,0:0|0:0,0:0:0:0:
129,186,99846,1,0,0:0:0:0:
49,188,99953,2,0,P|132:101|266:93,1,240
80,287,100274,5,2,0:0:0:0:
268,260,100489,2,0,L|273:184,1,60,2|0,0:0|0:0,0:0:0:0:
81,92,100703,2,0,L|8:87,1,60,8|0,0:0|0:0,0:0:0:0:
259,42,100917,2,0,L|336:46,1,60,2|0,0:0|0:0,0:0:0:0:
95,234,101131,1,2,0:0:0:0:
259,168,101346,2,0,L|176:160,1,60,2|0,0:0|0:0,0:0:0:0:
447,267,101560,6,0,L|321:257,1,120,8|0,0:0|0:0,0:0:0:0:
207,222,101989,1,0,0:0:0:0:
362,207,102203,1,0,0:0:0:0:
171,85,102417,1,0,0:0:0:0:
165,136,102471,1,0,0:0:0:0:
159,185,102524,1,0,0:0:0:0:
272,71,102631,1,0,0:0:0:0:
141,262,102703,2,0,L|91:258,1,40
321,271,102846,2,0,P|261:161|35:101,1,360
294,53,103274,1,8,0:0:0:0:
120,39,103489,1,8,0:0:0:0:
416,308,103703,6,0,L|423:172,1,120,4|2,0:0|0:0,0:0:0:0:
360,180,104024,1,0,0:0:0:0:
155,101,104131,2,0,L|230:93,1,60,2|0,0:0|0:0,0:0:0:0:
440,36,104346,2,0,L|372:48,1,60,2|0,0:0|0:0,0:0:0:0:
161,248,104560,1,2,0:0:0:0:
308,232,104774,2,0,L|317:158,1,60
126,172,104989,2,0,B|239:101|239:101|2:65,1,360,8|0,0:0|0:0,0:0:0:0:
262,271,105417,5,0,0:0:0:0:
310,271,105471,1,0,0:0:0:0:
357,269,105524,1,0,0:0:0:0:
140,211,105631,1,0,0:0:0:0:
98,186,105685,1,0,0:0:0:0:
96,137,105739,1,0,0:0:0:0:
127,101,105792,1,0,0:0:0:0:
174,89,105846,1,0,0:0:0:0:
221,93,105899,1,0,0:0:0:0:
271,107,105953,1,0,0:0:0:0:
323,125,106006,1,0,0:0:0:0:
265,131,106060,1,0,0:0:0:0:
204,133,106114,1,0,0:0:0:0:
141,138,106167,1,0,0:0:0:0:
365,198,106274,5,2,0:0:0:0:
194,191,106489,1,2,0:0:0:0:
484,96,106703,1,0,0:0:0:0:
414,100,106810,2,0,B|327:94|327:94|507:118,1,240
139,218,107131,5,6,0:0:0:0:
312,217,107560,1,0,0:0:0:0:
312,217,107774,1,0,0:0:0:0:
118,112,107989,1,2,0:0:0:0:
116,319,108846,5,0,0:0:0:0:
167,305,108899,1,0,0:0:0:0:
203,264,108953,1,0,0:0:0:0:
208,210,109006,1,0,0:0:0:0:
197,156,109060,1,0,0:0:0:0:
156,119,109114,1,0,0:0:0:0:
103,109,109167,1,0,0:0:0:0:
267,75,109274,1,0,0:0:0:0:
322,70,109328,1,0,0:0:0:0:
375,68,109381,1,0,0:0:0:0:
130,232,109489,1,0,0:0:0:0:
76,227,109542,1,0,0:0:0:0:
21,223,109596,1,0,0:0:0:0:
305,235,109703,5,0,0:0:0:0:
341,205,109756,1,0,0:0:0:0:
345,156,109810,1,0,0:0:0:0:
328,110,109864,1,0,0:0:0:0:
287,80,109917,1,0,0:0:0:0:
333,64,109971,1,0,0:0:0:0:
380,65,110024,1,0,0:0:0:0:
149,283,110131,1,0,0:0:0:0:
100,280,110185,1,0,0:0:0:0:
51,275,110239,1,0,0:0:0:0:
363,211,110346,1,0,0:0:0:0:
416,205,110399,1,0,0:0:0:0:
470,199,110453,1,0,0:0:0:0:
39,115,110560,5,6,0:0:0:0:
256,192,110774,12,0,112703,0:0:0:0:
256,192,113131,12,0,116989,0:0:0:0:
