osu file format v14

[General]
AudioFilename: audio.mp3
AudioLeadIn: 0
PreviewTime: 41024
Countdown: 0
SampleSet: Normal
StackLeniency: 0.7
Mode: 1
LetterboxInBreaks: 0
WidescreenStoryboard: 1

[Editor]
Bookmarks: 11989
DistanceSpacing: 0.8
BeatDivisor: 4
GridSize: 32
TimelineZoom: 1

[Metadata]
Title:Unconquered
TitleUnicode:Unconquered
Artist:Helblinde
ArtistUnicode:Helblinde
Creator:Capu
Version:Futsuu
Source:osu!
Tags:fa featured artist mappers guild mpg mg omnia vanitas electronic drum and bass dnb orchestral instrumental
BeatmapID:2199043
BeatmapSetID:1052250

[Difficulty]
HPDrainRate:7
CircleSize:2
OverallDifficulty:4
ApproachRate:9
SliderMultiplier:1.4
SliderTickRate:1

[Events]
//Background and Video events
0,0,"dark forest.jpg",0,0
//Break Periods
//Storyboard Layer 0 (Background)
//Storyboard Layer 1 (Fail)
//Storyboard Layer 2 (Pass)
//Storyboard Layer 3 (Foreground)
//Storyboard Layer 4 (Overlay)
//Storyboard Sound Samples

[TimingPoints]
-11,428.571428571429,4,1,0,100,1,0
40917,-100,4,1,0,80,0,0
41131,-100,4,1,0,80,0,1
53989,-100,4,1,0,80,0,0
65024,-100,4,1,0,45,0,0
70167,-100,4,1,0,80,0,0
70274,-100,4,1,0,80,0,1
85703,-100,4,1,0,80,0,0
110989,-100,4,1,0,40,0,0

[HitObjects]
256,192,11989,5,0,0:0:0:0:
256,192,12417,1,0,0:0:0:0:
256,192,12846,1,8,0:0:0:0:
256,192,13703,1,0,0:0:0:0:
256,192,14560,1,8,0:0:0:0:
256,192,15417,1,0,0:0:0:0:
256,192,16274,1,8,0:0:0:0:
256,192,17131,1,0,0:0:0:0:
256,192,17989,1,8,0:0:0:0:
256,192,18846,1,0,0:0:0:0:
256,192,19703,1,0,0:0:0:0:
256,192,20131,1,8,0:0:0:0:
256,192,20560,1,0,0:0:0:0:
256,192,21417,1,8,0:0:0:0:
256,192,22274,1,0,0:0:0:0:
256,192,23131,1,8,0:0:0:0:
256,192,23989,1,0,0:0:0:0:
256,192,24846,1,8,0:0:0:0:
256,192,25703,1,0,0:0:0:0:
256,192,26560,1,0,0:0:0:0:
256,192,27417,1,4,0:0:0:0:
256,192,28060,1,8,0:0:0:0:
256,192,28703,1,0,0:0:0:0:
256,192,29131,1,0,0:0:0:0:
256,192,29560,1,8,0:0:0:0:
256,192,29774,1,8,0:0:0:0:
256,192,30417,1,0,0:0:0:0:
256,192,30846,1,0,0:0:0:0:
256,192,31489,1,8,0:0:0:0:
256,192,32131,1,0,0:0:0:0:
256,192,32560,1,0,0:0:0:0:
256,192,34274,1,0,0:0:0:0:
256,192,34703,1,8,0:0:0:0:
256,192,34917,1,0,0:0:0:0:
256,192,35131,1,8,0:0:0:0:
256,192,35560,1,0,0:0:0:0:
256,192,35989,1,0,0:0:0:0:
256,192,36417,1,8,0:0:0:0:
256,192,36631,1,0,0:0:0:0:
256,192,36846,1,8,0:0:0:0:
256,192,37703,1,0,0:0:0:0:
256,192,38131,1,8,0:0:0:0:
256,192,38560,1,0,0:0:0:0:
256,192,38989,1,0,0:0:0:0:
256,192,39417,1,8,0:0:0:0:
256,192,39631,1,0,0:0:0:0:
256,192,39846,1,8,0:0:0:0:
256,192,40060,1,8,0:0:0:0:
256,192,40274,1,4,0:0:0:0:
256,192,41131,1,0,0:0:0:0:
256,192,41560,1,8,0:0:0:0:
256,192,41774,1,0,0:0:0:0:
256,192,42417,1,8,0:0:0:0:
256,192,42846,1,0,0:0:0:0:
256,192,43274,1,8,0:0:0:0:
256,192,43703,1,0,0:0:0:0:
256,192,43917,1,0,0:0:0:0:
256,192,44131,1,8,0:0:0:0:
256,192,44560,1,0,0:0:0:0:
256,192,44989,1,8,0:0:0:0:
256,192,45203,1,0,0:0:0:0:
256,192,45846,1,8,0:0:0:0:
256,192,46274,1,0,0:0:0:0:
256,192,46703,1,8,0:0:0:0:
256,192,46917,1,0,0:0:0:0:
256,192,47131,1,0,0:0:0:0:
256,192,47560,1,8,0:0:0:0:
256,192,47989,1,0,0:0:0:0:
256,192,48417,1,8,0:0:0:0:
256,192,48631,1,0,0:0:0:0:
256,192,49274,1,8,0:0:0:0:
256,192,49703,1,0,0:0:0:0:
256,192,50131,1,8,0:0:0:0:
256,192,50346,1,8,0:0:0:0:
256,192,50560,1,0,0:0:0:0:
256,192,50989,1,8,0:0:0:0:
256,192,51417,1,0,0:0:0:0:
256,192,51846,1,8,0:0:0:0:
256,192,52060,1,0,0:0:0:0:
256,192,52703,1,8,0:0:0:0:
256,192,53131,1,8,0:0:0:0:
256,192,53560,1,0,0:0:0:0:
256,192,53989,1,12,0:0:0:0:
256,192,54846,1,4,0:0:0:0:
256,192,56131,1,8,0:0:0:0:
256,192,56560,1,0,0:0:0:0:
256,192,56881,1,0,0:0:0:0:
256,192,57846,1,8,0:0:0:0:
256,192,58274,1,0,0:0:0:0:
256,192,58917,1,8,0:0:0:0:
256,192,59239,1,8,0:0:0:0:
256,192,59560,1,8,0:0:0:0:
256,192,59989,1,0,0:0:0:0:
256,192,60310,1,8,0:0:0:0:
256,192,60631,1,8,0:0:0:0:
256,192,61274,1,8,0:0:0:0:
256,192,61703,1,0,0:0:0:0:
256,192,62024,1,0,0:0:0:0:
256,192,62560,1,0,0:0:0:0:
256,192,62989,1,8,0:0:0:0:
256,192,63417,1,0,0:0:0:0:
256,192,63739,1,0,0:0:0:0:
256,192,65131,12,0,68131,0:0:0:0:
256,192,68560,5,8,0:0:0:0:
256,192,70274,1,12,0:0:0:0:
256,192,70703,1,8,0:0:0:0:
256,192,70917,1,0,0:0:0:0:
256,192,71131,1,0,0:0:0:0:
256,192,71560,1,8,0:0:0:0:
256,192,71774,1,8,0:0:0:0:
256,192,71989,1,0,0:0:0:0:
256,192,72417,1,8,0:0:0:0:
256,192,72631,1,0,0:0:0:0:
256,192,72846,1,8,0:0:0:0:
256,192,73703,1,8,0:0:0:0:
256,192,74131,1,8,0:0:0:0:
256,192,74346,1,0,0:0:0:0:
256,192,74560,1,0,0:0:0:0:
256,192,74989,1,8,0:0:0:0:
256,192,75203,1,8,0:0:0:0:
256,192,75417,1,8,0:0:0:0:
256,192,75846,1,8,0:0:0:0:
256,192,76060,1,0,0:0:0:0:
256,192,76274,1,8,0:0:0:0:
256,192,76703,1,8,0:0:0:0:
256,192,77131,1,0,0:0:0:0:
256,192,77560,1,8,0:0:0:0:
256,192,77774,1,0,0:0:0:0:
256,192,77989,1,8,0:0:0:0:
256,192,78417,1,8,0:0:0:0:
256,192,78631,1,8,0:0:0:0:
256,192,78846,1,0,0:0:0:0:
256,192,79274,1,8,0:0:0:0:
256,192,79489,1,0,0:0:0:0:
256,192,79703,1,0,0:0:0:0:
256,192,80560,1,0,0:0:0:0:
256,192,80989,1,8,0:0:0:0:
256,192,81203,1,8,0:0:0:0:
256,192,81417,1,0,0:0:0:0:
256,192,81846,1,8,0:0:0:0:
256,192,82060,1,8,0:0:0:0:
256,192,82274,1,8,0:0:0:0:
256,192,82703,1,8,0:0:0:0:
256,192,82917,1,0,0:0:0:0:
256,192,83131,1,8,0:0:0:0:
256,192,83989,1,0,0:0:0:0:
256,192,84417,1,8,0:0:0:0:
256,192,84846,1,8,0:0:0:0:
256,192,85060,1,8,0:0:0:0:
256,192,85703,1,4,0:0:0:0:
256,192,86560,1,8,0:0:0:0:
256,192,87417,1,0,0:0:0:0:
256,192,87846,1,8,0:0:0:0:
256,192,88060,1,0,0:0:0:0:
256,192,88489,1,0,0:0:0:0:
256,192,88703,1,8,0:0:0:0:
256,192,88917,1,8,0:0:0:0:
256,192,89131,1,0,0:0:0:0:
256,192,89560,1,12,0:0:0:0:
256,192,89774,1,8,0:0:0:0:
256,192,89989,1,0,0:0:0:0:
256,192,90417,1,8,0:0:0:0:
256,192,91060,1,0,0:0:0:0:
256,192,91274,1,8,0:0:0:0:
256,192,91489,1,0,0:0:0:0:
256,192,91703,1,4,0:0:0:0:
256,192,92560,1,0,0:0:0:0:
256,192,92774,1,0,0:0:0:0:
256,192,92989,1,8,0:0:0:0:
256,192,93417,1,0,0:0:0:0:
256,192,93846,1,8,0:0:0:0:
256,192,94060,1,0,0:0:0:0:
256,192,94489,1,8,0:0:0:0:
256,192,94703,1,0,0:0:0:0:
256,192,95346,1,0,0:0:0:0:
256,192,95560,1,0,0:0:0:0:
256,192,95774,1,0,0:0:0:0:
256,192,96417,1,0,0:0:0:0:
256,192,96846,1,8,0:0:0:0:
256,192,97060,1,0,0:0:0:0:
256,192,97274,1,8,0:0:0:0:
256,192,97489,1,8,0:0:0:0:
256,192,97703,1,0,0:0:0:0:
256,192,98131,1,8,0:0:0:0:
256,192,98346,1,8,0:0:0:0:
256,192,98560,1,4,0:0:0:0:
256,192,99846,1,8,0:0:0:0:
256,192,100274,1,0,0:0:0:0:
256,192,100489,1,0,0:0:0:0:
256,192,100703,1,8,0:0:0:0:
256,192,101131,1,0,0:0:0:0:
256,192,101346,1,0,0:0:0:0:
256,192,101560,1,8,0:0:0:0:
256,192,102417,1,0,0:0:0:0:
256,192,102846,1,0,0:0:0:0:
256,192,103274,1,8,0:0:0:0:
256,192,103489,1,8,0:0:0:0:
256,192,103703,1,0,0:0:0:0:
256,192,103917,1,0,0:0:0:0:
256,192,104131,1,8,0:0:0:0:
256,192,104989,1,8,0:0:0:0:
256,192,105417,1,0,0:0:0:0:
256,192,106060,1,0,0:0:0:0:
256,192,106703,1,0,0:0:0:0:
256,192,107131,1,12,0:0:0:0:
256,192,108846,12,0,109703,0:0:0:0:
256,192,110560,5,4,0:0:0:0:
256,192,114417,1,8,0:0:0:0:
256,192,114631,1,0,0:0:0:0:
256,192,115060,1,8,0:0:0:0:
256,192,115274,1,0,0:0:0:0:
256,192,117846,1,8,0:0:0:0:
256,192,118060,1,0,0:0:0:0:
256,192,118489,1,8,0:0:0:0:
256,192,118703,1,0,0:0:0:0:
256,192,121274,1,8,0:0:0:0:
256,192,121489,1,0,0:0:0:0:
256,192,121917,1,8,0:0:0:0:
256,192,122131,1,0,0:0:0:0:
256,192,123739,1,8,0:0:0:0:
256,192,123846,1,0,0:0:0:0:
