osu file format v14

[General]
AudioFilename: audio.mp3
AudioLeadIn: 0
PreviewTime: 232610
Countdown: 0
SampleSet: Normal
StackLeniency: 0.7
Mode: 3
LetterboxInBreaks: 0
SpecialStyle: 0
WidescreenStoryboard: 0

[Editor]
Bookmarks: 1692,93538,145821,182153,232615
DistanceSpacing: 0.3
BeatDivisor: 4
GridSize: 32
TimelineZoom: 1.8

[Metadata]
Title:The Solace of Oblivion
TitleUnicode:The Solace of Oblivion
Artist:Helblinde
ArtistUnicode:Helblinde
Creator:lombit
Version:Oblivion
Source:osu!
Tags:aspire 2017 another lie
BeatmapID:1260592
BeatmapSetID:596105

[Difficulty]
HPDrainRate:7.4
CircleSize:4
OverallDifficulty:8.2
ApproachRate:5
SliderMultiplier:2
SliderTickRate:1

[Events]
//Background and Video events
0,0,"oblivion.png",0,0
//Break Periods
2,211876,220333
//Storyboard Layer 0 (Background)
//Storyboard Layer 1 (Fail)
//Storyboard Layer 2 (Pass)
//Storyboard Layer 3 (Foreground)
//Storyboard Sound Samples

[TimingPoints]
0,307.692307692308,4,1,0,15,1,0
1383,4981.139,4,1,0,15,1,0
1384,2,4,1,0,15,1,0
1386,1000000,139,1,0,15,1,0
1389,1000000,139,1,0,15,1,0
1390,1000000,139,1,0,15,1,0
1391,1000000,139,1,0,15,1,0
1392,1000000,139,1,0,15,1,0
1393,1000000,139,1,0,15,1,0
1394,1000000,139,1,0,15,1,0
1395,1246.02828484207,4,1,0,15,1,0
1396,2,4,1,0,15,1,0
1398,1000000,139,1,0,15,1,0
1399,1000000,139,1,0,15,1,0
1400,1000000,139,1,0,15,1,0
1401,1000000,139,1,0,15,1,0
1402,1000000,139,1,0,15,1,0
1403,1000000,139,1,0,15,1,0
1404,554.349332471012,4,1,0,15,1,0
1405,2,4,1,0,15,1,0
1407,1000000,139,1,0,15,1,0
1408,1000000,139,1,0,15,1,0
1409,1000000,139,1,0,15,1,0
1410,1000000,139,1,0,15,1,0
1411,1000000,139,1,0,15,1,0
1412,1000000,139,1,0,15,1,0
1413,1000000,139,1,0,15,1,0
1414,312.260925229121,4,1,0,15,1,0
1415,2,4,1,0,15,1,0
1417,1000000,139,1,0,15,1,0
1418,1000000,139,1,0,15,1,0
1419,1000000,139,1,0,15,1,0
1420,1000000,139,1,0,15,1,0
1421,1000000,139,1,0,15,1,0
1422,1000000,139,1,0,15,1,0
1423,200.208884602936,4,1,0,15,1,0
1424,2,4,1,0,15,1,0
1426,1000000,139,1,0,15,1,0
1427,1000000,139,1,0,15,1,0
1428,1000000,139,1,0,15,1,0
1429,1000000,139,1,0,15,1,0
1430,1000000,139,1,0,15,1,0
1431,1000000,139,1,0,15,1,0
1432,1000000,139,1,0,15,1,0
1433,139.341425973706,4,1,0,15,1,0
1434,2,4,1,0,15,1,0
1436,1000000,139,1,0,15,1,0
1437,1000000,139,1,0,15,1,0
1438,1000000,139,1,0,15,1,0
1439,1000000,139,1,0,15,1,0
1440,1000000,139,1,0,15,1,0
1441,1000000,139,1,0,15,1,0
1442,1000000,139,1,0,15,1,0
1443,102.641478447856,4,1,0,15,1,0
1444,2,4,1,0,15,1,0
1446,1000000,139,1,0,15,1,0
1447,1000000,139,1,0,15,1,0
1448,1000000,139,1,0,15,1,0
1449,1000000,139,1,0,15,1,0
1450,1000000,139,1,0,15,1,0
1451,1000000,139,1,0,15,1,0
1452,78.8223934419769,4,1,0,15,1,0
1453,2,4,1,0,15,1,0
1455,1000000,139,1,0,15,1,0
1456,1000000,139,1,0,15,1,0
1457,1000000,139,1,0,15,1,0
1458,1000000,139,1,0,15,1,0
1459,1000000,139,1,0,15,1,0
1460,1000000,139,1,0,15,1,0
1461,1000000,139,1,0,15,1,0
1462,62.4930346305151,4,1,0,15,1,0
1463,2,4,1,0,15,1,0
1465,1000000,139,1,0,15,1,0
1466,1000000,139,1,0,15,1,0
1467,1000000,139,1,0,15,1,0
1468,1000000,139,1,0,15,1,0
1469,1000000,139,1,0,15,1,0
1470,1000000,139,1,0,15,1,0
1471,1000000,139,1,0,15,1,0
1472,50.813567561296,4,1,0,15,1,0
1473,2,4,1,0,15,1,0
1475,1000000,139,1,0,15,1,0
1476,1000000,139,1,0,15,1,0
1477,1000000,139,1,0,15,1,0
1478,1000000,139,1,0,15,1,0
1479,1000000,139,1,0,15,1,0
1480,1000000,139,1,0,15,1,0
1481,42.1729173959067,4,1,0,15,1,0
1482,2,4,1,0,15,1,0
1484,1000000,139,1,0,15,1,0
1485,1000000,139,1,0,15,1,0
1486,1000000,139,1,0,15,1,0
1487,1000000,139,1,0,15,1,0
1488,1000000,139,1,0,15,1,0
1489,1000000,139,1,0,15,1,0
1490,1000000,139,1,0,15,1,0
1491,1000000,139,1,0,15,1,0
1492,35.6018854758548,4,1,0,15,1,0
1493,2,4,1,0,15,1,0
1495,1000000,139,1,0,15,1,0
1496,1000000,139,1,0,15,1,0
1497,1000000,139,1,0,15,1,0
1498,1000000,139,1,0,15,1,0
1499,1000000,139,1,0,15,1,0
1500,1000000,139,1,0,15,1,0
1501,30.4889668051374,4,1,0,15,1,0
1502,2,4,1,0,15,1,0
1504,1000000,139,1,0,15,1,0
1505,1000000,139,1,0,15,1,0
1506,1000000,139,1,0,15,1,0
1507,1000000,139,1,0,15,1,0
1508,1000000,139,1,0,15,1,0
1509,1000000,139,1,0,15,1,0
1510,1000000,139,1,0,15,1,0
1511,26.4329407307386,4,1,0,15,1,0
1512,2,4,1,0,15,1,0
1514,1000000,139,1,0,15,1,0
1515,1000000,139,1,0,15,1,0
1516,1000000,139,1,0,15,1,0
1517,1000000,139,1,0,15,1,0
1518,1000000,139,1,0,15,1,0
1519,23.1616501749284,4,1,0,15,1,0
1520,2,4,1,0,15,1,0
1522,1000000,139,1,0,15,1,0
1523,1000000,139,1,0,15,1,0
1524,1000000,139,1,0,15,1,0
1525,1000000,139,1,0,15,1,0
1526,1000000,139,1,0,15,1,0
1527,1000000,139,1,0,15,1,0
1528,1000000,139,1,0,15,1,0
1529,20.4852826900727,4,1,0,15,1,0
1530,2,4,1,0,15,1,0
1532,1000000,139,1,0,15,1,0
1533,1000000,139,1,0,15,1,0
1534,1000000,139,1,0,15,1,0
1535,1000000,139,1,0,15,1,0
1536,1000000,139,1,0,15,1,0
1537,1000000,139,1,0,15,1,0
1538,1000000,139,1,0,15,1,0
1539,18.2681212150736,4,1,0,15,1,0
1540,2,4,1,0,15,1,0
1542,1000000,139,1,0,15,1,0
1543,1000000,139,1,0,15,1,0
1544,1000000,139,1,0,15,1,0
1545,1000000,139,1,0,15,1,0
1546,1000000,139,1,0,15,1,0
1547,1000000,139,1,0,15,1,0
1548,1000000,139,1,0,15,1,0
1549,16.4110778057404,4,1,0,15,1,0
1550,2,4,1,0,15,1,0
1552,1000000,139,1,0,15,1,0
1553,1000000,139,1,0,15,1,0
1554,1000000,139,1,0,15,1,0
1555,1000000,139,1,0,15,1,0
1556,1000000,139,1,0,15,1,0
1557,1000000,139,1,0,15,1,0
1558,14.8404393066844,4,1,0,15,1,0
1559,2,4,1,0,15,1,0
1561,1000000,139,1,0,15,1,0
1562,1000000,139,1,0,15,1,0
1563,1000000,139,1,0,15,1,0
1564,1000000,139,1,0,15,1,0
1565,1000000,139,1,0,15,1,0
1566,1000000,139,1,0,15,1,0
1567,1000000,139,1,0,15,1,0
1568,13.5004448396575,4,1,0,15,1,0
1569,2,4,1,0,15,1,0
1571,1000000,139,1,0,15,1,0
1572,1000000,139,1,0,15,1,0
1573,1000000,139,1,0,15,1,0
1574,1000000,139,1,0,15,1,0
1575,1000000,139,1,0,15,1,0
1576,1000000,139,1,0,15,1,0
1577,12.3482884140332,4,1,0,15,1,0
1578,2,4,1,0,15,1,0
1580,1000000,139,1,0,15,1,0
1581,1000000,139,1,0,15,1,0
1582,1000000,139,1,0,15,1,0
1583,1000000,139,1,0,15,1,0
1584,1000000,139,1,0,15,1,0
1585,1000000,139,1,0,15,1,0
1586,1000000,139,1,0,15,1,0
1587,11.3506669368125,4,1,0,15,1,0
1588,2,4,1,0,15,1,0
1590,1000000,139,1,0,15,1,0
1591,1000000,139,1,0,15,1,0
1592,1000000,139,1,0,15,1,0
1593,1000000,139,1,0,15,1,0
1594,1000000,139,1,0,15,1,0
1595,1000000,139,1,0,15,1,0
1596,10.4813581184844,4,1,0,15,1,0
1597,2,4,1,0,15,1,0
1599,1000000,139,1,0,15,1,0
1600,1000000,139,1,0,15,1,0
1601,1000000,139,1,0,15,1,0
1602,1000000,139,1,0,15,1,0
1603,1000000,139,1,0,15,1,0
1604,1000000,139,1,0,15,1,0
1605,1000000,139,1,0,15,1,0
1606,9.71948591695088,4,1,0,15,1,0
1607,2,4,1,0,15,1,0
1609,1000000,139,1,0,15,1,0
1610,1000000,139,1,0,15,1,0
1611,1000000,139,1,0,15,1,0
1612,1000000,139,1,0,15,1,0
1613,1000000,139,1,0,15,1,0
1614,1000000,139,1,0,15,1,0
1615,1000000,139,1,0,15,1,0
1616,9.04827116944833,4,1,0,15,1,0
1617,2,4,1,0,15,1,0
1619,1000000,139,1,0,15,1,0
1620,1000000,139,1,0,15,1,0
1621,1000000,139,1,0,15,1,0
1622,1000000,139,1,0,15,1,0
1623,1000000,139,1,0,15,1,0
1624,1000000,139,1,0,15,1,0
1625,1000000,139,1,0,15,1,0
1626,8.45409419805378,4,1,0,15,1,0
1627,2,4,1,0,15,1,0
1629,1000000,139,1,0,15,1,0
1630,1000000,139,1,0,15,1,0
1631,1000000,139,1,0,15,1,0
1632,1000000,139,1,0,15,1,0
1633,1000000,139,1,0,15,1,0
1634,1000000,139,1,0,15,1,0
1635,7.92581647137895,4,1,0,15,1,0
1636,2,4,1,0,15,1,0
1638,1000000,139,1,0,15,1,0
1639,1000000,139,1,0,15,1,0
1640,1000000,139,1,0,15,1,0
1641,1000000,139,1,0,15,1,0
1642,1000000,139,1,0,15,1,0
1643,1000000,139,1,0,15,1,0
1644,7.45425232172006,4,1,0,15,1,0
1645,2,4,1,0,15,1,0
1647,1000000,139,1,0,15,1,0
1648,1000000,139,1,0,15,1,0
1649,1000000,139,1,0,15,1,0
1650,1000000,139,1,0,15,1,0
1651,1000000,139,1,0,15,1,0
1652,1000000,139,1,0,15,1,0
1653,1000000,139,1,0,15,1,0
1654,7.03177600980698,4,1,0,15,1,0
1655,2,4,1,0,15,1,0
1657,1000000,139,1,0,15,1,0
1658,1000000,139,1,0,15,1,0
1659,1000000,139,1,0,15,1,0
1660,1000000,139,1,0,15,1,0
1661,1000000,139,1,0,15,1,0
1662,1000000,139,1,0,15,1,0
1663,1000000,139,1,0,15,1,0
1664,6.65201080863063,4,1,0,15,1,0
1665,2,4,1,0,15,1,0
1667,1000000,139,1,0,15,1,0
1668,1000000,139,1,0,15,1,0
1669,1000000,139,1,0,15,1,0
1670,1000000,139,1,0,15,1,0
1671,1000000,139,1,0,15,1,0
1672,1000000,139,1,0,15,1,0
1673,6.30959743401292,4,1,0,15,1,0
1674,2,4,1,0,15,1,0
1676,1000000,139,1,0,15,1,0
1677,1000000,139,1,0,15,1,0
1678,1000000,139,1,0,15,1,0
1679,1000000,139,1,0,15,1,0
1680,1000000,139,1,0,15,1,0
1681,1000000,139,1,0,15,1,0
1682,1000000,139,1,0,15,1,0
1683,6,4,1,0,15,1,0
1684,2,4,1,0,15,1,0
1686,1000000,139,1,0,15,1,0
1687,1000000,139,1,0,15,1,0
1688,1000000,139,1,0,15,1,0
1689,1000000,139,1,0,15,1,0
1690,1000000,139,1,0,15,1,0
1691,1000000,139,1,0,15,1,0
1692,307.692307692308,4,1,0,15,1,0
1891,307.692307692308,4,1,0,15,1,0
1891,-1000,4,1,0,15,0,0
2738,-666.666666666667,4,1,0,15,0,0
2815,-500,4,1,0,15,0,0
2891,-333.333333333333,4,1,0,15,0,0
2968,-222.222222222222,4,1,0,15,0,0
3045,-181.818181818182,4,1,0,15,0,0
4352,-151.515151515152,4,1,0,15,0,0
4967,-129.87012987013,4,1,0,15,0,0
5583,-112.359550561798,4,1,0,15,0,0
5838,307.692307692308,4,1,0,15,1,0
5838,-100,4,1,0,15,0,0
6148,307.692307692308,4,1,0,15,1,0
6923,-16.6666666666667,4,1,0,15,0,0
7114,999999999,4,1,0,15,1,0
7152,120,4,1,0,15,1,0
7190,999999999,4,1,0,15,1,0
7228,120,4,1,0,15,1,0
7266,999999999,4,1,0,15,1,0
7304,120,4,1,0,15,1,0
7342,999999999,4,1,0,15,1,0
7380,120,4,1,0,15,1,0
7410,999999999,4,1,0,15,1,0
7692,307.692307692308,4,1,0,15,1,0
7692,-25,4,1,0,15,0,0
8653,60,4,1,0,15,1,0
8691,999999999,4,1,0,15,1,0
8845,60,4,1,0,15,1,0
8883,999999999,4,1,0,15,1,0
9036,60,4,1,0,15,1,0
9074,999999999,4,1,0,15,1,0
9112,60,4,1,0,15,1,0
9150,999999999,4,1,0,15,1,0
9188,60,4,1,0,15,1,0
9226,999999999,4,1,0,15,1,0
10764,307.692307692308,4,1,0,15,1,0
11072,307.692307692308,4,1,0,15,1,0
12461,4981.139,4,1,0,15,1,0
12462,2,4,1,0,15,1,0
12464,1000000,139,1,0,15,1,0
12465,1000000,139,1,0,15,1,0
12466,1000000,139,1,0,15,1,0
12467,1000000,139,1,0,15,1,0
12468,1000000,139,1,0,15,1,0
12469,1000000,139,1,0,15,1,0
12470,1000000,139,1,0,15,1,0
12471,1246.02828484207,4,1,0,15,1,0
12472,2,4,1,0,15,1,0
12474,1000000,139,1,0,15,1,0
12475,1000000,139,1,0,15,1,0
12476,1000000,139,1,0,15,1,0
12477,1000000,139,1,0,15,1,0
12478,1000000,139,1,0,15,1,0
12479,1000000,139,1,0,15,1,0
12480,554.349332471012,4,1,0,15,1,0
12481,2,4,1,0,15,1,0
12483,1000000,139,1,0,15,1,0
12484,1000000,139,1,0,15,1,0
12485,1000000,139,1,0,15,1,0
12486,1000000,139,1,0,15,1,0
12487,1000000,139,1,0,15,1,0
12488,1000000,139,1,0,15,1,0
12489,1000000,139,1,0,15,1,0
12490,312.260925229121,4,1,0,15,1,0
12491,2,4,1,0,15,1,0
12493,1000000,139,1,0,15,1,0
12494,1000000,139,1,0,15,1,0
12495,1000000,139,1,0,15,1,0
12496,1000000,139,1,0,15,1,0
12497,1000000,139,1,0,15,1,0
12498,1000000,139,1,0,15,1,0
12499,200.208884602936,4,1,0,15,1,0
12500,2,4,1,0,15,1,0
12502,1000000,139,1,0,15,1,0
12503,1000000,139,1,0,15,1,0
12504,1000000,139,1,0,15,1,0
12505,1000000,139,1,0,15,1,0
12506,1000000,139,1,0,15,1,0
12507,1000000,139,1,0,15,1,0
12508,1000000,139,1,0,15,1,0
12509,139.341425973706,4,1,0,15,1,0
12510,2,4,1,0,15,1,0
12512,1000000,139,1,0,15,1,0
12513,1000000,139,1,0,15,1,0
12514,1000000,139,1,0,15,1,0
12515,1000000,139,1,0,15,1,0
12516,1000000,139,1,0,15,1,0
12517,1000000,139,1,0,15,1,0
12518,1000000,139,1,0,15,1,0
12519,102.641478447856,4,1,0,15,1,0
12520,2,4,1,0,15,1,0
12522,1000000,139,1,0,15,1,0
12523,1000000,139,1,0,15,1,0
12524,1000000,139,1,0,15,1,0
12525,1000000,139,1,0,15,1,0
12526,1000000,139,1,0,15,1,0
12527,1000000,139,1,0,15,1,0
12528,78.8223934419769,4,1,0,15,1,0
12529,2,4,1,0,15,1,0
12531,1000000,139,1,0,15,1,0
12532,1000000,139,1,0,15,1,0
12533,1000000,139,1,0,15,1,0
12534,1000000,139,1,0,15,1,0
12535,1000000,139,1,0,15,1,0
12536,1000000,139,1,0,15,1,0
12537,1000000,139,1,0,15,1,0
12538,62.4930346305151,4,1,0,15,1,0
12539,2,4,1,0,15,1,0
12541,1000000,139,1,0,15,1,0
12542,1000000,139,1,0,15,1,0
12543,1000000,139,1,0,15,1,0
12544,1000000,139,1,0,15,1,0
12545,1000000,139,1,0,15,1,0
12546,1000000,139,1,0,15,1,0
12547,1000000,139,1,0,15,1,0
12548,50.813567561296,4,1,0,15,1,0
12549,2,4,1,0,15,1,0
12551,1000000,139,1,0,15,1,0
12552,1000000,139,1,0,15,1,0
12553,1000000,139,1,0,15,1,0
12554,1000000,139,1,0,15,1,0
12555,1000000,139,1,0,15,1,0
12556,1000000,139,1,0,15,1,0
12557,42.1729173959067,4,1,0,15,1,0
12558,2,4,1,0,15,1,0
12560,1000000,139,1,0,15,1,0
12561,1000000,139,1,0,15,1,0
12562,1000000,139,1,0,15,1,0
12563,1000000,139,1,0,15,1,0
12564,1000000,139,1,0,15,1,0
12565,1000000,139,1,0,15,1,0
12566,1000000,139,1,0,15,1,0
12567,1000000,139,1,0,15,1,0
12568,35.6018854758548,4,1,0,15,1,0
12569,2,4,1,0,15,1,0
12571,1000000,139,1,0,15,1,0
12572,1000000,139,1,0,15,1,0
12573,1000000,139,1,0,15,1,0
12574,1000000,139,1,0,15,1,0
12575,1000000,139,1,0,15,1,0
12576,1000000,139,1,0,15,1,0
12577,30.4889668051374,4,1,0,15,1,0
12578,2,4,1,0,15,1,0
12580,1000000,139,1,0,15,1,0
12581,1000000,139,1,0,15,1,0
12582,1000000,139,1,0,15,1,0
12583,1000000,139,1,0,15,1,0
12584,1000000,139,1,0,15,1,0
12585,1000000,139,1,0,15,1,0
12586,1000000,139,1,0,15,1,0
12587,26.4329407307386,4,1,0,15,1,0
12588,2,4,1,0,15,1,0
12590,1000000,139,1,0,15,1,0
12591,1000000,139,1,0,15,1,0
12592,1000000,139,1,0,15,1,0
12593,1000000,139,1,0,15,1,0
12594,1000000,139,1,0,15,1,0
12595,23.1616501749284,4,1,0,15,1,0
12596,2,4,1,0,15,1,0
12598,1000000,139,1,0,15,1,0
12599,1000000,139,1,0,15,1,0
12600,1000000,139,1,0,15,1,0
12601,1000000,139,1,0,15,1,0
12602,1000000,139,1,0,15,1,0
12603,1000000,139,1,0,15,1,0
12604,1000000,139,1,0,15,1,0
12605,20.4852826900727,4,1,0,15,1,0
12606,2,4,1,0,15,1,0
12608,1000000,139,1,0,15,1,0
12609,1000000,139,1,0,15,1,0
12610,1000000,139,1,0,15,1,0
12611,1000000,139,1,0,15,1,0
12612,1000000,139,1,0,15,1,0
12613,1000000,139,1,0,15,1,0
12614,1000000,139,1,0,15,1,0
12615,18.2681212150736,4,1,0,15,1,0
12616,2,4,1,0,15,1,0
12618,1000000,139,1,0,15,1,0
12619,1000000,139,1,0,15,1,0
12620,1000000,139,1,0,15,1,0
12621,1000000,139,1,0,15,1,0
12622,1000000,139,1,0,15,1,0
12623,1000000,139,1,0,15,1,0
12624,1000000,139,1,0,15,1,0
12625,16.4110778057404,4,1,0,15,1,0
12626,2,4,1,0,15,1,0
12628,1000000,139,1,0,15,1,0
12629,1000000,139,1,0,15,1,0
12630,1000000,139,1,0,15,1,0
12631,1000000,139,1,0,15,1,0
12632,1000000,139,1,0,15,1,0
12633,1000000,139,1,0,15,1,0
12634,14.8404393066844,4,1,0,15,1,0
12635,2,4,1,0,15,1,0
12637,1000000,139,1,0,15,1,0
12638,1000000,139,1,0,15,1,0
12639,1000000,139,1,0,15,1,0
12640,1000000,139,1,0,15,1,0
12641,1000000,139,1,0,15,1,0
12642,1000000,139,1,0,15,1,0
12643,1000000,139,1,0,15,1,0
12644,13.5004448396575,4,1,0,15,1,0
12645,2,4,1,0,15,1,0
12647,1000000,139,1,0,15,1,0
12648,1000000,139,1,0,15,1,0
12649,1000000,139,1,0,15,1,0
12650,1000000,139,1,0,15,1,0
12651,1000000,139,1,0,15,1,0
12652,1000000,139,1,0,15,1,0
12653,12.3482884140332,4,1,0,15,1,0
12654,2,4,1,0,15,1,0
12656,1000000,139,1,0,15,1,0
12657,1000000,139,1,0,15,1,0
12658,1000000,139,1,0,15,1,0
12659,1000000,139,1,0,15,1,0
12660,1000000,139,1,0,15,1,0
12661,1000000,139,1,0,15,1,0
12662,1000000,139,1,0,15,1,0
12663,11.3506669368125,4,1,0,15,1,0
12664,2,4,1,0,15,1,0
12666,1000000,139,1,0,15,1,0
12667,1000000,139,1,0,15,1,0
12668,1000000,139,1,0,15,1,0
12669,1000000,139,1,0,15,1,0
12670,1000000,139,1,0,15,1,0
12671,1000000,139,1,0,15,1,0
12672,10.4813581184844,4,1,0,15,1,0
12673,2,4,1,0,15,1,0
12675,1000000,139,1,0,15,1,0
12676,1000000,139,1,0,15,1,0
12677,1000000,139,1,0,15,1,0
12678,1000000,139,1,0,15,1,0
12679,1000000,139,1,0,15,1,0
12680,1000000,139,1,0,15,1,0
12681,1000000,139,1,0,15,1,0
12682,9.71948591695088,4,1,0,15,1,0
12683,2,4,1,0,15,1,0
12685,1000000,139,1,0,15,1,0
12686,1000000,139,1,0,15,1,0
12687,1000000,139,1,0,15,1,0
12688,1000000,139,1,0,15,1,0
12689,1000000,139,1,0,15,1,0
12690,1000000,139,1,0,15,1,0
12691,1000000,139,1,0,15,1,0
12692,9.04827116944833,4,1,0,15,1,0
12693,2,4,1,0,15,1,0
12695,1000000,139,1,0,15,1,0
12696,1000000,139,1,0,15,1,0
12697,1000000,139,1,0,15,1,0
12698,1000000,139,1,0,15,1,0
12699,1000000,139,1,0,15,1,0
12700,1000000,139,1,0,15,1,0
12701,1000000,139,1,0,15,1,0
12702,8.45409419805378,4,1,0,15,1,0
12703,2,4,1,0,15,1,0
12705,1000000,139,1,0,15,1,0
12706,1000000,139,1,0,15,1,0
12707,1000000,139,1,0,15,1,0
12708,1000000,139,1,0,15,1,0
12709,1000000,139,1,0,15,1,0
12710,1000000,139,1,0,15,1,0
12711,7.92581647137895,4,1,0,15,1,0
12712,2,4,1,0,15,1,0
12714,1000000,139,1,0,15,1,0
12715,1000000,139,1,0,15,1,0
12716,1000000,139,1,0,15,1,0
12717,1000000,139,1,0,15,1,0
12718,1000000,139,1,0,15,1,0
12719,1000000,139,1,0,15,1,0
12720,7.45425232172006,4,1,0,15,1,0
12721,2,4,1,0,15,1,0
12723,1000000,139,1,0,15,1,0
12724,1000000,139,1,0,15,1,0
12725,1000000,139,1,0,15,1,0
12726,1000000,139,1,0,15,1,0
12727,1000000,139,1,0,15,1,0
12728,1000000,139,1,0,15,1,0
12729,1000000,139,1,0,15,1,0
12730,7.03177600980698,4,1,0,15,1,0
12731,2,4,1,0,15,1,0
12733,1000000,139,1,0,15,1,0
12734,1000000,139,1,0,15,1,0
12735,1000000,139,1,0,15,1,0
12736,1000000,139,1,0,15,1,0
12737,1000000,139,1,0,15,1,0
12738,1000000,139,1,0,15,1,0
12739,1000000,139,1,0,15,1,0
12740,6.65201080863063,4,1,0,15,1,0
12741,2,4,1,0,15,1,0
12743,1000000,139,1,0,15,1,0
12744,1000000,139,1,0,15,1,0
12745,1000000,139,1,0,15,1,0
12746,1000000,139,1,0,15,1,0
12747,1000000,139,1,0,15,1,0
12748,1000000,139,1,0,15,1,0
12749,6.30959743401292,4,1,0,15,1,0
12750,2,4,1,0,15,1,0
12752,1000000,139,1,0,15,1,0
12753,1000000,139,1,0,15,1,0
12754,1000000,139,1,0,15,1,0
12755,1000000,139,1,0,15,1,0
12756,1000000,139,1,0,15,1,0
12757,1000000,139,1,0,15,1,0
12758,1000000,139,1,0,15,1,0
12759,6,4,1,0,15,1,0
12760,2,4,1,0,15,1,0
12762,1000000,139,1,0,15,1,0
12763,1000000,139,1,0,15,1,0
12764,1000000,139,1,0,15,1,0
12765,1000000,139,1,0,15,1,0
12766,1000000,139,1,0,15,1,0
12767,1000000,139,1,0,15,1,0
12768,307.692307692308,4,1,0,15,1,0
12835,66.6666666666667,4,1,0,15,1,0
13142,307.692307692308,4,1,0,15,1,0
13526,-20,4,1,0,15,0,0
15072,120,4,1,0,15,1,0
15110,999999999,4,1,0,15,1,0
15148,120,4,1,0,15,1,0
15187,999999999,4,1,0,15,1,0
15225,120,4,1,0,15,1,0
15264,999999999,4,1,0,15,1,0
15302,120,4,1,0,15,1,0
15341,999999999,4,1,0,15,1,0
15379,120,4,1,0,15,1,0
15380,999999999,4,1,0,15,1,0
15687,307.692307692308,4,1,0,15,1,0
16533,-16.6666666666667,4,1,0,15,0,0
16648,60,4,1,0,15,1,0
16687,999999999,4,1,0,15,1,0
16840,60,4,1,0,15,1,0
16879,999999999,4,1,0,15,1,0
17033,60,4,1,0,15,1,0
17071,999999999,4,1,0,15,1,0
17110,60,4,1,0,15,1,0
17148,999999999,4,1,0,15,1,0
17187,307.692307692308,4,1,0,15,1,0
17188,999999999,4,1,0,15,1,0
18725,307.692307692308,4,1,0,15,1,0
18801,-1000,4,1,0,15,0,0
18825,-500,4,1,0,15,0,0
18878,-333.333333333333,4,1,0,15,0,0
18955,-250,4,1,0,15,0,0
19032,-200,4,1,0,15,0,0
19132,-166.666666666667,4,1,0,15,0,0
19340,-142.857142857143,4,1,0,15,0,0
19417,-125,4,1,0,15,0,0
19494,-111.111111111111,4,1,0,15,0,0
19571,-105.263157894737,4,1,0,15,0,0
19648,-100,4,1,0,15,0,0
19687,307.692307692308,4,1,0,15,1,0
19687,-121.951219512195,4,1,0,15,0,0
39225,-117.647058823529,4,1,0,15,0,0
39379,-111.111111111111,4,1,0,15,0,0
39533,-109.89010989011,4,1,0,15,0,0
39687,-108.695652173913,4,1,0,15,0,0
39840,-107.52688172043,4,1,0,15,0,0
39994,-106.382978723404,4,1,0,15,0,0
40148,-105.263157894737,4,1,0,15,0,0
40302,-104.166666666667,4,1,0,15,0,0
40456,-103.092783505155,4,1,0,15,0,0
40610,-102.040816326531,4,1,0,15,0,0
40763,-102.040816326531,4,1,0,15,0,0
40917,-100,4,1,0,15,0,0
41533,-144.928,4,1,0,15,0,0
41586.9,-85.695,4,1,0,15,0,0
41687,-144.928,4,1,0,15,0,0
41740.55,-85.695,4,1,0,15,0,0
41840,-100,4,1,0,15,0,0
47994,999999999,4,1,0,15,1,0
47997,2492.1083236418,4,1,0,15,1,0
47998,2,4,1,0,15,1,0
48000,1000000,139,1,0,15,1,0
48001,1000000,139,1,0,15,1,0
48002,1000000,139,1,0,15,1,0
48003,1000000,139,1,0,15,1,0
48004,1000000,139,1,0,15,1,0
48005,1000000,139,1,0,15,1,0
48006,1000000,139,1,0,15,1,0
48007,624.518600245644,4,1,0,15,1,0
48008,2,4,1,0,15,1,0
48010,1000000,139,1,0,15,1,0
48011,1000000,139,1,0,15,1,0
48012,1000000,139,1,0,15,1,0
48013,1000000,139,1,0,15,1,0
48014,1000000,139,1,0,15,1,0
48015,1000000,139,1,0,15,1,0
48016,278.683499150015,4,1,0,15,1,0
48017,2,4,1,0,15,1,0
48019,1000000,139,1,0,15,1,0
48020,1000000,139,1,0,15,1,0
48021,1000000,139,1,0,15,1,0
48022,1000000,139,1,0,15,1,0
48023,1000000,139,1,0,15,1,0
48024,1000000,139,1,0,15,1,0
48025,1000000,139,1,0,15,1,0
48026,157.644993983216,4,1,0,15,1,0
48027,2,4,1,0,15,1,0
48029,1000000,139,1,0,15,1,0
48030,1000000,139,1,0,15,1,0
48031,1000000,139,1,0,15,1,0
48032,1000000,139,1,0,15,1,0
48033,1000000,139,1,0,15,1,0
48034,1000000,139,1,0,15,1,0
48035,101.627049055377,4,1,0,15,1,0
48036,2,4,1,0,15,1,0
48038,1000000,139,1,0,15,1,0
48039,1000000,139,1,0,15,1,0
48040,1000000,139,1,0,15,1,0
48041,1000000,139,1,0,15,1,0
48042,1000000,139,1,0,15,1,0
48043,1000000,139,1,0,15,1,0
48044,1000000,139,1,0,15,1,0
48045,71.2037709517096,4,1,0,15,1,0
48046,2,4,1,0,15,1,0
48048,1000000,139,1,0,15,1,0
48049,1000000,139,1,0,15,1,0
48050,1000000,139,1,0,15,1,0
48051,1000000,139,1,0,15,1,0
48052,1000000,139,1,0,15,1,0
48053,1000000,139,1,0,15,1,0
48054,52.8658581714757,4,1,0,15,1,0
48055,2,4,1,0,15,1,0
48057,1000000,139,1,0,15,1,0
48058,1000000,139,1,0,15,1,0
48059,1000000,139,1,0,15,1,0
48060,1000000,139,1,0,15,1,0
48061,1000000,139,1,0,15,1,0
48062,1000000,139,1,0,15,1,0
48063,1000000,139,1,0,15,1,0
48064,40.9705653801454,4,1,0,15,1,0
48065,2,4,1,0,15,1,0
48067,1000000,139,1,0,15,1,0
48068,1000000,139,1,0,15,1,0
48069,1000000,139,1,0,15,1,0
48070,1000000,139,1,0,15,1,0
48071,1000000,139,1,0,15,1,0
48072,1000000,139,1,0,15,1,0
48073,1000000,139,1,0,15,1,0
48074,32.8221466340342,4,1,0,15,1,0
48075,2,4,1,0,15,1,0
48077,1000000,139,1,0,15,1,0
48078,1000000,139,1,0,15,1,0
48079,1000000,139,1,0,15,1,0
48080,1000000,139,1,0,15,1,0
48081,1000000,139,1,0,15,1,0
48082,1000000,139,1,0,15,1,0
48083,27.0008896793149,4,1,0,15,1,0
48084,2,4,1,0,15,1,0
48086,1000000,139,1,0,15,1,0
48087,1000000,139,1,0,15,1,0
48088,1000000,139,1,0,15,1,0
48089,1000000,139,1,0,15,1,0
48090,1000000,139,1,0,15,1,0
48091,1000000,139,1,0,15,1,0
48092,1000000,139,1,0,15,1,0
48093,22.7013381682139,4,1,0,15,1,0
48094,2,4,1,0,15,1,0
48096,1000000,139,1,0,15,1,0
48097,1000000,139,1,0,15,1,0
48098,1000000,139,1,0,15,1,0
48099,1000000,139,1,0,15,1,0
48100,1000000,139,1,0,15,1,0
48101,1000000,139,1,0,15,1,0
48102,19.4389718339018,4,1,0,15,1,0
48103,2,4,1,0,15,1,0
48105,1000000,139,1,0,15,1,0
48106,1000000,139,1,0,15,1,0
48107,1000000,139,1,0,15,1,0
48108,1000000,139,1,0,15,1,0
48109,1000000,139,1,0,15,1,0
48110,1000000,139,1,0,15,1,0
48111,1000000,139,1,0,15,1,0
48112,16.9081860137176,4,1,0,15,1,0
48113,2,4,1,0,15,1,0
48115,1000000,139,1,0,15,1,0
48116,1000000,139,1,0,15,1,0
48117,1000000,139,1,0,15,1,0
48118,1000000,139,1,0,15,1,0
48119,1000000,139,1,0,15,1,0
48120,1000000,139,1,0,15,1,0
48121,1000000,139,1,0,15,1,0
48122,14.9085064956363,4,1,0,15,1,0
48123,2,4,1,0,15,1,0
48125,1000000,139,1,0,15,1,0
48126,1000000,139,1,0,15,1,0
48127,1000000,139,1,0,15,1,0
48128,1000000,139,1,0,15,1,0
48129,1000000,139,1,0,15,1,0
48130,1000000,139,1,0,15,1,0
48131,13.3040230922363,4,1,0,15,1,0
48132,2,4,1,0,15,1,0
48134,1000000,139,1,0,15,1,0
48135,1000000,139,1,0,15,1,0
48136,1000000,139,1,0,15,1,0
48137,1000000,139,1,0,15,1,0
48138,1000000,139,1,0,15,1,0
48139,1000000,139,1,0,15,1,0
48140,1000000,139,1,0,15,1,0
48141,12,4,1,0,15,1,0
48142,2,4,1,0,15,1,0
48144,1000000,139,1,0,15,1,0
48145,1000000,139,1,0,15,1,0
48146,1000000,139,1,0,15,1,0
48147,1000000,139,1,0,15,1,0
48148,1000000,139,1,0,15,1,0
48149,1000000,139,1,0,15,1,0
48150,307.692307692308,4,1,0,15,1,0
48228,2492.1083236418,4,1,0,15,1,0
48229,2,4,1,0,15,1,0
48231,1000000,139,1,0,15,1,0
48232,1000000,139,1,0,15,1,0
48233,1000000,139,1,0,15,1,0
48234,1000000,139,1,0,15,1,0
48235,1000000,139,1,0,15,1,0
48236,1000000,139,1,0,15,1,0
48237,1000000,139,1,0,15,1,0
48238,624.518600245644,4,1,0,15,1,0
48239,2,4,1,0,15,1,0
48241,1000000,139,1,0,15,1,0
48242,1000000,139,1,0,15,1,0
48243,1000000,139,1,0,15,1,0
48244,1000000,139,1,0,15,1,0
48245,1000000,139,1,0,15,1,0
48246,1000000,139,1,0,15,1,0
48247,278.683499150015,4,1,0,15,1,0
48248,2,4,1,0,15,1,0
48250,1000000,139,1,0,15,1,0
48251,1000000,139,1,0,15,1,0
48252,1000000,139,1,0,15,1,0
48253,1000000,139,1,0,15,1,0
48254,1000000,139,1,0,15,1,0
48255,1000000,139,1,0,15,1,0
48256,1000000,139,1,0,15,1,0
48257,157.644993983216,4,1,0,15,1,0
48258,2,4,1,0,15,1,0
48260,1000000,139,1,0,15,1,0
48261,1000000,139,1,0,15,1,0
48262,1000000,139,1,0,15,1,0
48263,1000000,139,1,0,15,1,0
48264,1000000,139,1,0,15,1,0
48265,1000000,139,1,0,15,1,0
48266,101.627049055377,4,1,0,15,1,0
48267,2,4,1,0,15,1,0
48269,1000000,139,1,0,15,1,0
48270,1000000,139,1,0,15,1,0
48271,1000000,139,1,0,15,1,0
48272,1000000,139,1,0,15,1,0
48273,1000000,139,1,0,15,1,0
48274,1000000,139,1,0,15,1,0
48275,1000000,139,1,0,15,1,0
48276,71.2037709517096,4,1,0,15,1,0
48277,2,4,1,0,15,1,0
48279,1000000,139,1,0,15,1,0
48280,1000000,139,1,0,15,1,0
48281,1000000,139,1,0,15,1,0
48282,1000000,139,1,0,15,1,0
48283,1000000,139,1,0,15,1,0
48284,1000000,139,1,0,15,1,0
48285,52.8658581714757,4,1,0,15,1,0
48286,2,4,1,0,15,1,0
48288,1000000,139,1,0,15,1,0
48289,1000000,139,1,0,15,1,0
48290,1000000,139,1,0,15,1,0
48291,1000000,139,1,0,15,1,0
48292,1000000,139,1,0,15,1,0
48293,1000000,139,1,0,15,1,0
48294,1000000,139,1,0,15,1,0
48295,40.9705653801454,4,1,0,15,1,0
48296,2,4,1,0,15,1,0
48298,1000000,139,1,0,15,1,0
48299,1000000,139,1,0,15,1,0
48300,1000000,139,1,0,15,1,0
48301,1000000,139,1,0,15,1,0
48302,1000000,139,1,0,15,1,0
48303,1000000,139,1,0,15,1,0
48304,1000000,139,1,0,15,1,0
48305,32.8221466340342,4,1,0,15,1,0
48306,2,4,1,0,15,1,0
48308,1000000,139,1,0,15,1,0
48309,1000000,139,1,0,15,1,0
48310,1000000,139,1,0,15,1,0
48311,1000000,139,1,0,15,1,0
48312,1000000,139,1,0,15,1,0
48313,1000000,139,1,0,15,1,0
48314,27.0008896793149,4,1,0,15,1,0
48315,2,4,1,0,15,1,0
48317,1000000,139,1,0,15,1,0
48318,1000000,139,1,0,15,1,0
48319,1000000,139,1,0,15,1,0
48320,1000000,139,1,0,15,1,0
48321,1000000,139,1,0,15,1,0
48322,1000000,139,1,0,15,1,0
48323,1000000,139,1,0,15,1,0
48324,22.7013381682139,4,1,0,15,1,0
48325,2,4,1,0,15,1,0
48327,1000000,139,1,0,15,1,0
48328,1000000,139,1,0,15,1,0
48329,1000000,139,1,0,15,1,0
48330,1000000,139,1,0,15,1,0
48331,1000000,139,1,0,15,1,0
48332,1000000,139,1,0,15,1,0
48333,19.4389718339018,4,1,0,15,1,0
48334,2,4,1,0,15,1,0
48336,1000000,139,1,0,15,1,0
48337,1000000,139,1,0,15,1,0
48338,1000000,139,1,0,15,1,0
48339,1000000,139,1,0,15,1,0
48340,1000000,139,1,0,15,1,0
48341,1000000,139,1,0,15,1,0
48342,1000000,139,1,0,15,1,0
48343,16.9081860137176,4,1,0,15,1,0
48344,2,4,1,0,15,1,0
48346,1000000,139,1,0,15,1,0
48347,1000000,139,1,0,15,1,0
48348,1000000,139,1,0,15,1,0
48349,1000000,139,1,0,15,1,0
48350,1000000,139,1,0,15,1,0
48351,1000000,139,1,0,15,1,0
48352,1000000,139,1,0,15,1,0
48353,14.9085064956363,4,1,0,15,1,0
48354,2,4,1,0,15,1,0
48356,1000000,139,1,0,15,1,0
48357,1000000,139,1,0,15,1,0
48358,1000000,139,1,0,15,1,0
48359,1000000,139,1,0,15,1,0
48360,1000000,139,1,0,15,1,0
48361,1000000,139,1,0,15,1,0
48362,13.3040230922363,4,1,0,15,1,0
48363,2,4,1,0,15,1,0
48365,1000000,139,1,0,15,1,0
48366,1000000,139,1,0,15,1,0
48367,1000000,139,1,0,15,1,0
48368,1000000,139,1,0,15,1,0
48369,1000000,139,1,0,15,1,0
48370,1000000,139,1,0,15,1,0
48371,1000000,139,1,0,15,1,0
48372,12,4,1,0,15,1,0
48373,2,4,1,0,15,1,0
48375,1000000,139,1,0,15,1,0
48376,1000000,139,1,0,15,1,0
48377,1000000,139,1,0,15,1,0
48378,1000000,139,1,0,15,1,0
48379,1000000,139,1,0,15,1,0
48380,1000000,139,1,0,15,1,0
48381,307.692307692308,4,1,0,15,1,0
48458,2492.1083236418,4,1,0,15,1,0
48459,2,4,1,0,15,1,0
48461,1000000,139,1,0,15,1,0
48462,1000000,139,1,0,15,1,0
48463,1000000,139,1,0,15,1,0
48464,1000000,139,1,0,15,1,0
48465,1000000,139,1,0,15,1,0
48466,1000000,139,1,0,15,1,0
48467,1000000,139,1,0,15,1,0
48468,624.518600245644,4,1,0,15,1,0
48469,2,4,1,0,15,1,0
48471,1000000,139,1,0,15,1,0
48472,1000000,139,1,0,15,1,0
48473,1000000,139,1,0,15,1,0
48474,1000000,139,1,0,15,1,0
48475,1000000,139,1,0,15,1,0
48476,1000000,139,1,0,15,1,0
48477,278.683499150015,4,1,0,15,1,0
48478,2,4,1,0,15,1,0
48480,1000000,139,1,0,15,1,0
48481,1000000,139,1,0,15,1,0
48482,1000000,139,1,0,15,1,0
48483,1000000,139,1,0,15,1,0
48484,1000000,139,1,0,15,1,0
48485,1000000,139,1,0,15,1,0
48486,1000000,139,1,0,15,1,0
48487,157.644993983216,4,1,0,15,1,0
48488,2,4,1,0,15,1,0
48490,1000000,139,1,0,15,1,0
48491,1000000,139,1,0,15,1,0
48492,1000000,139,1,0,15,1,0
48493,1000000,139,1,0,15,1,0
48494,1000000,139,1,0,15,1,0
48495,1000000,139,1,0,15,1,0
48496,101.627049055377,4,1,0,15,1,0
48497,2,4,1,0,15,1,0
48499,1000000,139,1,0,15,1,0
48500,1000000,139,1,0,15,1,0
48501,1000000,139,1,0,15,1,0
48502,1000000,139,1,0,15,1,0
48503,1000000,139,1,0,15,1,0
48504,1000000,139,1,0,15,1,0
48505,1000000,139,1,0,15,1,0
48506,71.2037709517096,4,1,0,15,1,0
48507,2,4,1,0,15,1,0
48509,1000000,139,1,0,15,1,0
48510,1000000,139,1,0,15,1,0
48511,1000000,139,1,0,15,1,0
48512,1000000,139,1,0,15,1,0
48513,1000000,139,1,0,15,1,0
48514,1000000,139,1,0,15,1,0
48515,52.8658581714757,4,1,0,15,1,0
48516,2,4,1,0,15,1,0
48518,1000000,139,1,0,15,1,0
48519,1000000,139,1,0,15,1,0
48520,1000000,139,1,0,15,1,0
48521,1000000,139,1,0,15,1,0
48522,1000000,139,1,0,15,1,0
48523,1000000,139,1,0,15,1,0
48524,1000000,139,1,0,15,1,0
48525,40.9705653801454,4,1,0,15,1,0
48526,2,4,1,0,15,1,0
48528,1000000,139,1,0,15,1,0
48529,1000000,139,1,0,15,1,0
48530,1000000,139,1,0,15,1,0
48531,1000000,139,1,0,15,1,0
48532,1000000,139,1,0,15,1,0
48533,1000000,139,1,0,15,1,0
48534,1000000,139,1,0,15,1,0
48535,32.8221466340342,4,1,0,15,1,0
48536,2,4,1,0,15,1,0
48538,1000000,139,1,0,15,1,0
48539,1000000,139,1,0,15,1,0
48540,1000000,139,1,0,15,1,0
48541,1000000,139,1,0,15,1,0
48542,1000000,139,1,0,15,1,0
48543,1000000,139,1,0,15,1,0
48544,27.0008896793149,4,1,0,15,1,0
48545,2,4,1,0,15,1,0
48547,1000000,139,1,0,15,1,0
48548,1000000,139,1,0,15,1,0
48549,1000000,139,1,0,15,1,0
48550,1000000,139,1,0,15,1,0
48551,1000000,139,1,0,15,1,0
48552,1000000,139,1,0,15,1,0
48553,1000000,139,1,0,15,1,0
48554,22.7013381682139,4,1,0,15,1,0
48555,2,4,1,0,15,1,0
48557,1000000,139,1,0,15,1,0
48558,1000000,139,1,0,15,1,0
48559,1000000,139,1,0,15,1,0
48560,1000000,139,1,0,15,1,0
48561,1000000,139,1,0,15,1,0
48562,1000000,139,1,0,15,1,0
48563,19.4389718339018,4,1,0,15,1,0
48564,2,4,1,0,15,1,0
48566,1000000,139,1,0,15,1,0
48567,1000000,139,1,0,15,1,0
48568,1000000,139,1,0,15,1,0
48569,1000000,139,1,0,15,1,0
48570,1000000,139,1,0,15,1,0
48571,1000000,139,1,0,15,1,0
48572,1000000,139,1,0,15,1,0
48573,16.9081860137176,4,1,0,15,1,0
48574,2,4,1,0,15,1,0
48576,1000000,139,1,0,15,1,0
48577,1000000,139,1,0,15,1,0
48578,1000000,139,1,0,15,1,0
48579,1000000,139,1,0,15,1,0
48580,1000000,139,1,0,15,1,0
48581,1000000,139,1,0,15,1,0
48582,1000000,139,1,0,15,1,0
48583,14.9085064956363,4,1,0,15,1,0
48584,2,4,1,0,15,1,0
48586,1000000,139,1,0,15,1,0
48587,1000000,139,1,0,15,1,0
48588,1000000,139,1,0,15,1,0
48589,1000000,139,1,0,15,1,0
48590,1000000,139,1,0,15,1,0
48591,1000000,139,1,0,15,1,0
48592,13.3040230922363,4,1,0,15,1,0
48593,2,4,1,0,15,1,0
48595,1000000,139,1,0,15,1,0
48596,1000000,139,1,0,15,1,0
48597,1000000,139,1,0,15,1,0
48598,1000000,139,1,0,15,1,0
48599,1000000,139,1,0,15,1,0
48600,1000000,139,1,0,15,1,0
48601,1000000,139,1,0,15,1,0
48602,12,4,1,0,15,1,0
48603,2,4,1,0,15,1,0
48605,1000000,139,1,0,15,1,0
48606,1000000,139,1,0,15,1,0
48607,1000000,139,1,0,15,1,0
48608,1000000,139,1,0,15,1,0
48609,1000000,139,1,0,15,1,0
48610,1000000,139,1,0,15,1,0
48611,307.692307692308,4,1,0,15,1,0
48689,2492.1083236418,4,1,0,15,1,0
48690,2,4,1,0,15,1,0
48692,1000000,139,1,0,15,1,0
48693,1000000,139,1,0,15,1,0
48694,1000000,139,1,0,15,1,0
48695,1000000,139,1,0,15,1,0
48696,1000000,139,1,0,15,1,0
48697,1000000,139,1,0,15,1,0
48698,1000000,139,1,0,15,1,0
48699,624.518600245644,4,1,0,15,1,0
48700,2,4,1,0,15,1,0
48702,1000000,139,1,0,15,1,0
48703,1000000,139,1,0,15,1,0
48704,1000000,139,1,0,15,1,0
48705,1000000,139,1,0,15,1,0
48706,1000000,139,1,0,15,1,0
48707,1000000,139,1,0,15,1,0
48708,278.683499150015,4,1,0,15,1,0
48709,2,4,1,0,15,1,0
48711,1000000,139,1,0,15,1,0
48712,1000000,139,1,0,15,1,0
48713,1000000,139,1,0,15,1,0
48714,1000000,139,1,0,15,1,0
48715,1000000,139,1,0,15,1,0
48716,1000000,139,1,0,15,1,0
48717,1000000,139,1,0,15,1,0
48718,157.644993983216,4,1,0,15,1,0
48719,2,4,1,0,15,1,0
48721,1000000,139,1,0,15,1,0
48722,1000000,139,1,0,15,1,0
48723,1000000,139,1,0,15,1,0
48724,1000000,139,1,0,15,1,0
48725,1000000,139,1,0,15,1,0
48726,1000000,139,1,0,15,1,0
48727,101.627049055377,4,1,0,15,1,0
48728,2,4,1,0,15,1,0
48730,1000000,139,1,0,15,1,0
48731,1000000,139,1,0,15,1,0
48732,1000000,139,1,0,15,1,0
48733,1000000,139,1,0,15,1,0
48734,1000000,139,1,0,15,1,0
48735,1000000,139,1,0,15,1,0
48736,1000000,139,1,0,15,1,0
48737,71.2037709517096,4,1,0,15,1,0
48738,2,4,1,0,15,1,0
48740,1000000,139,1,0,15,1,0
48741,1000000,139,1,0,15,1,0
48742,1000000,139,1,0,15,1,0
48743,1000000,139,1,0,15,1,0
48744,1000000,139,1,0,15,1,0
48745,1000000,139,1,0,15,1,0
48746,52.8658581714757,4,1,0,15,1,0
48747,2,4,1,0,15,1,0
48749,1000000,139,1,0,15,1,0
48750,1000000,139,1,0,15,1,0
48751,1000000,139,1,0,15,1,0
48752,1000000,139,1,0,15,1,0
48753,1000000,139,1,0,15,1,0
48754,1000000,139,1,0,15,1,0
48755,1000000,139,1,0,15,1,0
48756,40.9705653801454,4,1,0,15,1,0
48757,2,4,1,0,15,1,0
48759,1000000,139,1,0,15,1,0
48760,1000000,139,1,0,15,1,0
48761,1000000,139,1,0,15,1,0
48762,1000000,139,1,0,15,1,0
48763,1000000,139,1,0,15,1,0
48764,1000000,139,1,0,15,1,0
48765,1000000,139,1,0,15,1,0
48766,32.8221466340342,4,1,0,15,1,0
48767,2,4,1,0,15,1,0
48769,1000000,139,1,0,15,1,0
48770,1000000,139,1,0,15,1,0
48771,1000000,139,1,0,15,1,0
48772,1000000,139,1,0,15,1,0
48773,1000000,139,1,0,15,1,0
48774,1000000,139,1,0,15,1,0
48775,27.0008896793149,4,1,0,15,1,0
48776,2,4,1,0,15,1,0
48778,1000000,139,1,0,15,1,0
48779,1000000,139,1,0,15,1,0
48780,1000000,139,1,0,15,1,0
48781,1000000,139,1,0,15,1,0
48782,1000000,139,1,0,15,1,0
48783,1000000,139,1,0,15,1,0
48784,1000000,139,1,0,15,1,0
48785,22.7013381682139,4,1,0,15,1,0
48786,2,4,1,0,15,1,0
48788,1000000,139,1,0,15,1,0
48789,1000000,139,1,0,15,1,0
48790,1000000,139,1,0,15,1,0
48791,1000000,139,1,0,15,1,0
48792,1000000,139,1,0,15,1,0
48793,1000000,139,1,0,15,1,0
48794,19.4389718339018,4,1,0,15,1,0
48795,2,4,1,0,15,1,0
48797,1000000,139,1,0,15,1,0
48798,1000000,139,1,0,15,1,0
48799,1000000,139,1,0,15,1,0
48800,1000000,139,1,0,15,1,0
48801,1000000,139,1,0,15,1,0
48802,1000000,139,1,0,15,1,0
48803,1000000,139,1,0,15,1,0
48804,16.9081860137176,4,1,0,15,1,0
48805,2,4,1,0,15,1,0
48807,1000000,139,1,0,15,1,0
48808,1000000,139,1,0,15,1,0
48809,1000000,139,1,0,15,1,0
48810,1000000,139,1,0,15,1,0
48811,1000000,139,1,0,15,1,0
48812,1000000,139,1,0,15,1,0
48813,1000000,139,1,0,15,1,0
48814,14.9085064956363,4,1,0,15,1,0
48815,2,4,1,0,15,1,0
48817,1000000,139,1,0,15,1,0
48818,1000000,139,1,0,15,1,0
48819,1000000,139,1,0,15,1,0
48820,1000000,139,1,0,15,1,0
48821,1000000,139,1,0,15,1,0
48822,1000000,139,1,0,15,1,0
48823,13.3040230922363,4,1,0,15,1,0
48824,2,4,1,0,15,1,0
48826,1000000,139,1,0,15,1,0
48827,1000000,139,1,0,15,1,0
48828,1000000,139,1,0,15,1,0
48829,1000000,139,1,0,15,1,0
48830,1000000,139,1,0,15,1,0
48831,1000000,139,1,0,15,1,0
48832,1000000,139,1,0,15,1,0
48833,12,4,1,0,15,1,0
48834,2,4,1,0,15,1,0
48836,1000000,139,1,0,15,1,0
48837,1000000,139,1,0,15,1,0
48838,1000000,139,1,0,15,1,0
48839,1000000,139,1,0,15,1,0
48840,1000000,139,1,0,15,1,0
48841,1000000,139,1,0,15,1,0
48842,307.692307692308,4,1,0,15,1,0
48917,307.692307692308,4,1,0,15,1,0
54147,-144.928,4,2,0,15,0,0
54224,-76.336,4,2,0,15,0,0
54301,-144.928,4,2,0,15,0,0
54455,-76.336,4,2,0,15,0,0
54609,-144.928,4,2,0,15,0,0
54686,-76.336,4,2,0,15,0,0
54763,-144.928,4,2,0,15,0,0
54840,-76.336,4,2,0,15,0,0
54917,-144.928,4,2,0,15,0,0
55070.5,-76.336,4,2,0,15,0,0
55224,-144.928,4,2,0,15,0,0
55301,-76.336,4,2,0,15,0,0
55378,-144.928,4,2,0,15,0,0
55455,-76.336,4,2,0,15,0,0
55532,-144.928,4,2,0,15,0,0
55686,-76.336,4,2,0,15,0,0
55840,-144.928,4,2,0,15,0,0
55916.5,-76.336,4,2,0,15,0,0
55993,-144.928,4,2,0,15,0,0
56070,-76.336,4,2,0,15,0,0
56147,-144.928,4,2,0,15,0,0
56301,-76.336,4,2,0,15,0,0
56455,-144.928,4,2,0,15,0,0
56532,-76.336,4,2,0,15,0,0
56609,-144.928,4,2,0,15,0,0
56686,-76.336,4,2,0,15,0,0
56763,-144.928,4,2,0,15,0,0
56840,-76.336,4,2,0,15,0,0
56917,-144.928,4,2,0,15,0,0
56993.5,-76.336,4,2,0,15,0,0
57070,-144.928,4,2,0,15,0,0
57147,-76.336,4,2,0,15,0,0
57224,-144.928,4,2,0,15,0,0
57301,-76.336,4,2,0,15,0,0
57378,-144.928,4,2,0,15,0,0
57455,-76.336,4,2,0,15,0,0
57532,-144.928,4,2,0,15,0,0
57609,-76.336,4,2,0,15,0,0
57686,-144.928,4,2,0,15,0,0
57763,-76.336,4,2,0,15,0,0
57840,999999999,4,1,0,15,1,0
57840,-100,4,2,0,15,0,0
58763,307.692307692308,4,1,0,15,1,0
58763,-100,4,1,0,15,0,0
59070,-50,4,1,0,15,0,0
59109,-100,4,1,0,15,0,0
63378,-58.8235294117647,4,1,0,15,0,0
63416,-399.999999999997,4,1,0,15,0,0
63455,-100,4,1,0,15,0,0
65224,-100,4,1,0,15,0,0
65301,-133.333333333333,4,1,0,15,0,0
65378,-66.6666666666667,4,1,0,15,0,0
65455,-133.333333333333,4,1,0,15,0,0
65532,-66.6666666666667,4,1,0,15,0,0
65609,-133.333333333333,4,1,0,15,0,0
65686,-80,4,1,0,15,0,0
65763,-133.333333333333,4,1,0,15,0,0
65839,-80,4,1,0,15,0,0
65916,-133.333333333333,4,1,0,15,0,0
65993,-100,4,1,0,15,0,0
66070,-133.333333333333,4,1,0,15,0,0
66147,-100,4,1,0,15,0,0
66224,-133.333333333333,4,1,0,15,0,0
66301,-66.6666666666667,4,1,0,15,0,0
66378,-133.333333333333,4,1,0,15,0,0
66416,-100,4,1,0,15,0,0
67724,-133.333333333333,4,1,0,15,0,0
67763,-100,4,1,0,15,0,0
67801,-133.333333333333,4,1,0,15,0,0
67839,-100,4,1,0,15,0,0
67878,-133.333333333333,4,1,0,15,0,0
67916,-100,4,1,0,15,0,0
67955,-133.333333333333,4,1,0,15,0,0
67993,-100,4,1,0,15,0,0
68032,-133.333333333333,4,1,0,15,0,0
68070,-100,4,1,0,15,0,0
68109,-133.333333333333,4,1,0,15,0,0
68147,-100,4,1,0,15,0,0
68186,-133.333333333333,4,1,0,15,0,0
68224,-100,4,1,0,15,0,0
68263,-133.333333333333,4,1,0,15,0,0
68301,-100,4,1,0,15,0,0
68339,-133.333333333333,4,1,0,15,0,0
68378,-100,4,1,0,15,0,0
68416,-133.333333333333,4,1,0,15,0,0
68455,-100,4,1,0,15,0,0
68493,-133.333333333333,4,1,0,15,0,0
68532,-100,4,1,0,15,0,0
68570,-133.333333333333,4,1,0,15,0,0
68609,-100,4,1,0,15,0,0
68647,-133.333333333333,4,1,0,15,0,0
68686,-100,4,1,0,15,0,0
68724,-133.333333333333,4,1,0,15,0,0
68763,-100,4,1,0,15,0,0
68801,-133.333333333333,4,1,0,15,0,0
68839,-100,4,1,0,15,0,0
68878,-133.333333333333,4,1,0,15,0,0
68916,-100,4,1,0,15,0,0
70224,-133.333333333333,4,1,0,15,0,0
70301,-66.6666666666667,4,1,0,15,0,0
70378,-133.333333333333,4,1,0,15,0,0
70455,-66.6666666666667,4,1,0,15,0,0
70532,-133.333333333333,4,1,0,15,0,0
70609,-80,4,1,0,15,0,0
70686,-133.333333333333,4,1,0,15,0,0
70763,-80,4,1,0,15,0,0
70839,-133.333333333333,4,1,0,15,0,0
70916,-100,4,1,0,15,0,0
70993,-133.333333333333,4,1,0,15,0,0
71070,-100,4,1,0,15,0,0
71147,-133.333333333333,4,1,0,15,0,0
71224,-66.6666666666667,4,1,0,15,0,0
71301,-133.333333333333,4,1,0,15,0,0
71378,-100,4,1,0,15,0,0
72609,-66.6666666666667,4,1,0,15,0,0
72647,-100,4,1,0,15,0,0
72839,-66.6666666666667,4,1,0,15,0,0
72878,-100,4,1,0,15,0,0
73070,-66.6666666666667,4,1,0,15,0,0
73109,-100,4,1,0,15,0,0
73224,-80,4,1,0,15,0,0
73301,-133.333333333333,4,1,0,15,0,0
73339,-100,4,1,0,15,0,0
74609,-66.6666666666667,4,1,0,15,0,0
74647,-133.333333333333,4,1,0,15,0,0
74686,-100,4,1,0,15,0,0
77532,-66.6666666666667,4,1,0,15,0,0
77993,-1000,4,1,0,15,0,0
78070,-66.6666666666667,4,1,0,15,0,0
78532,-100,4,1,0,15,0,0
79532,-66.6666666666667,4,1,0,15,0,0
79570,-133.333333333333,4,1,0,15,0,0
79609,-100,4,1,0,15,0,0
81763,-200,4,1,0,15,0,0
81916,-100,4,1,0,15,0,0
82378,-200,4,1,0,15,0,0
82532,-100,4,1,0,15,0,0
82993,-200,4,1,0,15,0,0
83147,-100,4,1,0,15,0,0
83763,-200,4,1,0,15,0,0
83839,-100,4,1,0,15,0,0
83916,-200,4,1,0,15,0,0
83993,-100,4,1,0,15,0,0
84070,-200,4,1,0,15,0,0
84147,-100,4,1,0,15,0,0
84224,-200,4,1,0,15,0,0
84301,-100,4,1,0,15,0,0
84378,-200,4,1,0,15,0,0
84455,-100,4,1,0,15,0,0
84532,-200,4,1,0,15,0,0
84609,-100,4,1,0,15,0,0
84686,-200,4,1,0,15,0,0
84763,-100,4,1,0,15,0,0
84839,-200,4,1,0,15,0,0
84916,-100,4,1,0,15,0,0
84993,-200,4,1,0,15,0,0
85070,-100,4,1,0,15,0,0
85147,-200,4,1,0,15,0,0
85301,999999999,4,1,0,15,1,0
85454,307.692307692308,4,1,0,15,1,0
85607,999999999,4,1,0,15,1,0
85760,307.692307692308,4,1,0,15,1,0
85913,999999999,4,1,0,15,1,0
86067,307.692307692308,4,1,0,15,1,0
86220,-200,4,1,0,15,0,0
86297,-100,4,1,0,15,0,0
86374,-200,4,1,0,15,0,0
86451,-100,4,1,0,15,0,0
86528,-200,4,1,0,15,0,0
86605,-100,4,1,0,15,0,0
86682,-200,4,1,0,15,0,0
86759,-100,4,1,0,15,0,0
86836,-200,4,1,0,15,0,0
86913,-100,4,1,0,15,0,0
86990,-200,4,1,0,15,0,0
87067,-100,4,1,0,15,0,0
87143,-200,4,1,0,15,0,0
87220,-100,4,1,0,15,0,0
87297,-200,4,1,0,15,0,0
87374,-100,4,1,0,15,0,0
87451,-200,4,1,0,15,0,0
87528,-100,4,1,0,15,0,0
87605,-200,4,1,0,15,0,0
87682,-100,4,1,0,15,0,0
87759,999999999,4,1,0,15,1,0
87912,307.692307692308,4,1,0,15,1,0
88065,999999999,4,1,0,15,1,0
88218,307.692307692308,4,1,0,15,1,0
88371,999999999,4,1,0,15,1,0
88524,307.692307692308,4,1,0,15,1,0
88677,-200,4,1,0,15,0,0
88754,-100,4,1,0,15,0,0
88831,-200,4,1,0,15,0,0
88908,-100,4,1,0,15,0,0
88985,-200,4,1,0,15,0,0
89062,-100,4,1,0,15,0,0
89139,-200,4,1,0,15,0,0
89216,-100,4,1,0,15,0,0
89293,-200,4,1,0,15,0,0
89370,-100,4,1,0,15,0,0
89447,-200,4,1,0,15,0,0
89524,-100,4,1,0,15,0,0
89600,-200,4,1,0,15,0,0
89677,-100,4,1,0,15,0,0
89754,-200,4,1,0,15,0,0
89831,-100,4,1,0,15,0,0
89908,-200,4,1,0,15,0,0
89985,-100,4,1,0,15,0,0
90062,-200,4,1,0,15,0,0
90139,-100,4,1,0,15,0,0
90216,999999999,4,1,0,15,1,0
90369,307.692307692308,4,1,0,15,1,0
90522,999999999,4,1,0,15,1,0
90675,307.692307692308,4,1,0,15,1,0
90828,999999999,4,1,0,15,1,0
90981,307.692307692308,4,1,0,15,1,0
91139,-200,4,1,0,15,0,0
91216,-100,4,1,0,15,0,0
91293,-200,4,1,0,15,0,0
91370,-100,4,1,0,15,0,0
91447,-200,4,1,0,15,0,0
91524,-100,4,1,0,15,0,0
91600,-200,4,1,0,15,0,0
91677,-100,4,1,0,15,0,0
91754,-200,4,1,0,15,0,0
91831,-100,4,1,0,15,0,0
91908,-200,4,1,0,15,0,0
91985,-100,4,1,0,15,0,0
92062,-200,4,1,0,15,0,0
92139,-100,4,1,0,15,0,0
92216,-200,4,1,0,15,0,0
92293,-100,4,1,0,15,0,0
92370,-200,4,1,0,15,0,0
92447,-100,4,1,0,15,0,0
92524,-400,4,1,0,15,0,0
92600,-100,4,1,0,15,0,0
92677,-400,4,1,0,15,0,0
92831,-200,4,1,0,15,0,0
93139,-111.111111111111,4,1,0,15,0,0
93370,-105.263157894737,4,1,0,15,0,0
93447,-100,4,1,0,15,0,0
93519,307.692307692308,4,1,0,15,1,0
97211,-80,4,1,0,15,0,0
97365,-200,4,1,0,15,0,0
97442,-100,4,1,0,15,0,0
97519,-80,4,1,0,15,0,0
97673,-200,4,1,0,15,0,0
97750,-100,4,1,0,15,0,0
97827,-80,4,1,0,15,0,0
97981,-200,4,1,0,15,0,0
98057,-100,4,1,0,15,0,0
98134,-80,4,1,0,15,0,0
98288,-200,4,1,0,15,0,0
98365,-100,4,1,0,15,0,0
102596,-66.6666666666667,4,1,0,15,0,0
102634,-100,4,1,0,15,0,0
102904,-66.6666666666667,4,1,0,15,0,0
102942,-100,4,1,0,15,0,0
103211,-66.6666666666667,4,1,0,15,0,0
103250,-100,4,1,0,15,0,0
104673,-200,4,1,0,15,0,0
104750,-100,4,1,0,15,0,0
104827,-200,4,1,0,15,0,0
104904,-100,4,1,0,15,0,0
104981,-200,4,1,0,15,0,0
105057,-100,4,1,0,15,0,0
105134,-200,4,1,0,15,0,0
105211,-100,4,1,0,15,0,0
105288,-200,4,1,0,15,0,0
105365,-100,4,1,0,15,0,0
107134,-200,4,1,0,15,0,0
107211,-100,4,1,0,15,0,0
107288,-200,4,1,0,15,0,0
107365,-100,4,1,0,15,0,0
107442,-200,4,1,0,15,0,0
107519,-100,4,1,0,15,0,0
107596,-200,4,1,0,15,0,0
107673,-100,4,1,0,15,0,0
107750,-200,4,1,0,15,0,0
107827,-100,4,1,0,15,0,0
107904,-200,4,1,0,15,0,0
107981,-100,4,1,0,15,0,0
108057,-200,4,1,0,15,0,0
108134,-100,4,1,0,15,0,0
108211,-200,4,1,0,15,0,0
108288,-100,4,1,0,15,0,0
109596,-200,4,1,0,15,0,0
109673,-100,4,1,0,15,0,0
109750,-200,4,1,0,15,0,0
109827,-100,4,1,0,15,0,0
109904,-200,4,1,0,15,0,0
109981,-100,4,1,0,15,0,0
110057,-200,4,1,0,15,0,0
110134,-100,4,1,0,15,0,0
110211,-200,4,1,0,15,0,0
110288,-100,4,1,0,15,0,0
110365,-200,4,1,0,15,0,0
110442,-100,4,1,0,15,0,0
112057,-200,4,1,0,15,0,0
112211,-133.333333333333,4,1,0,15,0,0
112288,-100,4,1,0,15,0,0
112672,-66.6666666666667,4,1,0,15,0,0
112749,-100,4,1,0,15,0,0
112903,-66.6666666666667,4,1,0,15,0,0
112980,-100,4,1,0,15,0,0
113365,-66.6666666666667,4,1,0,15,0,0
113403,-100,4,1,0,15,0,0
113672,-66.6666666666667,4,1,0,15,0,0
113711,-100,4,1,0,15,0,0
113980,-66.6666666666667,4,1,0,15,0,0
114019,-100,4,1,0,15,0,0
114288,-66.6666666666667,4,1,0,15,0,0
114326,-100,4,1,0,15,0,0
114595,-66.6666666666667,4,1,0,15,0,0
114634,-100,4,1,0,15,0,0
114903,-66.6666666666667,4,1,0,15,0,0
114942,-100,4,1,0,15,0,0
115211,-66.6666666666667,4,1,0,15,0,0
115249,-100,4,1,0,15,0,0
115519,-66.6666666666667,4,1,0,15,0,0
115557,-100,4,1,0,15,0,0
115826,-66.6666666666667,4,1,0,15,0,0
115865,-100,4,1,0,15,0,0
116134,-66.6666666666667,4,1,0,15,0,0
116172,-100,4,1,0,15,0,0
116442,-66.6666666666667,4,1,0,15,0,0
116480,-100,4,1,0,15,0,0
116749,-66.6666666666667,4,1,0,15,0,0
116788,-100,4,1,0,15,0,0
118288,-66.6666666666667,4,1,0,15,0,0
118326,-100,4,1,0,15,0,0
118595,-66.6666666666667,4,1,0,15,0,0
118634,-100,4,1,0,15,0,0
118903,-66.6666666666667,4,1,0,15,0,0
118942,-100,4,1,0,15,0,0
119211,-66.6666666666667,4,1,0,15,0,0
119249,-100,4,1,0,15,0,0
119519,-66.6666666666667,4,1,0,15,0,0
119557,-100,4,1,0,15,0,0
119826,-66.6666666666667,4,1,0,15,0,0
119865,-100,4,1,0,15,0,0
120134,-66.6666666666667,4,1,0,15,0,0
120172,-100,4,1,0,15,0,0
120442,-66.6666666666667,4,1,0,15,0,0
120480,-100,4,1,0,15,0,0
120749,-66.6666666666667,4,1,0,15,0,0
120788,-100,4,1,0,15,0,0
121057,-66.6666666666667,4,1,0,15,0,0
121095,-100,4,1,0,15,0,0
121365,-66.6666666666667,4,1,0,15,0,0
121403,-100,4,1,0,15,0,0
121672,-66.6666666666667,4,1,0,15,0,0
121711,-100,4,1,0,15,0,0
121904,-133.333333333333,4,1,0,15,0,0
121981,-66.6666666666667,4,1,0,15,0,0
122057,-133.333333333333,4,1,0,15,0,0
122134,-66.6666666666667,4,1,0,15,0,0
122211,-133.333333333333,4,1,0,15,0,0
122288,-66.6666666666667,4,1,0,15,0,0
122365,-133.333333333333,4,1,0,15,0,0
122442,-66.6666666666667,4,1,0,15,0,0
122519,-133.333333333333,4,1,0,15,0,0
122596,-66.6666666666667,4,1,0,15,0,0
122673,-133.333333333333,4,1,0,15,0,0
122750,-66.6666666666667,4,1,0,15,0,0
122827,-133.333333333333,4,1,0,15,0,0
122904,-66.6666666666667,4,1,0,15,0,0
122981,-133.333333333333,4,1,0,15,0,0
123057,-100,4,1,0,15,0,0
123211,-66.6666666666667,4,1,0,15,0,0
123249,-100,4,1,0,15,0,0
123519,-66.6666666666667,4,1,0,15,0,0
123557,-100,4,1,0,15,0,0
123826,-66.6666666666667,4,1,0,15,0,0
123865,-100,4,1,0,15,0,0
124134,-66.6666666666667,4,1,0,15,0,0
124172,-100,4,1,0,15,0,0
124442,-66.6666666666667,4,1,0,15,0,0
124480,-100,4,1,0,15,0,0
124749,-66.6666666666667,4,1,0,15,0,0
124788,-100,4,1,0,15,0,0
125057,-66.6666666666667,4,1,0,15,0,0
125095,-100,4,1,0,15,0,0
125365,-66.6666666666667,4,1,0,15,0,0
125403,-100,4,1,0,15,0,0
125672,-66.6666666666667,4,1,0,15,0,0
125711,-100,4,1,0,15,0,0
125980,-66.6666666666667,4,1,0,15,0,0
126019,-100,4,1,0,15,0,0
126288,-66.6666666666667,4,1,0,15,0,0
126326,-100,4,1,0,15,0,0
126595,-66.6666666666667,4,1,0,15,0,0
126634,-100,4,1,0,15,0,0
128134,-66.6666666666667,4,1,0,15,0,0
128172,-100,4,1,0,15,0,0
128442,-66.6666666666667,4,1,0,15,0,0
128480,-100,4,1,0,15,0,0
128749,-66.6666666666667,4,1,0,15,0,0
128788,-100,4,1,0,15,0,0
129057,-66.6666666666667,4,1,0,15,0,0
129095,-100,4,1,0,15,0,0
129365,-66.6666666666667,4,1,0,15,0,0
129403,-100,4,1,0,15,0,0
129672,-66.6666666666667,4,1,0,15,0,0
129711,-100,4,1,0,15,0,0
129980,-66.6666666666667,4,1,0,15,0,0
130019,-100,4,1,0,15,0,0
130288,-66.6666666666667,4,1,0,15,0,0
130326,-100,4,1,0,15,0,0
130595,-66.6666666666667,4,1,0,15,0,0
130634,-100,4,1,0,15,0,0
130903,-66.6666666666667,4,1,0,15,0,0
130942,-100,4,1,0,15,0,0
131211,-66.6666666666667,4,1,0,15,0,0
131249,-100,4,1,0,15,0,0
131519,-66.6666666666667,4,1,0,15,0,0
131557,-100,4,1,0,15,0,0
133057,-66.6666666666667,4,1,0,15,0,0
133095,-100,4,1,0,15,0,0
133365,-66.6666666666667,4,1,0,15,0,0
133403,-100,4,1,0,15,0,0
133672,-66.6666666666667,4,1,0,15,0,0
133711,-100,4,1,0,15,0,0
133980,-66.6666666666667,4,1,0,15,0,0
134019,-100,4,1,0,15,0,0
134288,-66.6666666666667,4,1,0,15,0,0
134326,-100,4,1,0,15,0,0
134595,-66.6666666666667,4,1,0,15,0,0
134634,-100,4,1,0,15,0,0
134903,-66.6666666666667,4,1,0,15,0,0
134942,-100,4,1,0,15,0,0
135211,-66.6666666666667,4,1,0,15,0,0
135249,-100,4,1,0,15,0,0
135519,-66.6666666666667,4,1,0,15,0,0
135557,-100,4,1,0,15,0,0
135826,-66.6666666666667,4,1,0,15,0,0
135865,-100,4,1,0,15,0,0
136134,-66.6666666666667,4,1,0,15,0,0
136172,-100,4,1,0,15,0,0
136442,-66.6666666666667,4,1,0,15,0,0
136480,-100,4,1,0,15,0,0
137980,-66.6666666666667,4,1,0,15,0,0
138019,-100,4,1,0,15,0,0
138288,-66.6666666666667,4,1,0,15,0,0
138326,-100,4,1,0,15,0,0
138595,-66.6666666666667,4,1,0,15,0,0
138634,-100,4,1,0,15,0,0
138903,-66.6666666666667,4,1,0,15,0,0
138942,-100,4,1,0,15,0,0
139211,-66.6666666666667,4,1,0,15,0,0
139249,-100,4,1,0,15,0,0
139519,-66.6666666666667,4,1,0,15,0,0
139557,-100,4,1,0,15,0,0
139826,-66.6666666666667,4,1,0,15,0,0
139865,-100,4,1,0,15,0,0
140134,-66.6666666666667,4,1,0,15,0,0
140172,-100,4,1,0,15,0,0
140442,-66.6666666666667,4,1,0,15,0,0
140480,-100,4,1,0,15,0,0
140749,-40,4,1,0,15,0,0
140788,-100,4,1,0,15,0,0
141057,-40,4,1,0,15,0,0
141095,-100,4,1,0,15,0,0
141365,-40,4,1,0,15,0,0
141403,-100,4,1,0,15,0,0
141519,153.846153846154,4,1,0,15,1,0
141826,102.564102564103,4,1,0,15,1,0
142133,76.9230769230769,4,1,0,15,1,0
142440,200,4,1,0,15,1,0
142595,300,4,1,0,15,1,0
142749,307.692307692308,4,1,0,15,1,0
142825,999999999,4,1,0,15,1,0
142902,307.692307692308,4,1,0,15,1,0
142978,999999999,4,1,0,15,1,0
143054,307.692307692308,4,1,0,15,1,0
143208,999999999,4,1,0,15,1,0
143284,307.692307692308,4,1,0,15,1,0
143515,999999999,4,1,0,15,1,0
143591,307.692307692308,4,1,0,15,1,0
143745,999999999,4,1,0,15,1,0
143821,307.692307692308,4,1,0,15,1,0
143975,999999999,4,1,0,15,1,0
144051,307.692307692308,4,1,0,15,1,0
144205,999999999,4,1,0,15,1,0
144281,307.692307692308,4,1,0,15,1,0
144435,999999999,4,1,0,15,1,0
144511,307.692307692308,4,1,0,15,1,0
144665,999999999,4,1,0,15,1,0
144741,307.692307692308,4,1,0,15,1,0
144749,-116.279069767442,4,1,0,15,0,0
144898,-117.647058823529,4,1,0,15,0,0
145056,-119.047619047619,4,1,0,15,0,0
145205,-120.481927710843,4,1,0,15,0,0
145364,-121.951219512195,4,1,0,15,0,0
145512,-123.456790123457,4,1,0,15,0,0
145672,-125,4,1,0,15,0,0
145819,-126.582278481013,4,1,0,15,0,0
145979,-128.205128205128,4,1,0,15,0,0
146133,-129.87012987013,4,1,0,15,0,0
146287,-131.578947368421,4,1,0,15,0,0
146433,307.692307692308,4,1,0,15,1,0
146441,-133.333333333333,4,1,0,15,0,0
147739,999999999,4,1,0,15,1,0
147739,-103.092783505155,4,1,0,15,0,0
147815,307.692307692308,4,1,0,15,1,0
147892,999999999,4,1,0,15,1,0
147892,-106.382978723404,4,1,0,15,0,0
147968,307.692307692308,4,1,0,15,1,0
148122,999999999,4,1,0,15,1,0
148122,-111.111111111111,4,1,0,15,0,0
148198,307.692307692308,4,1,0,15,1,0
148352,999999999,4,1,0,15,1,0
148352,-114.942528735632,4,1,0,15,0,0
148428,307.692307692308,4,1,0,15,1,0
148658,999999999,4,1,0,15,1,0
148658,-119.047619047619,4,1,0,15,0,0
148734,307.692307692308,4,1,0,15,1,0
148887,999999999,4,1,0,15,1,0
148887,-125,4,1,0,15,0,0
148963,307.692307692308,4,1,0,15,1,0
149116,999999999,4,1,0,15,1,0
149116,-129.87012987013,4,1,0,15,0,0
149192,307.692307692308,4,1,0,15,1,0
149345,999999999,4,1,0,15,1,0
149345,-135.135135135135,4,1,0,15,0,0
149421,307.692307692308,4,1,0,15,1,0
149574,999999999,4,1,0,15,1,0
149574,-142.857142857143,4,1,0,15,0,0
149726,307.692307692308,4,1,0,15,1,0
149879,-133.333333333333,4,1,0,15,0,0
150956,-116.279069767442,4,1,0,15,0,0
151341,307.692307692308,4,1,0,15,1,0
152591,999999999,4,1,0,15,1,0
152648,307.692307692308,4,1,0,15,1,0
152801,999999999,4,1,0,15,1,0
152877,307.692307692308,4,1,0,15,1,0
153030,999999999,4,1,0,15,1,0
153106,307.692307692308,4,1,0,15,1,0
153260,999999999,4,1,0,15,1,0
153336,307.692307692308,4,1,0,15,1,0
153566,999999999,4,1,0,15,1,0
153642,307.692307692308,4,1,0,15,1,0
153719,999999999,4,1,0,15,1,0
153795,307.692307692308,4,1,0,15,1,0
154025,999999999,4,1,0,15,1,0
154101,307.692307692308,4,1,0,15,1,0
154177,307.692307692308,4,1,0,15,1,0
154215,-133.333333333333,4,1,0,15,0,0
155407,-116.279069767442,4,1,0,15,0,0
156562,307.692307692308,4,1,0,15,1,0
156563,-116.279069767442,4,1,0,15,0,0
157523,999999999,4,1,0,15,1,0
157580,307.692307692308,4,1,0,15,1,0
157734,999999999,4,1,0,15,1,0
157810,307.692307692308,4,1,0,15,1,0
158040,999999999,4,1,0,15,1,0
158116,307.692307692308,4,1,0,15,1,0
158269,999999999,4,1,0,15,1,0
158345,307.692307692308,4,1,0,15,1,0
158421,307.692307692308,4,1,0,15,1,0
159978,12.3076923076923,4,1,0,15,1,0
159981.290666667,12.3234663446134,4,1,0,15,1,0
159984.581333333,12.3392808667111,4,1,0,15,1,0
159987.872,12.3551360300477,4,1,0,15,1,0
159991.162666667,12.3710319914887,4,1,0,15,1,0
159994.453333333,12.3869689087081,4,1,0,15,1,0
159997.744,12.402946940193,4,1,0,15,1,0
160001.034666667,12.4189662452498,4,1,0,15,1,0
160004.325333333,12.4350269840086,4,1,0,15,1,0
160007.616,12.4511293174291,4,1,0,15,1,0
160010.906666667,12.4672734073058,4,1,0,15,1,0
160014.197333333,12.4834594162735,4,1,0,15,1,0
160017.488,12.4996875078123,4,1,0,15,1,0
160020.778666667,12.515957846254,4,1,0,15,1,0
160024.069333333,12.5322705967867,4,1,0,15,1,0
160027.36,12.5486259254612,4,1,0,15,1,0
160030.650666667,12.5650239991959,4,1,0,15,1,0
160033.941333333,12.581464985783,4,1,0,15,1,0
160037.232,12.597949053894,4,1,0,15,1,0
160040.522666667,12.6144763730858,4,1,0,15,1,0
160043.813333333,12.6310471138057,4,1,0,15,1,0
160047.104,12.6476614473984,4,1,0,15,1,0
160050.394666667,12.6643195461108,4,1,0,15,1,0
160053.685333333,12.6810215830987,4,1,0,15,1,0
160056.976,12.6977677324327,4,1,0,15,1,0
160060.266666667,12.7145581691036,4,1,0,15,1,0
160063.557333333,12.7313930690296,4,1,0,15,1,0
160066.848,12.7482726090615,4,1,0,15,1,0
160070.138666667,12.7651969669892,4,1,0,15,1,0
160073.429333333,12.7821663215482,4,1,0,15,1,0
160076.72,12.7991808524255,4,1,0,15,1,0
160080.010666667,12.8162407402661,4,1,0,15,1,0
160083.301333333,12.8333461666795,4,1,0,15,1,0
160086.592,12.8504973142461,4,1,0,15,1,0
160089.882666667,12.8676943665234,4,1,0,15,1,0
160093.173333333,12.8849375080531,4,1,0,15,1,0
160096.464,12.9022269243672,4,1,0,15,1,0
160099.754666667,12.9195628019948,4,1,0,15,1,0
160103.045333333,12.9369453284691,4,1,0,15,1,0
160106.336,12.9543746923336,4,1,0,15,1,0
160109.626666667,12.9718510831496,4,1,0,15,1,0
160112.917333333,12.9893746915024,4,1,0,15,1,0
160116.208,13.0069457090086,4,1,0,15,1,0
160119.498666667,13.0245643283232,4,1,0,15,1,0
160122.789333333,13.0422307431463,4,1,0,15,1,0
160126.08,13.0599451482304,4,1,0,15,1,0
160129.370666667,13.0777077393875,4,1,0,15,1,0
160132.661333333,13.0955187134963,4,1,0,15,1,0
160135.952,13.1133782685095,4,1,0,15,1,0
160139.242666667,13.1312866034614,4,1,0,15,1,0
160142.533333333,13.1492439184747,4,1,0,15,1,0
160145.824,13.1672504147684,4,1,0,15,1,0
160149.114666667,13.1853062946652,4,1,0,15,1,0
160152.405333333,13.2034117615992,4,1,0,15,1,0
160155.696,13.2215670201232,4,1,0,15,1,0
160158.986666667,13.2397722759169,4,1,0,15,1,0
160162.277333333,13.258027735794,4,1,0,15,1,0
160165.568,13.2763336077109,4,1,0,15,1,0
160168.858666667,13.2946901007738,4,1,0,15,1,0
160172.149333333,13.313097425247,4,1,0,15,1,0
160175.44,13.331555792561,4,1,0,15,1,0
160178.730666667,13.3500654153205,4,1,0,15,1,0
160182.021333333,13.3686265073127,4,1,0,15,1,0
160185.312,13.387239283515,4,1,0,15,1,0
160188.602666667,13.405903960104,4,1,0,15,1,0
160191.893333333,13.4246207544637,4,1,0,15,1,0
160195.184,13.4433898851935,4,1,0,15,1,0
160198.474666667,13.4622115721171,4,1,0,15,1,0
160201.765333333,13.4810860362911,4,1,0,15,1,0
160205.056,13.5000135000135,4,1,0,15,1,0
160208.346666667,13.5189941868325,4,1,0,15,1,0
160211.637333333,13.5380283215553,4,1,0,15,1,0
160214.928,13.5571161302568,4,1,0,15,1,0
160218.218666667,13.5762578402889,4,1,0,15,1,0
160221.509333333,13.5954536802893,4,1,0,15,1,0
160224.8,13.6147038801906,4,1,0,15,1,0
160228.090666667,13.6340086712295,4,1,0,15,1,0
160231.381333333,13.6533682859562,4,1,0,15,1,0
160234.672,13.6727829582433,4,1,0,15,1,0
160237.962666667,13.692252923296,4,1,0,15,1,0
160241.253333333,13.7117784176608,4,1,0,15,1,0
160244.544,13.7313596792355,4,1,0,15,1,0
160247.834666667,13.7509969472787,4,1,0,15,1,0
160251.125333333,13.7706904624198,4,1,0,15,1,0
160254.416,13.7904404666685,4,1,0,15,1,0
160257.706666667,13.810247203425,4,1,0,15,1,0
160260.997333333,13.8301109174896,4,1,0,15,1,0
160264.288,13.8500318550733,4,1,0,15,1,0
160267.578666667,13.8700102638076,4,1,0,15,1,0
160270.869333333,13.890046392755,4,1,0,15,1,0
160274.16,13.910140492419,4,1,0,15,1,0
160277.450666667,13.930292814755,4,1,0,15,1,0
160280.741333333,13.9505036131804,4,1,0,15,1,0
160284.032,13.9707731425857,4,1,0,15,1,0
160287.322666667,13.9911016593447,4,1,0,15,1,0
160290.613333333,14.0114894213255,4,1,0,15,1,0
160293.904,14.0319366879017,4,1,0,15,1,0
160297.194666667,14.0524437199629,4,1,0,15,1,0
160300.485333333,14.0730107799263,4,1,0,15,1,0
160303.776,14.0936381317473,4,1,0,15,1,0
160307.066666667,14.1143260409316,4,1,0,15,1,0
160310.357333333,14.1350747745456,4,1,0,15,1,0
160313.648,14.1558846012287,4,1,0,15,1,0
160316.938666667,14.1767557912048,4,1,0,15,1,0
160320.229333333,14.1976886162933,4,1,0,15,1,0
160323.52,14.2186833499218,4,1,0,15,1,0
160326.810666667,14.2397402671375,4,1,0,15,1,0
160330.101333333,14.2608596446194,4,1,0,15,1,0
160333.392,14.2820417606901,4,1,0,15,1,0
160336.682666667,14.3032868953286,4,1,0,15,1,0
160339.973333333,14.3245953301819,4,1,0,15,1,0
160343.264,14.3459673485783,4,1,0,15,1,0
160346.554666667,14.3674032355392,4,1,0,15,1,0
160349.845333333,14.3889032777922,4,1,0,15,1,0
160353.136,14.4104677637836,4,1,0,15,1,0
160356.426666667,14.4320969836917,4,1,0,15,1,0
160359.717333333,14.4537912294395,4,1,0,15,1,0
160363.008,14.4755507947078,4,1,0,15,1,0
160366.298666667,14.4973759749485,4,1,0,15,1,0
160369.589333333,14.5192670673985,4,1,0,15,1,0
160372.88,14.5412243710921,4,1,0,15,1,0
160376.170666667,14.5632481868756,4,1,0,15,1,0
160379.461333333,14.5853388174207,4,1,0,15,1,0
160382.752,14.6074965672383,4,1,0,15,1,0
160386.042666667,14.6297217426925,4,1,0,15,1,0
160389.333333333,14.6520146520147,4,1,0,15,1,0
160392.624,14.674375605318,4,1,0,15,1,0
160395.914666667,14.6968049146116,4,1,0,15,1,0
160399.205333333,14.719302893815,4,1,0,15,1,0
160402.496,14.7418698587729,4,1,0,15,1,0
160405.786666667,14.7645061272701,4,1,0,15,1,0
160409.077333333,14.7872120190459,4,1,0,15,1,0
160412.368,14.80998785581,4,1,0,15,1,0
160415.658666667,14.8328339612567,4,1,0,15,1,0
160418.949333333,14.8557506610809,4,1,0,15,1,0
160422.24,14.8787382829936,4,1,0,15,1,0
160425.530666667,14.9017971567371,4,1,0,15,1,0
160428.821333333,14.9249276141011,4,1,0,15,1,0
160432.112,14.9481299889384,4,1,0,15,1,0
160435.402666667,14.9714046171812,4,1,0,15,1,0
160438.693333333,14.9947518368571,4,1,0,15,1,0
160441.984,15.0181719881056,4,1,0,15,1,0
160445.274666667,15.0416654131946,4,1,0,15,1,0
160448.565333333,15.0652324565368,4,1,0,15,1,0
160451.856,15.0888734647071,4,1,0,15,1,0
160455.146666667,15.1125887864591,4,1,0,15,1,0
160458.437333333,15.1363787727424,4,1,0,15,1,0
160461.728,15.1602437767199,4,1,0,15,1,0
160465.018666667,15.1841841537854,4,1,0,15,1,0
160468.309333333,15.2082002615811,4,1,0,15,1,0
160471.6,15.2322924600152,4,1,0,15,1,0
160474.890666667,15.2564611112806,4,1,0,15,1,0
160478.181333333,15.2807065798723,4,1,0,15,1,0
160481.472,15.3050292326059,4,1,0,15,1,0
160484.762666667,15.3294294386363,4,1,0,15,1,0
160488.053333333,15.3539075694764,4,1,0,15,1,0
160491.344,15.3784639990158,4,1,0,15,1,0
160494.634666667,15.4030991035396,4,1,0,15,1,0
160497.925333333,15.4278132617483,4,1,0,15,1,0
160501.216,15.4526068547764,4,1,0,15,1,0
160504.506666667,15.4774802662127,4,1,0,15,1,0
160507.797333333,15.5024338821195,4,1,0,15,1,0
160511.088,15.5274680910531,4,1,0,15,1,0
160514.378666667,15.5525832840835,4,1,0,15,1,0
160517.669333333,15.5777798548151,4,1,0,15,1,0
160520.96,15.6030581994071,4,1,0,15,1,0
160524.250666667,15.6284187165943,4,1,0,15,1,0
160527.541333333,15.653861807708,4,1,0,15,1,0
160530.832,15.6793878766973,4,1,0,15,1,0
160534.122666667,15.7049973301505,4,1,0,15,1,0
160537.413333333,15.7306905773164,4,1,0,15,1,0
160540.704,15.7564680301264,4,1,0,15,1,0
160543.994666667,15.7823301032165,4,1,0,15,1,0
160547.285333333,15.8082772139492,4,1,0,15,1,0
160550.576,15.8343097824366,4,1,0,15,1,0
160553.866666667,15.8604282315623,4,1,0,15,1,0
160557.157333333,15.8866329870047,4,1,0,15,1,0
160560.448,15.9129244772604,4,1,0,15,1,0
160563.738666667,15.939303133667,4,1,0,15,1,0
160567.029333333,15.9657693904269,4,1,0,15,1,0
160570.32,15.9923236846314,4,1,0,15,1,0
160573.610666667,16.0189664562843,4,1,0,15,1,0
160576.901333333,16.0456981483264,4,1,0,15,1,0
160580.192,16.0725192066605,4,1,0,15,1,0
160583.482666667,16.0994300801752,4,1,0,15,1,0
160586.773333333,16.1264312207709,4,1,0,15,1,0
160590.064,16.1535230833845,4,1,0,15,1,0
160593.354666667,16.1807061260154,4,1,0,15,1,0
160596.645333333,16.2079808097507,4,1,0,15,1,0
160599.936,16.2353475987921,4,1,0,15,1,0
160603.226666667,16.2628069604814,4,1,0,15,1,0
160606.517333333,16.2903593653276,4,1,0,15,1,0
160609.808,16.3180052870337,4,1,0,15,1,0
160613.098666667,16.3457452025238,4,1,0,15,1,0
160616.389333333,16.3735795919704,4,1,0,15,1,0
160619.68,16.4015089388224,4,1,0,15,1,0
160622.970666667,16.4295337298328,4,1,0,15,1,0
160626.261333333,16.4576544550871,4,1,0,15,1,0
160629.552,16.4858716080319,4,1,0,15,1,0
160632.842666667,16.5141856855039,4,1,0,15,1,0
160636.133333333,16.5425971877585,4,1,0,15,1,0
160639.424,16.5711066185,4,1,0,15,1,0
160642.714666667,16.5997144849109,4,1,0,15,1,0
160646.005333333,16.628421297682,4,1,0,15,1,0
160649.296,16.6572275710431,4,1,0,15,1,0
160652.586666667,16.6861338227933,4,1,0,15,1,0
160655.877333333,16.7151405743322,4,1,0,15,1,0
160659.168,16.7442483506916,4,1,0,15,1,0
160662.458666667,16.7734576805663,4,1,0,15,1,0
160665.749333333,16.8027690963471,4,1,0,15,1,0
160669.04,16.8321831341525,4,1,0,15,1,0
160672.330666667,16.8617003338617,4,1,0,15,1,0
160675.621333333,16.8913212391473,4,1,0,15,1,0
160678.912,16.9210463975092,4,1,0,15,1,0
160682.202666667,16.9508763603078,4,1,0,15,1,0
160685.493333333,16.9808116827985,4,1,0,15,1,0
160688.784,17.0108529241656,4,1,0,15,1,0
160692.074666667,17.041000647558,4,1,0,15,1,0
160695.365333333,17.0712554201236,4,1,0,15,1,0
160698.656,17.1016178130451,4,1,0,15,1,0
160701.946666667,17.1320884015762,4,1,0,15,1,0
160705.237333333,17.1626677650774,4,1,0,15,1,0
160708.528,17.1933564870534,4,1,0,15,1,0
160711.818666667,17.2241551551897,4,1,0,15,1,0
160715.109333333,17.2550643613901,4,1,0,15,1,0
160718.4,17.2860847018151,4,1,0,15,1,0
160721.690666667,17.3172167769196,4,1,0,15,1,0
160724.981333333,17.3484611914923,4,1,0,15,1,0
160728.272,17.3798185546943,4,1,0,15,1,0
160731.562666667,17.4112894800989,4,1,0,15,1,0
160734.853333333,17.4428745857317,4,1,0,15,1,0
160738.144,17.4745744941111,4,1,0,15,1,0
160741.434666667,17.5063898322888,4,1,0,15,1,0
160744.725333333,17.5383212318917,4,1,0,15,1,0
160748.016,17.5703693291633,4,1,0,15,1,0
160751.306666667,17.6025347650062,4,1,0,15,1,0
160754.597333333,17.6348181850245,4,1,0,15,1,0
160757.888,17.6672202395675,4,1,0,15,1,0
160761.178666667,17.6997415837729,4,1,0,15,1,0
160764.469333333,17.7323828776111,4,1,0,15,1,0
160767.76,17.76514478593,4,1,0,15,1,0
160771.050666667,17.7980279785,4,1,0,15,1,0
160774.341333333,17.8310331300596,4,1,0,15,1,0
160777.632,17.8641609203616,4,1,0,15,1,0
160780.922666667,17.8974120342199,4,1,0,15,1,0
160784.213333333,17.9307871615564,4,1,0,15,1,0
160787.504,17.9642869974491,4,1,0,15,1,0
160790.794666667,17.9979122421799,4,1,0,15,1,0
160794.085333333,18.0316636012839,4,1,0,15,1,0
160797.376,18.0655417855982,4,1,0,15,1,0
160800.666666667,18.0995475113122,4,1,0,15,1,0
160803.957333333,18.1336815000182,4,1,0,15,1,0
160807.248,18.1679444787617,4,1,0,15,1,0
160810.538666667,18.2023371800939,4,1,0,15,1,0
160813.829333333,18.2368603421235,4,1,0,15,1,0
160817.12,18.2715147085694,4,1,0,15,1,0
160820.410666667,18.3063010288141,4,1,0,15,1,0
160823.701333333,18.3412200579583,4,1,0,15,1,0
160826.992,18.3762725568746,4,1,0,15,1,0
160830.282666667,18.4114592922635,4,1,0,15,1,0
160833.573333333,18.4467810367091,4,1,0,15,1,0
160836.864,18.4822385687355,4,1,0,15,1,0
160840.154666667,18.517832672864,4,1,0,15,1,0
160843.445333333,18.5535641396713,4,1,0,15,1,0
160846.736,18.5894337658475,4,1,0,15,1,0
160850.026666667,18.6254423542559,4,1,0,15,1,0
160853.317333333,18.6615907139925,4,1,0,15,1,0
160856.608,18.6978796604465,4,1,0,15,1,0
160859.898666667,18.7343100153622,4,1,0,15,1,0
160863.189333333,18.7708826069002,4,1,0,15,1,0
160866.48,18.807598269701,4,1,0,15,1,0
160869.770666667,18.8444578449478,4,1,0,15,1,0
160873.061333333,18.8814621804313,4,1,0,15,1,0
160876.352,18.9186121306141,4,1,0,15,1,0
160879.642666667,18.9559085566971,4,1,0,15,1,0
160882.933333333,18.9933523266857,4,1,0,15,1,0
160886.224,19.030944315457,4,1,0,15,1,0
160889.514666667,19.0686854048282,4,1,0,15,1,0
160892.805333333,19.1065764836257,4,1,0,15,1,0
160896.096,19.1446184477544,4,1,0,15,1,0
160899.386666667,19.1828122002686,4,1,0,15,1,0
160902.677333333,19.2211586514435,4,1,0,15,1,0
160905.968,19.2596587188475,4,1,0,15,1,0
160909.258666667,19.2983133274152,4,1,0,15,1,0
160912.549333333,19.3371234095216,4,1,0,15,1,0
160915.84,19.3760899050572,4,1,0,15,1,0
160919.130666667,19.4152137615035,4,1,0,15,1,0
160922.421333333,19.4544959340104,4,1,0,15,1,0
160925.712,19.4939373854731,4,1,0,15,1,0
160929.002666667,19.5335390866117,4,1,0,15,1,0
160932.293333333,19.5733020160501,4,1,0,15,1,0
160935.584,19.613227160397,4,1,0,15,1,0
160938.874666667,19.6533155143273,4,1,0,15,1,0
160942.165333333,19.6935680806649,4,1,0,15,1,0
160945.456,19.7339858704661,4,1,0,15,1,0
160948.746666667,19.7745699031046,4,1,0,15,1,0
160952.037333333,19.8153212063568,4,1,0,15,1,0
160955.328,19.8562408164886,4,1,0,15,1,0
160958.618666667,19.8973297783438,4,1,0,15,1,0
160961.909333333,19.9385891454321,4,1,0,15,1,0
160965.2,19.98001998002,4,1,0,15,1,0
160968.490666667,20.0216233532215,4,1,0,15,1,0
160971.781333333,20.0634003450905,4,1,0,15,1,0
160975.072,20.1053520447143,4,1,0,15,1,0
160978.362666667,20.1474795503083,4,1,0,15,1,0
160981.653333333,20.1897839693115,4,1,0,15,1,0
160984.944,20.2322664184842,4,1,0,15,1,0
160988.234666667,20.2749280240055,4,1,0,15,1,0
160991.525333333,20.3177699215734,4,1,0,15,1,0
160994.816,20.3607932565053,4,1,0,15,1,0
160998.106666667,20.4039991838401,4,1,0,15,1,0
161001.397333333,20.4473888684415,4,1,0,15,1,0
161004.688,20.4909634851031,4,1,0,15,1,0
161007.978666667,20.5347242186538,4,1,0,15,1,0
161011.269333333,20.5786722640655,4,1,0,15,1,0
161014.56,20.6228088265622,4,1,0,15,1,0
161017.850666667,20.6671351217294,4,1,0,15,1,0
161021.141333333,20.7116523756265,4,1,0,15,1,0
161024.432,20.7563618248994,4,1,0,15,1,0
161027.722666667,20.8012647168948,4,1,0,15,1,0
161031.013333333,20.846362309777,4,1,0,15,1,0
161034.304,20.8916558726445,4,1,0,15,1,0
161037.594666667,20.9371466856497,4,1,0,15,1,0
161040.885333333,20.9828360401192,4,1,0,15,1,0
161044.176,21.0287252386761,4,1,0,15,1,0
161047.466666667,21.0748155953636,4,1,0,15,1,0
161050.757333333,21.1211084357707,4,1,0,15,1,0
161054.048,21.1676050971593,4,1,0,15,1,0
161057.338666667,21.2143069285927,4,1,0,15,1,0
161060.629333333,21.2612152910661,4,1,0,15,1,0
161063.92,21.3083315576391,4,1,0,15,1,0
161067.210666667,21.3556571135694,4,1,0,15,1,0
161070.501333333,21.4031933564488,4,1,0,15,1,0
161073.792,21.4509416963405,4,1,0,15,1,0
161077.082666667,21.4989035559187,4,1,0,15,1,0
161080.373333333,21.5470803706098,4,1,0,15,1,0
161083.664,21.5954735887358,4,1,0,15,1,0
161086.954666667,21.6440846716593,4,1,0,15,1,0
161090.245333333,21.6929150939303,4,1,0,15,1,0
161093.536,21.7419663434361,4,1,0,15,1,0
161096.826666667,21.7912399215516,4,1,0,15,1,0
161100.117333333,21.8407373432927,4,1,0,15,1,0
161103.408,21.8904601374721,4,1,0,15,1,0
161106.698666667,21.940409846856,4,1,0,15,1,0
161109.989333333,21.9905880283239,4,1,0,15,1,0
161113.28,22.0409962530307,4,1,0,15,1,0
161116.570666667,22.0916361065701,4,1,0,15,1,0
161119.861333333,22.1425091891413,4,1,0,15,1,0
161123.152,22.1936171157175,4,1,0,15,1,0
161126.442666667,22.2449615162166,4,1,0,15,1,0
161129.733333333,22.2965440356745,4,1,0,15,1,0
161133.024,22.348366334421,4,1,0,15,1,0
161136.314666667,22.4004300882577,4,1,0,15,1,0
161139.605333333,22.4527369886389,4,1,0,15,1,0
161142.896,22.5052887428546,4,1,0,15,1,0
161146.186666667,22.5580870742161,4,1,0,15,1,0
161149.477333333,22.6111337222449,4,1,0,15,1,0
161152.768,22.664430442863,4,1,0,15,1,0
161156.058666667,22.7179790085874,4,1,0,15,1,0
161159.349333333,22.7717812087262,4,1,0,15,1,0
161162.64,22.8258388495777,4,1,0,15,1,0
161165.930666667,22.8801537546333,4,1,0,15,1,0
161169.221333333,22.9347277647815,4,1,0,15,1,0
161172.512,22.9895627385167,4,1,0,15,1,0
161175.802666667,23.0446605521501,4,1,0,15,1,0
161179.093333333,23.1000231000231,4,1,0,15,1,0
161182.384,23.1556522947252,4,1,0,15,1,0
161185.674666667,23.2115500673135,4,1,0,15,1,0
161188.965333333,23.2677183675369,4,1,0,15,1,0
161192.256,23.3241591640622,4,1,0,15,1,0
161195.546666667,23.3808744447043,4,1,0,15,1,0
161198.837333333,23.4378662166597,4,1,0,15,1,0
161202.128,23.4951365067431,4,1,0,15,1,0
161205.418666667,23.552687361628,4,1,0,15,1,0
161208.709333333,23.6105208480899,4,1,0,15,1,0
161212,23.6686390532545,4,1,0,15,1,0
161215.290666667,23.7270440848479,4,1,0,15,1,0
161218.581333333,23.7857380714524,4,1,0,15,1,0
161221.872,23.8447231627641,4,1,0,15,1,0
161225.162666667,23.9040015298561,4,1,0,15,1,0
161228.453333333,23.9635753654445,4,1,0,15,1,0
161231.744,24.023446884159,4,1,0,15,1,0
161235.034666667,24.0836183228168,4,1,0,15,1,0
161238.325333333,24.1440919407021,4,1,0,15,1,0
161241.616,24.204870019848,4,1,0,15,1,0
161244.906666667,24.265954865324,4,1,0,15,1,0
161248.197333333,24.3273488055272,4,1,0,15,1,0
161251.488,24.3890541924784,4,1,0,15,1,0
161254.778666667,24.4510734021224,4,1,0,15,1,0
161258.069333333,24.5134088346326,4,1,0,15,1,0
161261.36,24.5760629147211,4,1,0,15,1,0
161264.650666667,24.6390380919529,4,1,0,15,1,0
161267.941333333,24.7023368410652,4,1,0,15,1,0
161271.232,24.7659616622914,4,1,0,15,1,0
161274.522666667,24.8299150816904,4,1,0,15,1,0
161277.813333333,24.8941996514812,4,1,0,15,1,0
161281.104,24.9588179503819,4,1,0,15,1,0
161284.394666667,25.0237725839548,4,1,0,15,1,0
161287.685333333,25.0890661849566,4,1,0,15,1,0
161290.976,25.1547014136942,4,1,0,15,1,0
161294.266666667,25.2206809583859,4,1,0,15,1,0
161297.557333333,25.2870075355283,4,1,0,15,1,0
161300.848,25.3536838902693,4,1,0,15,1,0
161304.138666667,25.4207127967868,4,1,0,15,1,0
161307.429333333,25.4880970586736,4,1,0,15,1,0
161310.72,25.5558395093279,4,1,0,15,1,0
161314.010666667,25.6239430123508,4,1,0,15,1,0
161317.301333333,25.6924104619496,4,1,0,15,1,0
161320.592,25.761244783348,4,1,0,15,1,0
161323.882666667,25.8304489332025,4,1,0,15,1,0
161327.173333333,25.9000259000259,4,1,0,15,1,0
161330.464,25.9699787046175,4,1,0,15,1,0
161333.754666667,26.0403104005,4,1,0,15,1,0
161337.045333333,26.1110240743642,4,1,0,15,1,0
161340.336,26.1821228465204,4,1,0,15,1,0
161343.626666667,26.2536098713573,4,1,0,15,1,0
161346.917333333,26.3254883378087,4,1,0,15,1,0
161350.208,26.3977614698274,4,1,0,15,1,0
161353.498666667,26.4704325268675,4,1,0,15,1,0
161356.789333333,26.5435048043744,4,1,0,15,1,0
161360.08,26.6169816342827,4,1,0,15,1,0
161363.370666667,26.6908663855229,4,1,0,15,1,0
161366.661333333,26.7651624645362,4,1,0,15,1,0
161369.952,26.839873315798,4,1,0,15,1,0
161373.242666667,26.9150024223502,4,1,0,15,1,0
161376.533333333,26.9905533063428,4,1,0,15,1,0
161379.824,27.0665295295837,4,1,0,15,1,0
161383.114666667,27.1429346940992,4,1,0,15,1,0
161386.405333333,27.2197724427024,4,1,0,15,1,0
161389.696,27.2970464595731,4,1,0,15,1,0
161392.986666667,27.3747604708459,4,1,0,15,1,0
161396.277333333,27.4529182452095,4,1,0,15,1,0
161399.568,27.5315235945158,4,1,0,15,1,0
161402.858666667,27.6105803743995,4,1,0,15,1,0
161406.149333333,27.6900924849089,4,1,0,15,1,0
161409.44,27.7700638711469,4,1,0,15,1,0
161412.730666667,27.8504985239236,4,1,0,15,1,0
161416.021333333,27.9314004804201,4,1,0,15,1,0
161419.312,28.0127738248642,4,1,0,15,1,0
161422.602666667,28.0946226892173,4,1,0,15,1,0
161425.893333333,28.1769512538744,4,1,0,15,1,0
161429.184,28.2597637483751,4,1,0,15,1,0
161432.474666667,28.3430644521286,4,1,0,15,1,0
161435.765333333,28.4268576951504,4,1,0,15,1,0
161439.056,28.5111478588128,4,1,0,15,1,0
161442.346666667,28.5959393766086,4,1,0,15,1,0
161445.637333333,28.681236734928,4,1,0,15,1,0
161448.928,28.7670444738508,4,1,0,15,1,0
161452.218666667,28.8533671879509,4,1,0,15,1,0
161455.509333333,28.940209527117,4,1,0,15,1,0
161458.8,29.0275761973876,4,1,0,15,1,0
161462.090666667,29.1154719618005,4,1,0,15,1,0
161465.381333333,29.2039016412593,4,1,0,15,1,0
161468.672,29.2928701154139,4,1,0,15,1,0
161471.962666667,29.3823823235588,4,1,0,15,1,0
161475.253333333,29.4724432655467,4,1,0,15,1,0
161478.544,29.5630580027198,4,1,0,15,1,0
161481.834666667,29.6542316588578,4,1,0,15,1,0
161485.125333333,29.7459694211435,4,1,0,15,1,0
161488.416,29.838276541147,4,1,0,15,1,0
161491.706666667,29.9311583358276,4,1,0,15,1,0
161494.997333333,30.0246201885546,4,1,0,15,1,0
161498.288,30.1186675501476,4,1,0,15,1,0
161501.578666667,30.213305939936,4,1,0,15,1,0
161504.869333333,30.3085409468389,4,1,0,15,1,0
161508.16,30.4043782304652,4,1,0,15,1,0
161511.450666667,30.5008235222351,4,1,0,15,1,0
161514.741333333,30.5978826265223,4,1,0,15,1,0
161518.032,30.6955614218184,4,1,0,15,1,0
161521.322666667,30.7938658619203,4,1,0,15,1,0
161524.613333333,30.8928019771394,4,1,0,15,1,0
161527.904,30.9923758755346,4,1,0,15,1,0
161531.194666667,31.0925937441702,4,1,0,15,1,0
161534.485333333,31.1934618503962,4,1,0,15,1,0
161537.776,31.2949865431558,4,1,0,15,1,0
161541.066666667,31.3971742543171,4,1,0,15,1,0
161544.357333333,31.5000315000315,4,1,0,15,1,0
161547.648,31.6035648821187,4,1,0,15,1,0
161550.938666667,31.7077810894794,4,1,0,15,1,0
161554.229333333,31.8126868995356,4,1,0,15,1,0
161557.52,31.9182891797,4,1,0,15,1,0
161560.810666667,32.0245948888747,4,1,0,15,1,0
161564.101333333,32.1316110789795,4,1,0,15,1,0
161567.392,32.2393448965117,4,1,0,15,1,0
161570.682666667,32.3478035841367,4,1,0,15,1,0
161573.973333333,32.456994482311,4,1,0,15,1,0
161577.264,32.5669250309386,4,1,0,15,1,0
161580.554666667,32.6776027710607,4,1,0,15,1,0
161583.845333333,32.7890353465801,4,1,0,15,1,0
161587.136,32.901230506021,4,1,0,15,1,0
161590.426666667,33.0141961043249,4,1,0,15,1,0
161593.717333333,33.1279401046843,4,1,0,15,1,0
161597.008,33.2424705804136,4,1,0,15,1,0
161600.298666667,33.3577957168591,4,1,0,15,1,0
161603.589333333,33.4739238133494,4,1,0,15,1,0
161606.88,33.5908632851865,4,1,0,15,1,0
161610.170666667,33.7086226656779,4,1,0,15,1,0
161613.461333333,33.8272106082133,4,1,0,15,1,0
161616.752,33.9466358883835,4,1,0,15,1,0
161620.042666667,34.0669074061457,4,1,0,15,1,0
161623.333333333,34.1880341880342,4,1,0,15,1,0
161626.624,34.3100253894188,4,1,0,15,1,0
161629.914666667,34.4328902968116,4,1,0,15,1,0
161633.205333333,34.5566383302233,4,1,0,15,1,0
161636.496,34.6812790455712,4,1,0,15,1,0
161639.786666667,34.8068221371389,4,1,0,15,1,0
161643.077333333,34.9332774400895,4,1,0,15,1,0
161646.368,35.0606549330342,4,1,0,15,1,0
161649.658666667,35.1889647406574,4,1,0,15,1,0
161652.949333333,35.318217136399,4,1,0,15,1,0
161656.24,35.4484225451968,4,1,0,15,1,0
161659.530666667,35.5795915462891,4,1,0,15,1,0
161662.821333333,35.7117348760803,4,1,0,15,1,0
161666.112,35.8448634310704,4,1,0,15,1,0
161669.402666667,35.9789882708499,4,1,0,15,1,0
161672.693333333,36.1141206211629,4,1,0,15,1,0
161675.984,36.2502718770391,4,1,0,15,1,0
161679.274666667,36.3874536059967,4,1,0,15,1,0
161682.565333333,36.5256775513186,4,1,0,15,1,0
161685.856,36.6649556354037,4,1,0,15,1,0
161689.146666667,36.8052999631947,4,1,0,15,1,0
161692.437333333,36.9467228256854,4,1,0,15,1,0
161695.728,37.0892367035087,4,1,0,15,1,0
161699.018666667,37.2328542706084,4,1,0,15,1,0
161702.309333333,37.3775883979966,4,1,0,15,1,0
161705.6,37.5234521575985,4,1,0,15,1,0
161708.890666667,37.6704588261885,4,1,0,15,1,0
161712.181333333,37.8186218894184,4,1,0,15,1,0
161715.472,37.9679550459413,4,1,0,15,1,0
161718.762666667,38.1184722116338,4,1,0,15,1,0
161722.053333333,38.2701875239189,4,1,0,15,1,0
161725.344,38.4231153461923,4,1,0,15,1,0
161728.634666667,38.5772702723556,4,1,0,15,1,0
161731.925333333,38.7326671314587,4,1,0,15,1,0
161735.216,38.8893209924555,4,1,0,15,1,0
161738.506666667,39.0472471690746,4,1,0,15,1,0
161741.797333333,39.2064612248099,4,1,0,15,1,0
161745.088,39.3669789780333,4,1,0,15,1,0
161748.378666667,39.5288165072338,4,1,0,15,1,0
161751.669333333,39.6919901563865,4,1,0,15,1,0
161754.96,39.8565165404544,4,1,0,15,1,0
161758.250666667,40.0224125510286,4,1,0,15,1,0
161761.541333333,40.1896953621092,4,1,0,15,1,0
161764.832,40.358382436032,4,1,0,15,1,0
161768.122666667,40.5284915295453,4,1,0,15,1,0
161771.413333333,40.7000407000408,4,1,0,15,1,0
161774.704,40.8730483119432,4,1,0,15,1,0
161777.994666667,41.0475330432642,4,1,0,15,1,0
161781.285333333,41.2235138923242,4,1,0,15,1,0
161784.576,41.4010101846486,4,1,0,15,1,0
161787.866666667,41.5800415800416,4,1,0,15,1,0
161791.157333333,41.7606280798464,4,1,0,15,1,0
161794.448,41.9427900343931,4,1,0,15,1,0
161797.738666667,42.1265481506446,4,1,0,15,1,0
161801.029333333,42.3119235000424,4,1,0,15,1,0
161804.32,42.4989375265619,4,1,0,15,1,0
161807.610666667,42.6876120549817,4,1,0,15,1,0
161810.901333333,42.877969299374,4,1,0,15,1,0
161814.192,43.0700318718236,4,1,0,15,1,0
161817.482666667,43.2638227913819,4,1,0,15,1,0
161820.773333333,43.4593654932639,4,1,0,15,1,0
161824.064,43.6566838382957,4,1,0,15,1,0
161827.354666667,43.8558021226209,4,1,0,15,1,0
161830.645333333,44.056745087673,4,1,0,15,1,0
161833.936,44.259537930424,4,1,0,15,1,0
161837.226666667,44.4642063139173,4,1,0,15,1,0
161840.517333333,44.6707763780935,4,1,0,15,1,0
161843.808,44.8792747509201,4,1,0,15,1,0
161847.098666667,45.0897285598341,4,1,0,15,1,0
161850.389333333,45.3021654435082,4,1,0,15,1,0
161853.68,45.5166135639509,4,1,0,15,1,0
161856.970666667,45.7331016189518,4,1,0,15,1,0
161860.261333333,45.9516588548847,4,1,0,15,1,0
161863.552,46.1723150798781,4,1,0,15,1,0
161866.842666667,46.3951006773685,4,1,0,15,1,0
161870.133333333,46.6200466200467,4,1,0,15,1,0
161873.424,46.8471844842125,4,1,0,15,1,0
161876.714666667,47.0765464645514,4,1,0,15,1,0
161880.005333333,47.3081653893462,4,1,0,15,1,0
161883.296,47.5420747361415,4,1,0,15,1,0
161886.586666667,47.7783086478739,4,1,0,15,1,0
161889.877333333,48.0169019494863,4,1,0,15,1,0
161893.168,48.257890165042,4,1,0,15,1,0
161896.458666667,48.5013095353575,4,1,0,15,1,0
161899.749333333,48.7471970361705,4,1,0,15,1,0
161903.04,48.9955903968643,4,1,0,15,1,0
161906.330666667,49.2465281197676,4,1,0,15,1,0
161909.621333333,49.5000495000495,4,1,0,15,1,0
161912.912,49.7561946462335,4,1,0,15,1,0
161916.202666667,50.0150045013504,4,1,0,15,1,0
161919.493333333,50.2765208647562,4,1,0,15,1,0
161922.784,50.5407864146367,4,1,0,15,1,0
161926.074666667,50.8078447312265,4,1,0,15,1,0
161929.365333333,51.0777403207682,4,1,0,15,1,0
161932.656,51.3505186402383,4,1,0,15,1,0
161935.946666667,51.6262261228705,4,1,0,15,1,0
161939.237333333,51.9049102045054,4,1,0,15,1,0
161942.528,52.1866193507985,4,1,0,15,1,0
161945.818666667,52.4714030853186,4,1,0,15,1,0
161949.109333333,52.7593120185713,4,1,0,15,1,0
161952.4,53.0503978779841,4,1,0,15,1,0
161955.690666667,53.3447135388883,4,1,0,15,1,0
161958.981333333,53.642313056539,4,1,0,15,1,0
161962.272,53.9432516992125,4,1,0,15,1,0
161965.562666667,54.2475859824238,4,1,0,15,1,0
161968.853333333,54.5553737043099,4,1,0,15,1,0
161972.144,54.8666739822232,4,1,0,15,1,0
161975.434666667,55.1815472905861,4,1,0,15,1,0
161978.725333333,55.5000555000556,4,1,0,15,1,0
161982.016,55.822261918053,4,1,0,15,1,0
161985.306666667,56.1482313307131,4,1,0,15,1,0
161988.597333333,56.478030046312,4,1,0,15,1,0
161991.888,56.8117259402341,4,1,0,15,1,0
161995.178666667,57.1493885015431,4,1,0,15,1,0
161998.469333333,57.4910888812235,4,1,0,15,1,0
162001.76,57.8368999421632,4,1,0,15,1,0
162005.050666667,58.1868963109508,4,1,0,15,1,0
162008.341333333,58.5411544315655,4,1,0,15,1,0
162011.632,58.8997526210391,4,1,0,15,1,0
162014.922666667,59.262771127178,4,1,0,15,1,0
162018.213333333,59.6302921884318,4,1,0,15,1,0
162021.504,60.0024000960039,4,1,0,15,1,0
162024.794666667,60.3791812583022,4,1,0,15,1,0
162028.085333333,60.7607242678333,4,1,0,15,1,0
162031.376,61.1471199706494,4,1,0,15,1,0
162034.666666667,61.5384615384616,4,1,0,15,1,0
162037.957333333,61.9348445435403,4,1,0,15,1,0
162041.248,62.3363670365292,4,1,0,15,1,0
162044.538666667,62.7431296273059,4,1,0,15,1,0
162047.829333333,63.1552355690287,4,1,0,15,1,0
162051.12,63.5727908455182,4,1,0,15,1,0
162054.410666667,63.9959042621273,4,1,0,15,1,0
162057.701333333,64.4246875402655,4,1,0,15,1,0
162060.992,64.8592554157479,4,1,0,15,1,0
162064.282666667,65.299725741152,4,1,0,15,1,0
162067.573333333,65.7462195923735,4,1,0,15,1,0
162070.864,66.1988613795843,4,1,0,15,1,0
162074.154666667,66.657778962805,4,1,0,15,1,0
162077.445333333,67.1231037723185,4,1,0,15,1,0
162080.736,67.5949709341626,4,1,0,15,1,0
162084.026666667,68.0735194009531,4,1,0,15,1,0
162087.317333333,68.5588920883039,4,1,0,15,1,0
162090.608,69.0512360171248,4,1,0,15,1,0
162093.898666667,69.5507024620949,4,1,0,15,1,0
162097.189333333,70.0574471066275,4,1,0,15,1,0
162100.48,70.5716302046578,4,1,0,15,1,0
162103.770666667,71.0934167496091,4,1,0,15,1,0
162107.061333333,71.6229766509097,4,1,0,15,1,0
162110.352,72.1604849184587,4,1,0,15,1,0
162113.642666667,72.7061218554603,4,1,0,15,1,0
162116.933333333,73.2600732600734,4,1,0,15,1,0
162120.224,73.8225306363503,4,1,0,15,1,0
162123.514666667,74.3936914149681,4,1,0,15,1,0
162126.805333333,74.9737591842856,4,1,0,15,1,0
162130.096,75.5629439322957,4,1,0,15,1,0
162133.386666667,76.1614623000763,4,1,0,15,1,0
162136.677333333,76.7695378473823,4,1,0,15,1,0
162139.968,77.3874013310634,4,1,0,15,1,0
162143.258666667,78.0152909970355,4,1,0,15,1,0
162146.549333333,78.6534528865818,4,1,0,15,1,0
162149.84,79.3021411578114,4,1,0,15,1,0
162153.130666667,79.961618423157,4,1,0,15,1,0
162156.421333333,80.6321561038543,4,1,0,15,1,0
162159.712,81.314034802407,4,1,0,15,1,0
162163.002666667,82.007544694112,4,1,0,15,1,0
162166.293333333,82.7129859387925,4,1,0,15,1,0
162169.584,83.4306691139664,4,1,0,15,1,0
162172.874666667,84.1609156707626,4,1,0,15,1,0
162176.165333333,84.9040584139923,4,1,0,15,1,0
162179.456,85.6604420078809,4,1,0,15,1,0
162182.746666667,86.4304235090753,4,1,0,15,1,0
162186.037333333,87.2143729286588,4,1,0,15,1,0
162189.328,88.0126738250309,4,1,0,15,1,0
162192.618666667,88.8257239296502,4,1,0,15,1,0
162195.909333333,89.6539358077821,4,1,0,15,1,0
162199.2,90.4977375565612,4,1,0,15,1,0
162202.490666667,91.3575735428468,4,1,0,15,1,0
162205.781333333,92.2339051835456,4,1,0,15,1,0
162209.072,93.1272117712797,4,1,0,15,1,0
162212.362666667,94.0379913485049,4,1,0,15,1,0
162215.653333333,94.9667616334284,4,1,0,15,1,0
162218.944,95.9140610013429,4,1,0,15,1,0
162222.234666667,96.880449525286,4,1,0,15,1,0
162225.525333333,97.8665100802507,4,1,0,15,1,0
162228.816,98.8728495155232,4,1,0,15,1,0
162232.106666667,99.9000999001001,4,1,0,15,1,0
162235.397333333,100.948919846558,4,1,0,15,1,0
162238.688,102.0199959192,4,1,0,15,1,0
162241.978666667,103.114044132811,4,1,0,15,1,0
162245.269333333,104.231811548885,4,1,0,15,1,0
162248.56,105.374077976818,4,1,0,15,1,0
162251.850666667,106.541657788195,4,1,0,15,1,0
162255.141333333,107.735401853049,4,1,0,15,1,0
162258.432,108.956199607758,4,1,0,15,1,0
162261.722666667,110.204981265153,4,1,0,15,1,0
162265.013333333,111.482720178372,4,1,0,15,1,0
162268.304,112.790435371081,4,1,0,15,1,0
162271.594666667,114.129194247889,4,1,0,15,1,0
162274.885333333,115.500115500116,4,1,0,15,1,0
162278.176,116.904372223521,4,1,0,15,1,0
162281.466666667,118.343195266272,4,1,0,15,1,0
162284.757333333,119.817876827223,4,1,0,15,1,0
162288.048,121.32977432662,4,1,0,15,1,0
162291.338666667,122.880314573605,4,1,0,15,1,0
162294.629333333,124.470998257406,4,1,0,15,1,0
162297.92,126.103404791929,4,1,0,15,1,0
162301.210666667,127.779197546639,4,1,0,15,1,0
162304.501333333,129.50012950013,4,1,0,15,1,0
162307.792,131.268049356787,4,1,0,15,1,0
162311.082666667,133.084908171413,4,1,0,15,1,0
162314.373333333,134.952766531714,4,1,0,15,1,0
162317.664,136.873802354229,4,1,0,15,1,0
162320.954666667,138.850319355735,4,1,0,15,1,0
162324.245333333,140.884756269372,4,1,0,15,1,0
162327.536,142.979696883043,4,1,0,15,1,0
162330.826666667,145.137880986938,4,1,0,15,1,0
162334.117333333,147.362216327734,4,1,0,15,1,0
162337.408,149.655791679138,4,1,0,15,1,0
162340.698666667,152.021891152326,4,1,0,15,1,0
162343.989333333,154.464009885697,4,1,0,15,1,0
162347.28,156.985871271586,4,1,0,15,1,0
162350.570666667,159.5914458985,4,1,0,15,1,0
162353.861333333,162.284972411555,4,1,0,15,1,0
162357.152,165.070980521624,4,1,0,15,1,0
162360.442666667,167.954316425932,4,1,0,15,1,0
162363.733333333,170.940170940171,4,1,0,15,1,0
162367.024,174.034110685695,4,1,0,15,1,0
162370.314666667,177.242112725984,4,1,0,15,1,0
162373.605333333,180.570603105814,4,1,0,15,1,0
162376.896,184.026499815974,4,1,0,15,1,0
162380.186666667,187.617260787993,4,1,0,15,1,0
162383.477333333,191.350937619594,4,1,0,15,1,0
162386.768,195.236235845373,4,1,0,15,1,0
162390.058666667,199.282582702272,4,1,0,15,1,0
162393.349333333,203.500203500204,4,1,0,15,1,0
162396.64,207.900207900208,4,1,0,15,1,0
162399.930666667,212.494687632809,4,1,0,15,1,0
162403.221333333,217.296827466319,4,1,0,15,1,0
162406.512,222.321031569587,4,1,0,15,1,0
162409.802666667,227.583067819754,4,1,0,15,1,0
162413.093333333,233.100233100233,4,1,0,15,1,0
162416.384,238.89154323937,4,1,0,15,1,0
162419.674666667,244.977951984322,4,1,0,15,1,0
162422.965333333,251.382604323781,4,1,0,15,1,0
162426.256,258.131130614352,4,1,0,15,1,0
162429.546666667,265.251989389921,4,1,0,15,1,0
162432.837333333,272.77686852155,4,1,0,15,1,0
162436.128,280.741156653566,4,1,0,15,1,0
162439.418666667,289.184499710816,4,1,0,15,1,0
162442.709333333,298.151460942159,4,1,0,15,1,0
162446,307.692307692308,4,1,0,15,1,0
162446,-100,4,1,0,15,0,0
182138,-25,4,1,0,15,0,0
183830,-250,4,1,0,15,0,0
183984,-100,4,1,0,15,0,0
188138,-10000,4,1,0,15,0,0
191369,-166.666666666667,4,1,0,15,0,0
191446,-142.857142857143,4,1,0,15,0,0
191522,-125,4,1,0,15,0,0
191599,-111.111111111111,4,1,0,15,0,0
191676,-100,4,1,0,15,0,0
191753,-80,4,1,0,15,0,0
191830,-200,4,1,0,15,0,0
191907,-66.6666666666667,4,1,0,15,0,0
191984,-100,4,1,0,15,0,0
207061,-80,4,1,0,15,0,0
207099,-222.222222222221,4,1,0,15,0,0
207138,-100,4,1,0,15,0,0
208292,-80,4,1,0,15,0,0
208330,-222.222222222221,4,1,0,15,0,0
208369,-100,4,1,0,15,0,0
209522,-80,4,1,0,15,0,0
209561,-222.222222222221,4,1,0,15,0,0
209599,-100,4,1,0,15,0,0
211676,869.565,4,1,0,15,1,0
211830,120,4,1,0,15,1,0
211984,869.565,4,1,0,15,1,0
212003,60,4,1,0,15,1,0
212022,869.565,4,1,0,15,1,0
212234,40,4,1,0,15,1,0
212446,869.565,4,1,0,15,1,0
212465,30,4,1,0,15,1,0
212484,869.565,4,1,0,15,1,0
212503,24,4,1,0,15,1,0
212522,869.565,4,1,0,15,1,0
212868.5,20,4,1,0,15,1,0
213215,869.565,4,1,0,15,1,0
213234,17.1428571428571,4,1,0,15,1,0
213253,869.565,4,1,0,15,1,0
213464.5,15,4,1,0,15,1,0
213676,869.565,4,1,0,15,1,0
213695.5,13.3333333333333,4,1,0,15,1,0
213715,869.565,4,1,0,15,1,0
213734,12,4,1,0,15,1,0
213753,869.565,4,1,0,15,1,0
214099.5,10.9090909090909,4,1,0,15,1,0
214446,869.565,4,1,0,15,1,0
214465,10,4,1,0,15,1,0
214484,869.565,4,1,0,15,1,0
214695.5,9.23076923076923,4,1,0,15,1,0
214907,869.565,4,1,0,15,1,0
214926.5,8.57142857142857,4,1,0,15,1,0
214946,869.565,4,1,0,15,1,0
214965,8,4,1,0,15,1,0
214984,869.565,4,1,0,15,1,0
215330,7.5,4,1,0,15,1,0
215676,869.565,4,1,0,15,1,0
215695.5,7.05882352941176,4,1,0,15,1,0
215715,869.565,4,1,0,15,1,0
215926.5,6.66666666666667,4,1,0,15,1,0
216138,869.565,4,1,0,15,1,0
216157,6.31578947368421,4,1,0,15,1,0
216176,869.565,4,1,0,15,1,0
216195.5,6,4,1,0,15,1,0
216215,869.565,4,1,0,15,1,0
216561,6.66666666666667,4,1,0,15,1,0
216907,869.565,4,1,0,15,1,0
216926.5,7.5,4,1,0,15,1,0
216946,869.565,4,1,0,15,1,0
217157.5,8.57142857142857,4,1,0,15,1,0
217369,869.565,4,1,0,15,1,0
217388,10,4,1,0,15,1,0
217407,869.565,4,1,0,15,1,0
217426.5,12,4,1,0,15,1,0
217446,869.565,4,1,0,15,1,0
217792,15,4,1,0,15,1,0
218138,869.565,4,1,0,15,1,0
218157,20,4,1,0,15,1,0
218176,869.565,4,1,0,15,1,0
218387.5,30,4,1,0,15,1,0
218599,869.565,4,1,0,15,1,0
218618.5,60,4,1,0,15,1,0
218638,869.565,4,1,0,15,1,0
218657,120,4,1,0,15,1,0
218676,869.565,4,1,0,15,1,0
219022.5,40,4,1,0,15,1,0
219369,869.565,4,1,0,15,1,0
219388,24,4,1,0,15,1,0
219407,869.565,4,1,0,15,1,0
219618.5,30,4,1,0,15,1,0
219830,869.565,4,1,0,15,1,0
219849.5,40,4,1,0,15,1,0
219869,869.565,4,1,0,15,1,0
219888,60,4,1,0,15,1,0
219907,869.565,4,1,0,15,1,0
220253,30,4,1,0,15,1,0
220599,869.565,4,1,0,15,1,0
220618.5,20,4,1,0,15,1,0
220638,869.565,4,1,0,15,1,0
220849.5,30,4,1,0,15,1,0
221061,869.565,4,1,0,15,1,0
221080,60,4,1,0,15,1,0
221099,869.565,4,1,0,15,1,0
221118.5,186.916,4,1,0,15,1,0
221138,307.692,4,1,0,15,1,0
221303,307.692307692308,4,1,0,15,1,0
221533,307.692307692308,4,1,0,15,1,0
221533,-400,4,1,0,15,0,0
221686.5,-57.143,4,1,0,15,0,0
221840,-400,4,1,0,15,0,0
221994,-57.143,4,1,0,15,0,0
222148,-400,4,1,0,15,0,0
222302,-57.143,4,1,0,15,0,0
222456,-400,4,1,0,15,0,0
222609.5,-57.143,4,1,0,15,0,0
222763,-400,4,1,0,15,0,0
222917,-57.143,4,1,0,15,0,0
223071,-400,4,1,0,15,0,0
223225,-57.143,4,1,0,15,0,0
223379,-400,4,1,0,15,0,0
223532.5,-57.143,4,1,0,15,0,0
223686,-400,4,1,0,15,0,0
223840,-57.143,4,1,0,15,0,0
223994,-400,4,1,0,15,0,0
224148,-57.143,4,1,0,15,0,0
224302,-400,4,1,0,15,0,0
224455.5,-57.143,4,1,0,15,0,0
224609,-400,4,1,0,15,0,0
224763,-57.143,4,1,0,15,0,0
224917,-400,4,1,0,15,0,0
225071,-57.143,4,1,0,15,0,0
225225,-400,4,1,0,15,0,0
225379,-57.143,4,1,0,15,0,0
225533,-400,4,1,0,15,0,0
225686.5,-57.143,4,1,0,15,0,0
225840,-400,4,1,0,15,0,0
225994,-57.143,4,1,0,15,0,0
226148,-400,4,1,0,15,0,0
226302,-57.143,4,1,0,15,0,0
226456,-400,4,1,0,15,0,0
226532.5,-57.143,4,1,0,15,0,0
226609,-400,4,1,0,15,0,0
226686,-57.143,4,1,0,15,0,0
226763,-400,4,1,0,15,0,0
226840,-57.143,4,1,0,15,0,0
226917,-400,4,1,0,15,0,0
226994,-57.143,4,1,0,15,0,0
227071,-400,4,1,0,15,0,0
227148,-57.143,4,1,0,15,0,0
227225,-400,4,1,0,15,0,0
227302,-57.143,4,1,0,15,0,0
227379,-400,4,1,0,15,0,0
227455.5,-57.143,4,1,0,15,0,0
227532,-400,4,1,0,15,0,0
227609,-57.143,4,1,0,15,0,0
227686,-400,4,1,0,15,0,0
227763,-57.143,4,1,0,15,0,0
227840,-400,4,1,0,15,0,0
227917,-57.143,4,1,0,15,0,0
227994,-400,4,1,0,15,0,0
228071,-57.143,4,1,0,15,0,0
228148,-400,4,1,0,15,0,0
228225,-57.143,4,1,0,15,0,0
228302,-400,4,1,0,15,0,0
228379,-57.143,4,1,0,15,0,0
228456,-400,4,1,0,15,0,0
228532.5,-57.143,4,1,0,15,0,0
228609,-400,4,1,0,15,0,0
228686,-57.143,4,1,0,15,0,0
228763,-400,4,1,0,15,0,0
228840,-57.143,4,1,0,15,0,0
228917,-400,4,1,0,15,0,0
228955.5,-57.143,4,1,0,15,0,0
228994,-400,4,1,0,15,0,0
229032.5,-57.143,4,1,0,15,0,0
229071,-400,4,1,0,15,0,0
229109.5,-57.143,4,1,0,15,0,0
229148,-400,4,1,0,15,0,0
229186.5,-57.143,4,1,0,15,0,0
229225,-400,4,1,0,15,0,0
229263.5,-57.143,4,1,0,15,0,0
229302,-400,4,1,0,15,0,0
229340.5,-57.143,4,1,0,15,0,0
229379,-400,4,1,0,15,0,0
229417.5,-57.143,4,1,0,15,0,0
229456,-400,4,1,0,15,0,0
229494,-57.143,4,1,0,15,0,0
229532,-400,4,1,0,15,0,0
229570.5,-57.143,4,1,0,15,0,0
229609,-400,4,1,0,15,0,0
229647.5,-57.143,4,1,0,15,0,0
229686,-400,4,1,0,15,0,0
229724.5,-57.143,4,1,0,15,0,0
229763,-400,4,1,0,15,0,0
229801.5,-57.143,4,1,0,15,0,0
229840,-400,4,1,0,15,0,0
229878.5,-57.143,4,1,0,15,0,0
229917,-400,4,1,0,15,0,0
229955.5,-57.143,4,1,0,15,0,0
229994,-400,4,1,0,15,0,0
230032.5,-57.143,4,1,0,15,0,0
230071,-400,4,1,0,15,0,0
230119,-57.143,4,1,0,15,0,0
230167,7627,838,1,0,15,1,0
230168,2,4,1,0,15,1,0
230170,1000000,139,1,0,15,1,0
230171,1000000,139,1,0,15,1,0
230172,1000000,139,1,0,15,1,0
230173,1000000,139,1,0,15,1,0
230174,1000000,139,1,0,15,1,0
230175,1000000,139,1,0,15,1,0
230176,1000000,139,1,0,15,1,0
230177,1000000,139,1,0,15,1,0
230178,1000000,139,1,0,15,1,0
230179,1000000,139,1,0,15,1,0
230180,1000000,139,1,0,15,1,0
230181,1000000,139,1,0,15,1,0
230182,1000000,139,1,0,15,1,0
230183,1000000,139,1,0,15,1,0
230184,1000000,139,1,0,15,1,0
230185,1000000,139,1,0,15,1,0
230186,1000000,139,1,0,15,1,0
230187,1000000,139,1,0,15,1,0
230188,1000000,139,1,0,15,1,0
230189,1000000,139,1,0,15,1,0
230190,1000000,139,1,0,15,1,0
230191,1000000,139,1,0,15,1,0
230192,1000000,139,1,0,15,1,0
230193,1000000,139,1,0,15,1,0
230194,1000000,139,1,0,15,1,0
230195,1000000,139,1,0,15,1,0
230196,1000000,139,1,0,15,1,0
230197,1000000,139,1,0,15,1,0
230198,1000000,139,1,0,15,1,0
230199,1000000,139,1,0,15,1,0
230200,1000000,139,1,0,15,1,0
230201,1000000,139,1,0,15,1,0
230202,1000000,139,1,0,15,1,0
230203,1000000,139,1,0,15,1,0
230204,1000000,139,1,0,15,1,0
230205,1908.46065115139,4,1,0,15,1,0
230206,2,4,1,0,15,1,0
230208,1000000,139,1,0,15,1,0
230209,1000000,139,1,0,15,1,0
230210,1000000,139,1,0,15,1,0
230211,1000000,139,1,0,15,1,0
230212,1000000,139,1,0,15,1,0
230213,1000000,139,1,0,15,1,0
230214,1000000,139,1,0,15,1,0
230215,1000000,139,1,0,15,1,0
230216,1000000,139,1,0,15,1,0
230217,1000000,139,1,0,15,1,0
230218,1000000,139,1,0,15,1,0
230219,1000000,139,1,0,15,1,0
230220,1000000,139,1,0,15,1,0
230221,1000000,139,1,0,15,1,0
230222,1000000,139,1,0,15,1,0
230223,1000000,139,1,0,15,1,0
230224,1000000,139,1,0,15,1,0
230225,1000000,139,1,0,15,1,0
230226,1000000,139,1,0,15,1,0
230227,1000000,139,1,0,15,1,0
230228,1000000,139,1,0,15,1,0
230229,1000000,139,1,0,15,1,0
230230,1000000,139,1,0,15,1,0
230231,1000000,139,1,0,15,1,0
230232,1000000,139,1,0,15,1,0
230233,1000000,139,1,0,15,1,0
230234,1000000,139,1,0,15,1,0
230235,1000000,139,1,0,15,1,0
230236,1000000,139,1,0,15,1,0
230237,1000000,139,1,0,15,1,0
230238,1000000,139,1,0,15,1,0
230239,1000000,139,1,0,15,1,0
230240,1000000,139,1,0,15,1,0
230241,1000000,139,1,0,15,1,0
230242,1000000,139,1,0,15,1,0
230243,849.318120721421,4,1,0,15,1,0
230244,2,4,1,0,15,1,0
230246,1000000,139,1,0,15,1,0
230247,1000000,139,1,0,15,1,0
230248,1000000,139,1,0,15,1,0
230249,1000000,139,1,0,15,1,0
230250,1000000,139,1,0,15,1,0
230251,1000000,139,1,0,15,1,0
230252,1000000,139,1,0,15,1,0
230253,1000000,139,1,0,15,1,0
230254,1000000,139,1,0,15,1,0
230255,1000000,139,1,0,15,1,0
230256,1000000,139,1,0,15,1,0
230257,1000000,139,1,0,15,1,0
230258,1000000,139,1,0,15,1,0
230259,1000000,139,1,0,15,1,0
230260,1000000,139,1,0,15,1,0
230261,1000000,139,1,0,15,1,0
230262,1000000,139,1,0,15,1,0
230263,1000000,139,1,0,15,1,0
230264,1000000,139,1,0,15,1,0
230265,1000000,139,1,0,15,1,0
230266,1000000,139,1,0,15,1,0
230267,1000000,139,1,0,15,1,0
230268,1000000,139,1,0,15,1,0
230269,1000000,139,1,0,15,1,0
230270,1000000,139,1,0,15,1,0
230271,1000000,139,1,0,15,1,0
230272,1000000,139,1,0,15,1,0
230273,1000000,139,1,0,15,1,0
230274,1000000,139,1,0,15,1,0
230275,1000000,139,1,0,15,1,0
230276,1000000,139,1,0,15,1,0
230277,1000000,139,1,0,15,1,0
230278,1000000,139,1,0,15,1,0
230279,1000000,139,1,0,15,1,0
230280,1000000,139,1,0,15,1,0
230281,1000000,139,1,0,15,1,0
230282,478.619893411015,4,1,0,15,1,0
230283,2,4,1,0,15,1,0
230285,1000000,139,1,0,15,1,0
230286,1000000,139,1,0,15,1,0
230287,1000000,139,1,0,15,1,0
230288,1000000,139,1,0,15,1,0
230289,1000000,139,1,0,15,1,0
230290,1000000,139,1,0,15,1,0
230291,1000000,139,1,0,15,1,0
230292,1000000,139,1,0,15,1,0
230293,1000000,139,1,0,15,1,0
230294,1000000,139,1,0,15,1,0
230295,1000000,139,1,0,15,1,0
230296,1000000,139,1,0,15,1,0
230297,1000000,139,1,0,15,1,0
230298,1000000,139,1,0,15,1,0
230299,1000000,139,1,0,15,1,0
230300,1000000,139,1,0,15,1,0
230301,1000000,139,1,0,15,1,0
230302,1000000,139,1,0,15,1,0
230303,1000000,139,1,0,15,1,0
230304,1000000,139,1,0,15,1,0
230305,1000000,139,1,0,15,1,0
230306,1000000,139,1,0,15,1,0
230307,1000000,139,1,0,15,1,0
230308,1000000,139,1,0,15,1,0
230309,1000000,139,1,0,15,1,0
230310,1000000,139,1,0,15,1,0
230311,1000000,139,1,0,15,1,0
230312,1000000,139,1,0,15,1,0
230313,1000000,139,1,0,15,1,0
230314,1000000,139,1,0,15,1,0
230315,1000000,139,1,0,15,1,0
230316,1000000,139,1,0,15,1,0
230317,1000000,139,1,0,15,1,0
230318,1000000,139,1,0,15,1,0
230319,1000000,139,1,0,15,1,0
230320,307.041395207808,4,1,0,15,1,0
230321,2,4,1,0,15,1,0
230323,1000000,139,1,0,15,1,0
230324,1000000,139,1,0,15,1,0
230325,1000000,139,1,0,15,1,0
230326,1000000,139,1,0,15,1,0
230327,1000000,139,1,0,15,1,0
230328,1000000,139,1,0,15,1,0
230329,1000000,139,1,0,15,1,0
230330,1000000,139,1,0,15,1,0
230331,1000000,139,1,0,15,1,0
230332,1000000,139,1,0,15,1,0
230333,1000000,139,1,0,15,1,0
230334,1000000,139,1,0,15,1,0
230335,1000000,139,1,0,15,1,0
230336,1000000,139,1,0,15,1,0
230337,1000000,139,1,0,15,1,0
230338,1000000,139,1,0,15,1,0
230339,1000000,139,1,0,15,1,0
230340,1000000,139,1,0,15,1,0
230341,1000000,139,1,0,15,1,0
230342,1000000,139,1,0,15,1,0
230343,1000000,139,1,0,15,1,0
230344,1000000,139,1,0,15,1,0
230345,1000000,139,1,0,15,1,0
230346,1000000,139,1,0,15,1,0
230347,1000000,139,1,0,15,1,0
230348,1000000,139,1,0,15,1,0
230349,1000000,139,1,0,15,1,0
230350,1000000,139,1,0,15,1,0
230351,1000000,139,1,0,15,1,0
230352,1000000,139,1,0,15,1,0
230353,1000000,139,1,0,15,1,0
230354,1000000,139,1,0,15,1,0
230355,1000000,139,1,0,15,1,0
230356,1000000,139,1,0,15,1,0
230357,1000000,139,1,0,15,1,0
230359,213.840202281284,4,1,0,15,1,0
230360,2,4,1,0,15,1,0
230362,1000000,139,1,0,15,1,0
230363,1000000,139,1,0,15,1,0
230364,1000000,139,1,0,15,1,0
230365,1000000,139,1,0,15,1,0
230366,1000000,139,1,0,15,1,0
230367,1000000,139,1,0,15,1,0
230368,1000000,139,1,0,15,1,0
230369,1000000,139,1,0,15,1,0
230370,1000000,139,1,0,15,1,0
230371,1000000,139,1,0,15,1,0
230372,1000000,139,1,0,15,1,0
230373,1000000,139,1,0,15,1,0
230374,1000000,139,1,0,15,1,0
230375,1000000,139,1,0,15,1,0
230376,1000000,139,1,0,15,1,0
230377,1000000,139,1,0,15,1,0
230378,1000000,139,1,0,15,1,0
230379,1000000,139,1,0,15,1,0
230380,1000000,139,1,0,15,1,0
230381,1000000,139,1,0,15,1,0
230382,1000000,139,1,0,15,1,0
230383,1000000,139,1,0,15,1,0
230384,1000000,139,1,0,15,1,0
230385,1000000,139,1,0,15,1,0
230386,1000000,139,1,0,15,1,0
230387,1000000,139,1,0,15,1,0
230388,1000000,139,1,0,15,1,0
230389,1000000,139,1,0,15,1,0
230390,1000000,139,1,0,15,1,0
230391,1000000,139,1,0,15,1,0
230392,1000000,139,1,0,15,1,0
230393,1000000,139,1,0,15,1,0
230394,1000000,139,1,0,15,1,0
230395,1000000,139,1,0,15,1,0
230396,1000000,139,1,0,15,1,0
230397,157.644854232574,4,1,0,15,1,0
230398,2,4,1,0,15,1,0
230400,1000000,139,1,0,15,1,0
230401,1000000,139,1,0,15,1,0
230402,1000000,139,1,0,15,1,0
230403,1000000,139,1,0,15,1,0
230404,1000000,139,1,0,15,1,0
230405,1000000,139,1,0,15,1,0
230406,1000000,139,1,0,15,1,0
230407,1000000,139,1,0,15,1,0
230408,1000000,139,1,0,15,1,0
230409,1000000,139,1,0,15,1,0
230410,1000000,139,1,0,15,1,0
230411,1000000,139,1,0,15,1,0
230412,1000000,139,1,0,15,1,0
230413,1000000,139,1,0,15,1,0
230414,1000000,139,1,0,15,1,0
230415,1000000,139,1,0,15,1,0
230416,1000000,139,1,0,15,1,0
230417,1000000,139,1,0,15,1,0
230418,1000000,139,1,0,15,1,0
230419,1000000,139,1,0,15,1,0
230420,1000000,139,1,0,15,1,0
230421,1000000,139,1,0,15,1,0
230422,1000000,139,1,0,15,1,0
230423,1000000,139,1,0,15,1,0
230424,1000000,139,1,0,15,1,0
230425,1000000,139,1,0,15,1,0
230426,1000000,139,1,0,15,1,0
230427,1000000,139,1,0,15,1,0
230428,1000000,139,1,0,15,1,0
230429,1000000,139,1,0,15,1,0
230430,1000000,139,1,0,15,1,0
230431,1000000,139,1,0,15,1,0
230432,1000000,139,1,0,15,1,0
230433,1000000,139,1,0,15,1,0
230434,1000000,139,1,0,15,1,0
230436,121.174016145575,4,1,0,15,1,0
230437,2,4,1,0,15,1,0
230439,1000000,139,1,0,15,1,0
230440,1000000,139,1,0,15,1,0
230441,1000000,139,1,0,15,1,0
230442,1000000,139,1,0,15,1,0
230443,1000000,139,1,0,15,1,0
230444,1000000,139,1,0,15,1,0
230445,1000000,139,1,0,15,1,0
230446,1000000,139,1,0,15,1,0
230447,1000000,139,1,0,15,1,0
230448,1000000,139,1,0,15,1,0
230449,1000000,139,1,0,15,1,0
230450,1000000,139,1,0,15,1,0
230451,1000000,139,1,0,15,1,0
230452,1000000,139,1,0,15,1,0
230453,1000000,139,1,0,15,1,0
230454,1000000,139,1,0,15,1,0
230455,1000000,139,1,0,15,1,0
230456,1000000,139,1,0,15,1,0
230457,1000000,139,1,0,15,1,0
230458,1000000,139,1,0,15,1,0
230459,1000000,139,1,0,15,1,0
230460,1000000,139,1,0,15,1,0
230461,1000000,139,1,0,15,1,0
230462,1000000,139,1,0,15,1,0
230463,1000000,139,1,0,15,1,0
230464,1000000,139,1,0,15,1,0
230465,1000000,139,1,0,15,1,0
230466,1000000,139,1,0,15,1,0
230467,1000000,139,1,0,15,1,0
230468,1000000,139,1,0,15,1,0
230469,1000000,139,1,0,15,1,0
230470,1000000,139,1,0,15,1,0
230471,1000000,139,1,0,15,1,0
230472,1000000,139,1,0,15,1,0
230473,1000000,139,1,0,15,1,0
230474,96.1718952605257,4,1,0,15,1,0
230475,2,4,1,0,15,1,0
230477,1000000,139,1,0,15,1,0
230478,1000000,139,1,0,15,1,0
230479,1000000,139,1,0,15,1,0
230480,1000000,139,1,0,15,1,0
230481,1000000,139,1,0,15,1,0
230482,1000000,139,1,0,15,1,0
230483,1000000,139,1,0,15,1,0
230484,1000000,139,1,0,15,1,0
230485,1000000,139,1,0,15,1,0
230486,1000000,139,1,0,15,1,0
230487,1000000,139,1,0,15,1,0
230488,1000000,139,1,0,15,1,0
230489,1000000,139,1,0,15,1,0
230490,1000000,139,1,0,15,1,0
230491,1000000,139,1,0,15,1,0
230492,1000000,139,1,0,15,1,0
230493,1000000,139,1,0,15,1,0
230494,1000000,139,1,0,15,1,0
230495,1000000,139,1,0,15,1,0
230496,1000000,139,1,0,15,1,0
230497,1000000,139,1,0,15,1,0
230498,1000000,139,1,0,15,1,0
230499,1000000,139,1,0,15,1,0
230500,1000000,139,1,0,15,1,0
230501,1000000,139,1,0,15,1,0
230502,1000000,139,1,0,15,1,0
230503,1000000,139,1,0,15,1,0
230504,1000000,139,1,0,15,1,0
230505,1000000,139,1,0,15,1,0
230506,1000000,139,1,0,15,1,0
230507,1000000,139,1,0,15,1,0
230508,1000000,139,1,0,15,1,0
230509,1000000,139,1,0,15,1,0
230510,1000000,139,1,0,15,1,0
230511,1000000,139,1,0,15,1,0
230513,78.2902450284625,4,1,0,15,1,0
230514,2,4,1,0,15,1,0
230516,1000000,139,1,0,15,1,0
230517,1000000,139,1,0,15,1,0
230518,1000000,139,1,0,15,1,0
230519,1000000,139,1,0,15,1,0
230520,1000000,139,1,0,15,1,0
230521,1000000,139,1,0,15,1,0
230522,1000000,139,1,0,15,1,0
230523,1000000,139,1,0,15,1,0
230524,1000000,139,1,0,15,1,0
230525,1000000,139,1,0,15,1,0
230526,1000000,139,1,0,15,1,0
230527,1000000,139,1,0,15,1,0
230528,1000000,139,1,0,15,1,0
230529,1000000,139,1,0,15,1,0
230530,1000000,139,1,0,15,1,0
230531,1000000,139,1,0,15,1,0
230532,1000000,139,1,0,15,1,0
230533,1000000,139,1,0,15,1,0
230534,1000000,139,1,0,15,1,0
230535,1000000,139,1,0,15,1,0
230536,1000000,139,1,0,15,1,0
230537,1000000,139,1,0,15,1,0
230538,1000000,139,1,0,15,1,0
230539,1000000,139,1,0,15,1,0
230540,1000000,139,1,0,15,1,0
230541,1000000,139,1,0,15,1,0
230542,1000000,139,1,0,15,1,0
230543,1000000,139,1,0,15,1,0
230544,1000000,139,1,0,15,1,0
230545,1000000,139,1,0,15,1,0
230546,1000000,139,1,0,15,1,0
230547,1000000,139,1,0,15,1,0
230548,1000000,139,1,0,15,1,0
230549,1000000,139,1,0,15,1,0
230550,1000000,139,1,0,15,1,0
230551,65.0621152481873,4,1,0,15,1,0
230552,2,4,1,0,15,1,0
230554,1000000,139,1,0,15,1,0
230555,1000000,139,1,0,15,1,0
230556,1000000,139,1,0,15,1,0
230557,1000000,139,1,0,15,1,0
230558,1000000,139,1,0,15,1,0
230559,1000000,139,1,0,15,1,0
230560,1000000,139,1,0,15,1,0
230561,1000000,139,1,0,15,1,0
230562,1000000,139,1,0,15,1,0
230563,1000000,139,1,0,15,1,0
230564,1000000,139,1,0,15,1,0
230565,1000000,139,1,0,15,1,0
230566,1000000,139,1,0,15,1,0
230567,1000000,139,1,0,15,1,0
230568,1000000,139,1,0,15,1,0
230569,1000000,139,1,0,15,1,0
230570,1000000,139,1,0,15,1,0
230571,1000000,139,1,0,15,1,0
230572,1000000,139,1,0,15,1,0
230573,1000000,139,1,0,15,1,0
230574,1000000,139,1,0,15,1,0
230575,1000000,139,1,0,15,1,0
230576,1000000,139,1,0,15,1,0
230577,1000000,139,1,0,15,1,0
230578,1000000,139,1,0,15,1,0
230579,1000000,139,1,0,15,1,0
230580,1000000,139,1,0,15,1,0
230581,1000000,139,1,0,15,1,0
230582,1000000,139,1,0,15,1,0
230583,1000000,139,1,0,15,1,0
230584,1000000,139,1,0,15,1,0
230585,1000000,139,1,0,15,1,0
230586,1000000,139,1,0,15,1,0
230587,1000000,139,1,0,15,1,0
230588,1000000,139,1,0,15,1,0
230590,55.0033530594059,4,1,0,15,1,0
230591,2,4,1,0,15,1,0
230593,1000000,139,1,0,15,1,0
230594,1000000,139,1,0,15,1,0
230595,1000000,139,1,0,15,1,0
230596,1000000,139,1,0,15,1,0
230597,1000000,139,1,0,15,1,0
230598,1000000,139,1,0,15,1,0
230599,1000000,139,1,0,15,1,0
230600,1000000,139,1,0,15,1,0
230601,1000000,139,1,0,15,1,0
230602,1000000,139,1,0,15,1,0
230603,1000000,139,1,0,15,1,0
230604,1000000,139,1,0,15,1,0
230605,1000000,139,1,0,15,1,0
230606,1000000,139,1,0,15,1,0
230607,1000000,139,1,0,15,1,0
230608,1000000,139,1,0,15,1,0
230609,1000000,139,1,0,15,1,0
230610,1000000,139,1,0,15,1,0
230611,1000000,139,1,0,15,1,0
230612,1000000,139,1,0,15,1,0
230613,1000000,139,1,0,15,1,0
230614,1000000,139,1,0,15,1,0
230615,1000000,139,1,0,15,1,0
230616,1000000,139,1,0,15,1,0
230617,1000000,139,1,0,15,1,0
230618,1000000,139,1,0,15,1,0
230619,1000000,139,1,0,15,1,0
230620,1000000,139,1,0,15,1,0
230621,1000000,139,1,0,15,1,0
230622,1000000,139,1,0,15,1,0
230623,1000000,139,1,0,15,1,0
230624,1000000,139,1,0,15,1,0
230625,1000000,139,1,0,15,1,0
230626,1000000,139,1,0,15,1,0
230627,1000000,139,1,0,15,1,0
230628,47.1776306421403,4,1,0,15,1,0
230629,2,4,1,0,15,1,0
230631,1000000,139,1,0,15,1,0
230632,1000000,139,1,0,15,1,0
230633,1000000,139,1,0,15,1,0
230634,1000000,139,1,0,15,1,0
230635,1000000,139,1,0,15,1,0
230636,1000000,139,1,0,15,1,0
230637,1000000,139,1,0,15,1,0
230638,1000000,139,1,0,15,1,0
230639,1000000,139,1,0,15,1,0
230640,1000000,139,1,0,15,1,0
230641,1000000,139,1,0,15,1,0
230642,1000000,139,1,0,15,1,0
230643,1000000,139,1,0,15,1,0
230644,1000000,139,1,0,15,1,0
230645,1000000,139,1,0,15,1,0
230646,1000000,139,1,0,15,1,0
230647,1000000,139,1,0,15,1,0
230648,1000000,139,1,0,15,1,0
230649,1000000,139,1,0,15,1,0
230650,1000000,139,1,0,15,1,0
230651,1000000,139,1,0,15,1,0
230652,1000000,139,1,0,15,1,0
230653,1000000,139,1,0,15,1,0
230654,1000000,139,1,0,15,1,0
230655,1000000,139,1,0,15,1,0
230656,1000000,139,1,0,15,1,0
230657,1000000,139,1,0,15,1,0
230658,1000000,139,1,0,15,1,0
230659,1000000,139,1,0,15,1,0
230660,1000000,139,1,0,15,1,0
230661,1000000,139,1,0,15,1,0
230662,1000000,139,1,0,15,1,0
230663,1000000,139,1,0,15,1,0
230664,1000000,139,1,0,15,1,0
230665,1000000,139,1,0,15,1,0
230667,40.9705627503589,4,1,0,15,1,0
230668,2,4,1,0,15,1,0
230670,1000000,139,1,0,15,1,0
230671,1000000,139,1,0,15,1,0
230672,1000000,139,1,0,15,1,0
230673,1000000,139,1,0,15,1,0
230674,1000000,139,1,0,15,1,0
230675,1000000,139,1,0,15,1,0
230676,1000000,139,1,0,15,1,0
230677,1000000,139,1,0,15,1,0
230678,1000000,139,1,0,15,1,0
230679,1000000,139,1,0,15,1,0
230680,1000000,139,1,0,15,1,0
230681,1000000,139,1,0,15,1,0
230682,1000000,139,1,0,15,1,0
230683,1000000,139,1,0,15,1,0
230684,1000000,139,1,0,15,1,0
230685,1000000,139,1,0,15,1,0
230686,1000000,139,1,0,15,1,0
230687,1000000,139,1,0,15,1,0
230688,1000000,139,1,0,15,1,0
230689,1000000,139,1,0,15,1,0
230690,1000000,139,1,0,15,1,0
230691,1000000,139,1,0,15,1,0
230692,1000000,139,1,0,15,1,0
230693,1000000,139,1,0,15,1,0
230694,1000000,139,1,0,15,1,0
230695,1000000,139,1,0,15,1,0
230696,1000000,139,1,0,15,1,0
230697,1000000,139,1,0,15,1,0
230698,1000000,139,1,0,15,1,0
230699,1000000,139,1,0,15,1,0
230700,1000000,139,1,0,15,1,0
230701,1000000,139,1,0,15,1,0
230702,1000000,139,1,0,15,1,0
230703,1000000,139,1,0,15,1,0
230704,1000000,139,1,0,15,1,0
230705,35.9654635881421,4,1,0,15,1,0
230706,2,4,1,0,15,1,0
230708,1000000,139,1,0,15,1,0
230709,1000000,139,1,0,15,1,0
230710,1000000,139,1,0,15,1,0
230711,1000000,139,1,0,15,1,0
230712,1000000,139,1,0,15,1,0
230713,1000000,139,1,0,15,1,0
230714,1000000,139,1,0,15,1,0
230715,1000000,139,1,0,15,1,0
230716,1000000,139,1,0,15,1,0
230717,1000000,139,1,0,15,1,0
230718,1000000,139,1,0,15,1,0
230719,1000000,139,1,0,15,1,0
230720,1000000,139,1,0,15,1,0
230721,1000000,139,1,0,15,1,0
230722,1000000,139,1,0,15,1,0
230723,1000000,139,1,0,15,1,0
230724,1000000,139,1,0,15,1,0
230725,1000000,139,1,0,15,1,0
230726,1000000,139,1,0,15,1,0
230727,1000000,139,1,0,15,1,0
230728,1000000,139,1,0,15,1,0
230729,1000000,139,1,0,15,1,0
230730,1000000,139,1,0,15,1,0
230731,1000000,139,1,0,15,1,0
230732,1000000,139,1,0,15,1,0
230733,1000000,139,1,0,15,1,0
230734,1000000,139,1,0,15,1,0
230735,1000000,139,1,0,15,1,0
230736,1000000,139,1,0,15,1,0
230737,1000000,139,1,0,15,1,0
230738,1000000,139,1,0,15,1,0
230739,1000000,139,1,0,15,1,0
230740,1000000,139,1,0,15,1,0
230741,1000000,139,1,0,15,1,0
230742,1000000,139,1,0,15,1,0
230743,31.8716466575646,4,1,0,15,1,0
230744,2,4,1,0,15,1,0
230746,1000000,139,1,0,15,1,0
230747,1000000,139,1,0,15,1,0
230748,1000000,139,1,0,15,1,0
230749,1000000,139,1,0,15,1,0
230750,1000000,139,1,0,15,1,0
230751,1000000,139,1,0,15,1,0
230752,1000000,139,1,0,15,1,0
230753,1000000,139,1,0,15,1,0
230754,1000000,139,1,0,15,1,0
230755,1000000,139,1,0,15,1,0
230756,1000000,139,1,0,15,1,0
230757,1000000,139,1,0,15,1,0
230758,1000000,139,1,0,15,1,0
230759,1000000,139,1,0,15,1,0
230760,1000000,139,1,0,15,1,0
230761,1000000,139,1,0,15,1,0
230762,1000000,139,1,0,15,1,0
230763,1000000,139,1,0,15,1,0
230764,1000000,139,1,0,15,1,0
230765,1000000,139,1,0,15,1,0
230766,1000000,139,1,0,15,1,0
230767,1000000,139,1,0,15,1,0
230768,1000000,139,1,0,15,1,0
230769,1000000,139,1,0,15,1,0
230770,1000000,139,1,0,15,1,0
230771,1000000,139,1,0,15,1,0
230772,1000000,139,1,0,15,1,0
230773,1000000,139,1,0,15,1,0
230774,1000000,139,1,0,15,1,0
230775,1000000,139,1,0,15,1,0
230776,1000000,139,1,0,15,1,0
230777,1000000,139,1,0,15,1,0
230778,1000000,139,1,0,15,1,0
230779,1000000,139,1,0,15,1,0
230780,1000000,139,1,0,15,1,0
230782,28.481325605806,4,1,0,15,1,0
230783,2,4,1,0,15,1,0
230785,1000000,139,1,0,15,1,0
230786,1000000,139,1,0,15,1,0
230787,1000000,139,1,0,15,1,0
230788,1000000,139,1,0,15,1,0
230789,1000000,139,1,0,15,1,0
230790,1000000,139,1,0,15,1,0
230791,1000000,139,1,0,15,1,0
230792,1000000,139,1,0,15,1,0
230793,1000000,139,1,0,15,1,0
230794,1000000,139,1,0,15,1,0
230795,1000000,139,1,0,15,1,0
230796,1000000,139,1,0,15,1,0
230797,1000000,139,1,0,15,1,0
230798,1000000,139,1,0,15,1,0
230799,1000000,139,1,0,15,1,0
230800,1000000,139,1,0,15,1,0
230801,1000000,139,1,0,15,1,0
230802,1000000,139,1,0,15,1,0
230803,1000000,139,1,0,15,1,0
230804,1000000,139,1,0,15,1,0
230805,1000000,139,1,0,15,1,0
230806,1000000,139,1,0,15,1,0
230807,1000000,139,1,0,15,1,0
230808,1000000,139,1,0,15,1,0
230809,1000000,139,1,0,15,1,0
230810,1000000,139,1,0,15,1,0
230811,1000000,139,1,0,15,1,0
230812,1000000,139,1,0,15,1,0
230813,1000000,139,1,0,15,1,0
230814,1000000,139,1,0,15,1,0
230815,1000000,139,1,0,15,1,0
230816,1000000,139,1,0,15,1,0
230817,1000000,139,1,0,15,1,0
230818,1000000,139,1,0,15,1,0
230819,1000000,139,1,0,15,1,0
230820,25.6427831908105,4,1,0,15,1,0
230821,2,4,1,0,15,1,0
230823,1000000,139,1,0,15,1,0
230824,1000000,139,1,0,15,1,0
230825,1000000,139,1,0,15,1,0
230826,1000000,139,1,0,15,1,0
230827,1000000,139,1,0,15,1,0
230828,1000000,139,1,0,15,1,0
230829,1000000,139,1,0,15,1,0
230830,1000000,139,1,0,15,1,0
230831,1000000,139,1,0,15,1,0
230832,1000000,139,1,0,15,1,0
230833,1000000,139,1,0,15,1,0
230834,1000000,139,1,0,15,1,0
230835,1000000,139,1,0,15,1,0
230836,1000000,139,1,0,15,1,0
230837,1000000,139,1,0,15,1,0
230838,1000000,139,1,0,15,1,0
230839,1000000,139,1,0,15,1,0
230840,1000000,139,1,0,15,1,0
230841,1000000,139,1,0,15,1,0
230842,1000000,139,1,0,15,1,0
230843,1000000,139,1,0,15,1,0
230844,1000000,139,1,0,15,1,0
230845,1000000,139,1,0,15,1,0
230846,1000000,139,1,0,15,1,0
230847,1000000,139,1,0,15,1,0
230848,1000000,139,1,0,15,1,0
230849,1000000,139,1,0,15,1,0
230850,1000000,139,1,0,15,1,0
230851,1000000,139,1,0,15,1,0
230852,1000000,139,1,0,15,1,0
230853,1000000,139,1,0,15,1,0
230854,1000000,139,1,0,15,1,0
230855,1000000,139,1,0,15,1,0
230856,1000000,139,1,0,15,1,0
230857,1000000,139,1,0,15,1,0
230859,23.2431512648587,4,1,0,15,1,0
230860,2,4,1,0,15,1,0
230862,1000000,139,1,0,15,1,0
230863,1000000,139,1,0,15,1,0
230864,1000000,139,1,0,15,1,0
230865,1000000,139,1,0,15,1,0
230866,1000000,139,1,0,15,1,0
230867,1000000,139,1,0,15,1,0
230868,1000000,139,1,0,15,1,0
230869,1000000,139,1,0,15,1,0
230870,1000000,139,1,0,15,1,0
230871,1000000,139,1,0,15,1,0
230872,1000000,139,1,0,15,1,0
230873,1000000,139,1,0,15,1,0
230874,1000000,139,1,0,15,1,0
230875,1000000,139,1,0,15,1,0
230876,1000000,139,1,0,15,1,0
230877,1000000,139,1,0,15,1,0
230878,1000000,139,1,0,15,1,0
230879,1000000,139,1,0,15,1,0
230880,1000000,139,1,0,15,1,0
230881,1000000,139,1,0,15,1,0
230882,1000000,139,1,0,15,1,0
230883,1000000,139,1,0,15,1,0
230884,1000000,139,1,0,15,1,0
230885,1000000,139,1,0,15,1,0
230886,1000000,139,1,0,15,1,0
230887,1000000,139,1,0,15,1,0
230888,1000000,139,1,0,15,1,0
230889,1000000,139,1,0,15,1,0
230890,1000000,139,1,0,15,1,0
230891,1000000,139,1,0,15,1,0
230892,1000000,139,1,0,15,1,0
230893,1000000,139,1,0,15,1,0
230894,1000000,139,1,0,15,1,0
230895,1000000,139,1,0,15,1,0
230896,1000000,139,1,0,15,1,0
230897,21.197059386781,4,1,0,15,1,0
230898,2,4,1,0,15,1,0
230900,1000000,139,1,0,15,1,0
230901,1000000,139,1,0,15,1,0
230902,1000000,139,1,0,15,1,0
230903,1000000,139,1,0,15,1,0
230904,1000000,139,1,0,15,1,0
230905,1000000,139,1,0,15,1,0
230906,1000000,139,1,0,15,1,0
230907,1000000,139,1,0,15,1,0
230908,1000000,139,1,0,15,1,0
230909,1000000,139,1,0,15,1,0
230910,1000000,139,1,0,15,1,0
230911,1000000,139,1,0,15,1,0
230912,1000000,139,1,0,15,1,0
230913,1000000,139,1,0,15,1,0
230914,1000000,139,1,0,15,1,0
230915,1000000,139,1,0,15,1,0
230916,1000000,139,1,0,15,1,0
230917,1000000,139,1,0,15,1,0
230918,1000000,139,1,0,15,1,0
230919,1000000,139,1,0,15,1,0
230920,1000000,139,1,0,15,1,0
230921,1000000,139,1,0,15,1,0
230922,1000000,139,1,0,15,1,0
230923,1000000,139,1,0,15,1,0
230924,1000000,139,1,0,15,1,0
230925,1000000,139,1,0,15,1,0
230926,1000000,139,1,0,15,1,0
230927,1000000,139,1,0,15,1,0
230928,1000000,139,1,0,15,1,0
230929,1000000,139,1,0,15,1,0
230930,1000000,139,1,0,15,1,0
230931,1000000,139,1,0,15,1,0
230932,1000000,139,1,0,15,1,0
230933,1000000,139,1,0,15,1,0
230934,1000000,139,1,0,15,1,0
230936,19.4389728541606,4,1,0,15,1,0
230937,2,4,1,0,15,1,0
230939,1000000,139,1,0,15,1,0
230940,1000000,139,1,0,15,1,0
230941,1000000,139,1,0,15,1,0
230942,1000000,139,1,0,15,1,0
230943,1000000,139,1,0,15,1,0
230944,1000000,139,1,0,15,1,0
230945,1000000,139,1,0,15,1,0
230946,1000000,139,1,0,15,1,0
230947,1000000,139,1,0,15,1,0
230948,1000000,139,1,0,15,1,0
230949,1000000,139,1,0,15,1,0
230950,1000000,139,1,0,15,1,0
230951,1000000,139,1,0,15,1,0
230952,1000000,139,1,0,15,1,0
230953,1000000,139,1,0,15,1,0
230954,1000000,139,1,0,15,1,0
230955,1000000,139,1,0,15,1,0
230956,1000000,139,1,0,15,1,0
230957,1000000,139,1,0,15,1,0
230958,1000000,139,1,0,15,1,0
230959,1000000,139,1,0,15,1,0
230960,1000000,139,1,0,15,1,0
230961,1000000,139,1,0,15,1,0
230962,1000000,139,1,0,15,1,0
230963,1000000,139,1,0,15,1,0
230964,1000000,139,1,0,15,1,0
230965,1000000,139,1,0,15,1,0
230966,1000000,139,1,0,15,1,0
230967,1000000,139,1,0,15,1,0
230968,1000000,139,1,0,15,1,0
230969,1000000,139,1,0,15,1,0
230970,1000000,139,1,0,15,1,0
230971,1000000,139,1,0,15,1,0
230972,1000000,139,1,0,15,1,0
230973,1000000,139,1,0,15,1,0
230974,17.9179107582269,4,1,0,15,1,0
230975,2,4,1,0,15,1,0
230977,1000000,139,1,0,15,1,0
230978,1000000,139,1,0,15,1,0
230979,1000000,139,1,0,15,1,0
230980,1000000,139,1,0,15,1,0
230981,1000000,139,1,0,15,1,0
230982,1000000,139,1,0,15,1,0
230983,1000000,139,1,0,15,1,0
230984,1000000,139,1,0,15,1,0
230985,1000000,139,1,0,15,1,0
230986,1000000,139,1,0,15,1,0
230987,1000000,139,1,0,15,1,0
230988,1000000,139,1,0,15,1,0
230989,1000000,139,1,0,15,1,0
230990,1000000,139,1,0,15,1,0
230991,1000000,139,1,0,15,1,0
230992,1000000,139,1,0,15,1,0
230993,1000000,139,1,0,15,1,0
230994,1000000,139,1,0,15,1,0
230995,1000000,139,1,0,15,1,0
230996,1000000,139,1,0,15,1,0
230997,1000000,139,1,0,15,1,0
230998,1000000,139,1,0,15,1,0
230999,1000000,139,1,0,15,1,0
231000,1000000,139,1,0,15,1,0
231001,1000000,139,1,0,15,1,0
231002,1000000,139,1,0,15,1,0
231003,1000000,139,1,0,15,1,0
231004,1000000,139,1,0,15,1,0
231005,1000000,139,1,0,15,1,0
231006,1000000,139,1,0,15,1,0
231007,1000000,139,1,0,15,1,0
231008,1000000,139,1,0,15,1,0
231009,1000000,139,1,0,15,1,0
231010,1000000,139,1,0,15,1,0
231011,1000000,139,1,0,15,1,0
231013,16.5937351586929,4,1,0,15,1,0
231014,2,4,1,0,15,1,0
231016,1000000,139,1,0,15,1,0
231017,1000000,139,1,0,15,1,0
231018,1000000,139,1,0,15,1,0
231019,1000000,139,1,0,15,1,0
231020,1000000,139,1,0,15,1,0
231021,1000000,139,1,0,15,1,0
231022,1000000,139,1,0,15,1,0
231023,1000000,139,1,0,15,1,0
231024,1000000,139,1,0,15,1,0
231025,1000000,139,1,0,15,1,0
231026,1000000,139,1,0,15,1,0
231027,1000000,139,1,0,15,1,0
231028,1000000,139,1,0,15,1,0
231029,1000000,139,1,0,15,1,0
231030,1000000,139,1,0,15,1,0
231031,1000000,139,1,0,15,1,0
231032,1000000,139,1,0,15,1,0
231033,1000000,139,1,0,15,1,0
231034,1000000,139,1,0,15,1,0
231035,1000000,139,1,0,15,1,0
231036,1000000,139,1,0,15,1,0
231037,1000000,139,1,0,15,1,0
231038,1000000,139,1,0,15,1,0
231039,1000000,139,1,0,15,1,0
231040,1000000,139,1,0,15,1,0
231041,1000000,139,1,0,15,1,0
231042,1000000,139,1,0,15,1,0
231043,1000000,139,1,0,15,1,0
231044,1000000,139,1,0,15,1,0
231045,1000000,139,1,0,15,1,0
231046,1000000,139,1,0,15,1,0
231047,1000000,139,1,0,15,1,0
231048,1000000,139,1,0,15,1,0
231049,1000000,139,1,0,15,1,0
231050,1000000,139,1,0,15,1,0
231051,15.4344991714542,4,1,0,15,1,0
231052,2,4,1,0,15,1,0
231054,1000000,139,1,0,15,1,0
231055,1000000,139,1,0,15,1,0
231056,1000000,139,1,0,15,1,0
231057,1000000,139,1,0,15,1,0
231058,1000000,139,1,0,15,1,0
231059,1000000,139,1,0,15,1,0
231060,1000000,139,1,0,15,1,0
231061,1000000,139,1,0,15,1,0
231062,1000000,139,1,0,15,1,0
231063,1000000,139,1,0,15,1,0
231064,1000000,139,1,0,15,1,0
231065,1000000,139,1,0,15,1,0
231066,1000000,139,1,0,15,1,0
231067,1000000,139,1,0,15,1,0
231068,1000000,139,1,0,15,1,0
231069,1000000,139,1,0,15,1,0
231070,1000000,139,1,0,15,1,0
231071,1000000,139,1,0,15,1,0
231072,1000000,139,1,0,15,1,0
231073,1000000,139,1,0,15,1,0
231074,1000000,139,1,0,15,1,0
231075,1000000,139,1,0,15,1,0
231076,1000000,139,1,0,15,1,0
231077,1000000,139,1,0,15,1,0
231078,1000000,139,1,0,15,1,0
231079,1000000,139,1,0,15,1,0
231080,1000000,139,1,0,15,1,0
231081,1000000,139,1,0,15,1,0
231082,1000000,139,1,0,15,1,0
231083,1000000,139,1,0,15,1,0
231084,1000000,139,1,0,15,1,0
231085,1000000,139,1,0,15,1,0
231086,1000000,139,1,0,15,1,0
231087,1000000,139,1,0,15,1,0
231088,1000000,139,1,0,15,1,0
231090,14.4145221709757,4,1,0,15,1,0
231091,2,4,1,0,15,1,0
231093,1000000,139,1,0,15,1,0
231094,1000000,139,1,0,15,1,0
231095,1000000,139,1,0,15,1,0
231096,1000000,139,1,0,15,1,0
231097,1000000,139,1,0,15,1,0
231098,1000000,139,1,0,15,1,0
231099,1000000,139,1,0,15,1,0
231100,1000000,139,1,0,15,1,0
231101,1000000,139,1,0,15,1,0
231102,1000000,139,1,0,15,1,0
231103,1000000,139,1,0,15,1,0
231104,1000000,139,1,0,15,1,0
231105,1000000,139,1,0,15,1,0
231106,1000000,139,1,0,15,1,0
231107,1000000,139,1,0,15,1,0
231108,1000000,139,1,0,15,1,0
231109,1000000,139,1,0,15,1,0
231110,1000000,139,1,0,15,1,0
231111,1000000,139,1,0,15,1,0
231112,1000000,139,1,0,15,1,0
231113,1000000,139,1,0,15,1,0
231114,1000000,139,1,0,15,1,0
231115,1000000,139,1,0,15,1,0
231116,1000000,139,1,0,15,1,0
231117,1000000,139,1,0,15,1,0
231118,1000000,139,1,0,15,1,0
231119,1000000,139,1,0,15,1,0
231120,1000000,139,1,0,15,1,0
231121,1000000,139,1,0,15,1,0
231122,1000000,139,1,0,15,1,0
231123,1000000,139,1,0,15,1,0
231124,1000000,139,1,0,15,1,0
231125,1000000,139,1,0,15,1,0
231126,1000000,139,1,0,15,1,0
231127,1000000,139,1,0,15,1,0
231128,13.5129729367703,4,1,0,15,1,0
231129,2,4,1,0,15,1,0
231131,1000000,139,1,0,15,1,0
231132,1000000,139,1,0,15,1,0
231133,1000000,139,1,0,15,1,0
231134,1000000,139,1,0,15,1,0
231135,1000000,139,1,0,15,1,0
231136,1000000,139,1,0,15,1,0
231137,1000000,139,1,0,15,1,0
231138,1000000,139,1,0,15,1,0
231139,1000000,139,1,0,15,1,0
231140,1000000,139,1,0,15,1,0
231141,1000000,139,1,0,15,1,0
231142,1000000,139,1,0,15,1,0
231143,1000000,139,1,0,15,1,0
231144,1000000,139,1,0,15,1,0
231145,1000000,139,1,0,15,1,0
231146,1000000,139,1,0,15,1,0
231147,1000000,139,1,0,15,1,0
231148,1000000,139,1,0,15,1,0
231149,1000000,139,1,0,15,1,0
231150,1000000,139,1,0,15,1,0
231151,1000000,139,1,0,15,1,0
231152,1000000,139,1,0,15,1,0
231153,1000000,139,1,0,15,1,0
231154,1000000,139,1,0,15,1,0
231155,1000000,139,1,0,15,1,0
231156,1000000,139,1,0,15,1,0
231157,1000000,139,1,0,15,1,0
231158,1000000,139,1,0,15,1,0
231159,1000000,139,1,0,15,1,0
231160,1000000,139,1,0,15,1,0
231161,1000000,139,1,0,15,1,0
231162,1000000,139,1,0,15,1,0
231163,1000000,139,1,0,15,1,0
231164,1000000,139,1,0,15,1,0
231165,1000000,139,1,0,15,1,0
231167,12.7128131166188,4,1,0,15,1,0
231168,2,4,1,0,15,1,0
231170,1000000,139,1,0,15,1,0
231171,1000000,139,1,0,15,1,0
231172,1000000,139,1,0,15,1,0
231173,1000000,139,1,0,15,1,0
231174,1000000,139,1,0,15,1,0
231175,1000000,139,1,0,15,1,0
231176,1000000,139,1,0,15,1,0
231177,1000000,139,1,0,15,1,0
231178,1000000,139,1,0,15,1,0
231179,1000000,139,1,0,15,1,0
231180,1000000,139,1,0,15,1,0
231181,1000000,139,1,0,15,1,0
231182,1000000,139,1,0,15,1,0
231183,1000000,139,1,0,15,1,0
231184,1000000,139,1,0,15,1,0
231185,1000000,139,1,0,15,1,0
231186,1000000,139,1,0,15,1,0
231187,1000000,139,1,0,15,1,0
231188,1000000,139,1,0,15,1,0
231189,1000000,139,1,0,15,1,0
231190,1000000,139,1,0,15,1,0
231191,1000000,139,1,0,15,1,0
231192,1000000,139,1,0,15,1,0
231193,1000000,139,1,0,15,1,0
231194,1000000,139,1,0,15,1,0
231195,1000000,139,1,0,15,1,0
231196,1000000,139,1,0,15,1,0
231197,1000000,139,1,0,15,1,0
231198,1000000,139,1,0,15,1,0
231199,1000000,139,1,0,15,1,0
231200,1000000,139,1,0,15,1,0
231201,1000000,139,1,0,15,1,0
231202,1000000,139,1,0,15,1,0
231203,1000000,139,1,0,15,1,0
231204,1000000,139,1,0,15,1,0
231205,12,4,1,0,15,1,0
231206,2,4,1,0,15,1,0
231208,1000000,139,1,0,15,1,0
231209,1000000,139,1,0,15,1,0
231210,1000000,139,1,0,15,1,0
231211,1000000,139,1,0,15,1,0
231212,1000000,139,1,0,15,1,0
231213,1000000,139,1,0,15,1,0
231214,1000000,139,1,0,15,1,0
231215,1000000,139,1,0,15,1,0
231216,1000000,139,1,0,15,1,0
231217,1000000,139,1,0,15,1,0
231218,1000000,139,1,0,15,1,0
231219,1000000,139,1,0,15,1,0
231220,1000000,139,1,0,15,1,0
231221,1000000,139,1,0,15,1,0
231222,1000000,139,1,0,15,1,0
231223,1000000,139,1,0,15,1,0
231224,1000000,139,1,0,15,1,0
231225,1000000,139,1,0,15,1,0
231226,1000000,139,1,0,15,1,0
231227,1000000,139,1,0,15,1,0
231228,1000000,139,1,0,15,1,0
231229,1000000,139,1,0,15,1,0
231230,1000000,139,1,0,15,1,0
231231,1000000,139,1,0,15,1,0
231232,1000000,139,1,0,15,1,0
231233,1000000,139,1,0,15,1,0
231234,1000000,139,1,0,15,1,0
231235,1000000,139,1,0,15,1,0
231236,1000000,139,1,0,15,1,0
231237,1000000,139,1,0,15,1,0
231238,1000000,139,1,0,15,1,0
231239,1000000,139,1,0,15,1,0
231240,1000000,139,1,0,15,1,0
231241,1000000,139,1,0,15,1,0
231242,1000000,139,1,0,15,1,0
231243,11.3628783305281,4,1,0,15,1,0
231244,2,4,1,0,15,1,0
231246,1000000,139,1,0,15,1,0
231247,1000000,139,1,0,15,1,0
231248,1000000,139,1,0,15,1,0
231249,1000000,139,1,0,15,1,0
231250,1000000,139,1,0,15,1,0
231251,1000000,139,1,0,15,1,0
231252,1000000,139,1,0,15,1,0
231253,1000000,139,1,0,15,1,0
231254,1000000,139,1,0,15,1,0
231255,1000000,139,1,0,15,1,0
231256,1000000,139,1,0,15,1,0
231257,1000000,139,1,0,15,1,0
231258,1000000,139,1,0,15,1,0
231259,1000000,139,1,0,15,1,0
231260,1000000,139,1,0,15,1,0
231261,1000000,139,1,0,15,1,0
231262,1000000,139,1,0,15,1,0
231263,1000000,139,1,0,15,1,0
231264,1000000,139,1,0,15,1,0
231265,1000000,139,1,0,15,1,0
231266,1000000,139,1,0,15,1,0
231267,1000000,139,1,0,15,1,0
231268,1000000,139,1,0,15,1,0
231269,1000000,139,1,0,15,1,0
231270,1000000,139,1,0,15,1,0
231271,1000000,139,1,0,15,1,0
231272,1000000,139,1,0,15,1,0
231273,1000000,139,1,0,15,1,0
231274,1000000,139,1,0,15,1,0
231275,1000000,139,1,0,15,1,0
231276,1000000,139,1,0,15,1,0
231277,1000000,139,1,0,15,1,0
231278,1000000,139,1,0,15,1,0
231279,1000000,139,1,0,15,1,0
231280,1000000,139,1,0,15,1,0
231282,10.7917116570203,4,1,0,15,1,0
231283,2,4,1,0,15,1,0
231285,1000000,139,1,0,15,1,0
231286,1000000,139,1,0,15,1,0
231287,1000000,139,1,0,15,1,0
231288,1000000,139,1,0,15,1,0
231289,1000000,139,1,0,15,1,0
231290,1000000,139,1,0,15,1,0
231291,1000000,139,1,0,15,1,0
231292,1000000,139,1,0,15,1,0
231293,1000000,139,1,0,15,1,0
231294,1000000,139,1,0,15,1,0
231295,1000000,139,1,0,15,1,0
231296,1000000,139,1,0,15,1,0
231297,1000000,139,1,0,15,1,0
231298,1000000,139,1,0,15,1,0
231299,1000000,139,1,0,15,1,0
231300,1000000,139,1,0,15,1,0
231301,1000000,139,1,0,15,1,0
231302,1000000,139,1,0,15,1,0
231303,1000000,139,1,0,15,1,0
231304,1000000,139,1,0,15,1,0
231305,1000000,139,1,0,15,1,0
231306,1000000,139,1,0,15,1,0
231307,1000000,139,1,0,15,1,0
231308,1000000,139,1,0,15,1,0
231309,1000000,139,1,0,15,1,0
231310,1000000,139,1,0,15,1,0
231311,1000000,139,1,0,15,1,0
231312,1000000,139,1,0,15,1,0
231313,1000000,139,1,0,15,1,0
231314,1000000,139,1,0,15,1,0
231315,1000000,139,1,0,15,1,0
231316,1000000,139,1,0,15,1,0
231317,1000000,139,1,0,15,1,0
231318,1000000,139,1,0,15,1,0
231319,1000000,139,1,0,15,1,0
231320,10.2783178020702,4,1,0,15,1,0
231321,2,4,1,0,15,1,0
231323,1000000,139,1,0,15,1,0
231324,1000000,139,1,0,15,1,0
231325,1000000,139,1,0,15,1,0
231326,1000000,139,1,0,15,1,0
231327,1000000,139,1,0,15,1,0
231328,1000000,139,1,0,15,1,0
231329,1000000,139,1,0,15,1,0
231330,1000000,139,1,0,15,1,0
231331,1000000,139,1,0,15,1,0
231332,1000000,139,1,0,15,1,0
231333,1000000,139,1,0,15,1,0
231334,1000000,139,1,0,15,1,0
231335,1000000,139,1,0,15,1,0
231336,1000000,139,1,0,15,1,0
231337,1000000,139,1,0,15,1,0
231338,1000000,139,1,0,15,1,0
231339,1000000,139,1,0,15,1,0
231340,1000000,139,1,0,15,1,0
231341,1000000,139,1,0,15,1,0
231342,1000000,139,1,0,15,1,0
231343,1000000,139,1,0,15,1,0
231344,1000000,139,1,0,15,1,0
231345,1000000,139,1,0,15,1,0
231346,1000000,139,1,0,15,1,0
231347,1000000,139,1,0,15,1,0
231348,1000000,139,1,0,15,1,0
231349,1000000,139,1,0,15,1,0
231350,1000000,139,1,0,15,1,0
231351,1000000,139,1,0,15,1,0
231352,1000000,139,1,0,15,1,0
231353,1000000,139,1,0,15,1,0
231354,1000000,139,1,0,15,1,0
231355,1000000,139,1,0,15,1,0
231356,1000000,139,1,0,15,1,0
231357,1000000,139,1,0,15,1,0
231359,9.81578283550276,4,1,0,15,1,0
231360,2,4,1,0,15,1,0
231362,1000000,139,1,0,15,1,0
231363,1000000,139,1,0,15,1,0
231364,1000000,139,1,0,15,1,0
231365,1000000,139,1,0,15,1,0
231366,1000000,139,1,0,15,1,0
231367,1000000,139,1,0,15,1,0
231368,1000000,139,1,0,15,1,0
231369,1000000,139,1,0,15,1,0
231370,1000000,139,1,0,15,1,0
231371,1000000,139,1,0,15,1,0
231372,1000000,139,1,0,15,1,0
231373,1000000,139,1,0,15,1,0
231374,1000000,139,1,0,15,1,0
231375,1000000,139,1,0,15,1,0
231376,1000000,139,1,0,15,1,0
231377,1000000,139,1,0,15,1,0
231378,1000000,139,1,0,15,1,0
231379,1000000,139,1,0,15,1,0
231380,1000000,139,1,0,15,1,0
231381,1000000,139,1,0,15,1,0
231382,1000000,139,1,0,15,1,0
231383,1000000,139,1,0,15,1,0
231384,1000000,139,1,0,15,1,0
231385,1000000,139,1,0,15,1,0
231386,1000000,139,1,0,15,1,0
231387,1000000,139,1,0,15,1,0
231388,1000000,139,1,0,15,1,0
231389,1000000,139,1,0,15,1,0
231390,1000000,139,1,0,15,1,0
231391,1000000,139,1,0,15,1,0
231392,1000000,139,1,0,15,1,0
231393,1000000,139,1,0,15,1,0
231394,1000000,139,1,0,15,1,0
231395,1000000,139,1,0,15,1,0
231396,1000000,139,1,0,15,1,0
231397,9.39823484925045,4,1,0,15,1,0
231398,2,4,1,0,15,1,0
231400,1000000,139,1,0,15,1,0
231401,1000000,139,1,0,15,1,0
231402,1000000,139,1,0,15,1,0
231403,1000000,139,1,0,15,1,0
231404,1000000,139,1,0,15,1,0
231405,1000000,139,1,0,15,1,0
231406,1000000,139,1,0,15,1,0
231407,1000000,139,1,0,15,1,0
231408,1000000,139,1,0,15,1,0
231409,1000000,139,1,0,15,1,0
231410,1000000,139,1,0,15,1,0
231411,1000000,139,1,0,15,1,0
231412,1000000,139,1,0,15,1,0
231413,1000000,139,1,0,15,1,0
231414,1000000,139,1,0,15,1,0
231415,1000000,139,1,0,15,1,0
231416,1000000,139,1,0,15,1,0
231417,1000000,139,1,0,15,1,0
231418,1000000,139,1,0,15,1,0
231419,1000000,139,1,0,15,1,0
231420,1000000,139,1,0,15,1,0
231421,1000000,139,1,0,15,1,0
231422,1000000,139,1,0,15,1,0
231423,1000000,139,1,0,15,1,0
231424,1000000,139,1,0,15,1,0
231425,1000000,139,1,0,15,1,0
231426,1000000,139,1,0,15,1,0
231427,1000000,139,1,0,15,1,0
231428,1000000,139,1,0,15,1,0
231429,1000000,139,1,0,15,1,0
231430,1000000,139,1,0,15,1,0
231431,1000000,139,1,0,15,1,0
231432,1000000,139,1,0,15,1,0
231433,1000000,139,1,0,15,1,0
231434,1000000,139,1,0,15,1,0
231436,9.02066366583164,4,1,0,15,1,0
231437,2,4,1,0,15,1,0
231439,1000000,139,1,0,15,1,0
231440,1000000,139,1,0,15,1,0
231441,1000000,139,1,0,15,1,0
231442,1000000,139,1,0,15,1,0
231443,1000000,139,1,0,15,1,0
231444,1000000,139,1,0,15,1,0
231445,1000000,139,1,0,15,1,0
231446,1000000,139,1,0,15,1,0
231447,1000000,139,1,0,15,1,0
231448,1000000,139,1,0,15,1,0
231449,1000000,139,1,0,15,1,0
231450,1000000,139,1,0,15,1,0
231451,1000000,139,1,0,15,1,0
231452,1000000,139,1,0,15,1,0
231453,1000000,139,1,0,15,1,0
231454,1000000,139,1,0,15,1,0
231455,1000000,139,1,0,15,1,0
231456,1000000,139,1,0,15,1,0
231457,1000000,139,1,0,15,1,0
231458,1000000,139,1,0,15,1,0
231459,1000000,139,1,0,15,1,0
231460,1000000,139,1,0,15,1,0
231461,1000000,139,1,0,15,1,0
231462,1000000,139,1,0,15,1,0
231463,1000000,139,1,0,15,1,0
231464,1000000,139,1,0,15,1,0
231465,1000000,139,1,0,15,1,0
231466,1000000,139,1,0,15,1,0
231467,1000000,139,1,0,15,1,0
231468,1000000,139,1,0,15,1,0
231469,1000000,139,1,0,15,1,0
231470,1000000,139,1,0,15,1,0
231471,1000000,139,1,0,15,1,0
231472,1000000,139,1,0,15,1,0
231473,1000000,139,1,0,15,1,0
231474,8.67877615281101,4,1,0,15,1,0
231475,2,4,1,0,15,1,0
231477,1000000,139,1,0,15,1,0
231478,1000000,139,1,0,15,1,0
231479,1000000,139,1,0,15,1,0
231480,1000000,139,1,0,15,1,0
231481,1000000,139,1,0,15,1,0
231482,1000000,139,1,0,15,1,0
231483,1000000,139,1,0,15,1,0
231484,1000000,139,1,0,15,1,0
231485,1000000,139,1,0,15,1,0
231486,1000000,139,1,0,15,1,0
231487,1000000,139,1,0,15,1,0
231488,1000000,139,1,0,15,1,0
231489,1000000,139,1,0,15,1,0
231490,1000000,139,1,0,15,1,0
231491,1000000,139,1,0,15,1,0
231492,1000000,139,1,0,15,1,0
231493,1000000,139,1,0,15,1,0
231494,1000000,139,1,0,15,1,0
231495,1000000,139,1,0,15,1,0
231496,1000000,139,1,0,15,1,0
231497,1000000,139,1,0,15,1,0
231498,1000000,139,1,0,15,1,0
231499,1000000,139,1,0,15,1,0
231500,1000000,139,1,0,15,1,0
231501,1000000,139,1,0,15,1,0
231502,1000000,139,1,0,15,1,0
231503,1000000,139,1,0,15,1,0
231504,1000000,139,1,0,15,1,0
231505,1000000,139,1,0,15,1,0
231506,1000000,139,1,0,15,1,0
231507,1000000,139,1,0,15,1,0
231508,1000000,139,1,0,15,1,0
231509,1000000,139,1,0,15,1,0
231510,1000000,139,1,0,15,1,0
231511,1000000,139,1,0,15,1,0
231513,8.36887933933549,4,1,0,15,1,0
231514,2,4,1,0,15,1,0
231516,1000000,139,1,0,15,1,0
231517,1000000,139,1,0,15,1,0
231518,1000000,139,1,0,15,1,0
231519,1000000,139,1,0,15,1,0
231520,1000000,139,1,0,15,1,0
231521,1000000,139,1,0,15,1,0
231522,1000000,139,1,0,15,1,0
231523,1000000,139,1,0,15,1,0
231524,1000000,139,1,0,15,1,0
231525,1000000,139,1,0,15,1,0
231526,1000000,139,1,0,15,1,0
231527,1000000,139,1,0,15,1,0
231528,1000000,139,1,0,15,1,0
231529,1000000,139,1,0,15,1,0
231530,1000000,139,1,0,15,1,0
231531,1000000,139,1,0,15,1,0
231532,1000000,139,1,0,15,1,0
231533,1000000,139,1,0,15,1,0
231534,1000000,139,1,0,15,1,0
231535,1000000,139,1,0,15,1,0
231536,1000000,139,1,0,15,1,0
231537,1000000,139,1,0,15,1,0
231538,1000000,139,1,0,15,1,0
231539,1000000,139,1,0,15,1,0
231540,1000000,139,1,0,15,1,0
231541,1000000,139,1,0,15,1,0
231542,1000000,139,1,0,15,1,0
231543,1000000,139,1,0,15,1,0
231544,1000000,139,1,0,15,1,0
231545,1000000,139,1,0,15,1,0
231546,1000000,139,1,0,15,1,0
231547,1000000,139,1,0,15,1,0
231548,1000000,139,1,0,15,1,0
231549,1000000,139,1,0,15,1,0
231550,1000000,139,1,0,15,1,0
231551,8.0877854312725,4,1,0,15,1,0
231552,2,4,1,0,15,1,0
231554,1000000,139,1,0,15,1,0
231555,1000000,139,1,0,15,1,0
231556,1000000,139,1,0,15,1,0
231557,1000000,139,1,0,15,1,0
231558,1000000,139,1,0,15,1,0
231559,1000000,139,1,0,15,1,0
231560,1000000,139,1,0,15,1,0
231561,1000000,139,1,0,15,1,0
231562,1000000,139,1,0,15,1,0
231563,1000000,139,1,0,15,1,0
231564,1000000,139,1,0,15,1,0
231565,1000000,139,1,0,15,1,0
231566,1000000,139,1,0,15,1,0
231567,1000000,139,1,0,15,1,0
231568,1000000,139,1,0,15,1,0
231569,1000000,139,1,0,15,1,0
231570,1000000,139,1,0,15,1,0
231571,1000000,139,1,0,15,1,0
231572,1000000,139,1,0,15,1,0
231573,1000000,139,1,0,15,1,0
231574,1000000,139,1,0,15,1,0
231575,1000000,139,1,0,15,1,0
231576,1000000,139,1,0,15,1,0
231577,1000000,139,1,0,15,1,0
231578,1000000,139,1,0,15,1,0
231579,1000000,139,1,0,15,1,0
231580,1000000,139,1,0,15,1,0
231581,1000000,139,1,0,15,1,0
231582,1000000,139,1,0,15,1,0
231583,1000000,139,1,0,15,1,0
231584,1000000,139,1,0,15,1,0
231585,1000000,139,1,0,15,1,0
231586,1000000,139,1,0,15,1,0
231587,1000000,139,1,0,15,1,0
231588,1000000,139,1,0,15,1,0
231590,7.83273417266256,4,1,0,15,1,0
231591,2,4,1,0,15,1,0
231593,1000000,139,1,0,15,1,0
231594,1000000,139,1,0,15,1,0
231595,1000000,139,1,0,15,1,0
231596,1000000,139,1,0,15,1,0
231597,1000000,139,1,0,15,1,0
231598,1000000,139,1,0,15,1,0
231599,1000000,139,1,0,15,1,0
231600,1000000,139,1,0,15,1,0
231601,1000000,139,1,0,15,1,0
231602,1000000,139,1,0,15,1,0
231603,1000000,139,1,0,15,1,0
231604,1000000,139,1,0,15,1,0
231605,1000000,139,1,0,15,1,0
231606,1000000,139,1,0,15,1,0
231607,1000000,139,1,0,15,1,0
231608,1000000,139,1,0,15,1,0
231609,1000000,139,1,0,15,1,0
231610,1000000,139,1,0,15,1,0
231611,1000000,139,1,0,15,1,0
231612,1000000,139,1,0,15,1,0
231613,1000000,139,1,0,15,1,0
231614,1000000,139,1,0,15,1,0
231615,1000000,139,1,0,15,1,0
231616,1000000,139,1,0,15,1,0
231617,1000000,139,1,0,15,1,0
231618,1000000,139,1,0,15,1,0
231619,1000000,139,1,0,15,1,0
231620,1000000,139,1,0,15,1,0
231621,1000000,139,1,0,15,1,0
231622,1000000,139,1,0,15,1,0
231623,1000000,139,1,0,15,1,0
231624,1000000,139,1,0,15,1,0
231625,1000000,139,1,0,15,1,0
231626,1000000,139,1,0,15,1,0
231627,1000000,139,1,0,15,1,0
231628,7.60132906000448,4,1,0,15,1,0
231629,2,4,1,0,15,1,0
231631,1000000,139,1,0,15,1,0
231632,1000000,139,1,0,15,1,0
231633,1000000,139,1,0,15,1,0
231634,1000000,139,1,0,15,1,0
231635,1000000,139,1,0,15,1,0
231636,1000000,139,1,0,15,1,0
231637,1000000,139,1,0,15,1,0
231638,1000000,139,1,0,15,1,0
231639,1000000,139,1,0,15,1,0
231640,1000000,139,1,0,15,1,0
231641,1000000,139,1,0,15,1,0
231642,1000000,139,1,0,15,1,0
231643,1000000,139,1,0,15,1,0
231644,1000000,139,1,0,15,1,0
231645,1000000,139,1,0,15,1,0
231646,1000000,139,1,0,15,1,0
231647,1000000,139,1,0,15,1,0
231648,1000000,139,1,0,15,1,0
231649,1000000,139,1,0,15,1,0
231650,1000000,139,1,0,15,1,0
231651,1000000,139,1,0,15,1,0
231652,1000000,139,1,0,15,1,0
231653,1000000,139,1,0,15,1,0
231654,1000000,139,1,0,15,1,0
231655,1000000,139,1,0,15,1,0
231656,1000000,139,1,0,15,1,0
231657,1000000,139,1,0,15,1,0
231658,1000000,139,1,0,15,1,0
231659,1000000,139,1,0,15,1,0
231660,1000000,139,1,0,15,1,0
231661,1000000,139,1,0,15,1,0
231662,1000000,139,1,0,15,1,0
231663,1000000,139,1,0,15,1,0
231664,1000000,139,1,0,15,1,0
231665,1000000,139,1,0,15,1,0
231667,7.3914846811451,4,1,0,15,1,0
231668,2,4,1,0,15,1,0
231670,1000000,139,1,0,15,1,0
231671,1000000,139,1,0,15,1,0
231672,1000000,139,1,0,15,1,0
231673,1000000,139,1,0,15,1,0
231674,1000000,139,1,0,15,1,0
231675,1000000,139,1,0,15,1,0
231676,1000000,139,1,0,15,1,0
231677,1000000,139,1,0,15,1,0
231678,1000000,139,1,0,15,1,0
231679,1000000,139,1,0,15,1,0
231680,1000000,139,1,0,15,1,0
231681,1000000,139,1,0,15,1,0
231682,1000000,139,1,0,15,1,0
231683,1000000,139,1,0,15,1,0
231684,1000000,139,1,0,15,1,0
231685,1000000,139,1,0,15,1,0
231686,1000000,139,1,0,15,1,0
231687,1000000,139,1,0,15,1,0
231688,1000000,139,1,0,15,1,0
231689,1000000,139,1,0,15,1,0
231690,1000000,139,1,0,15,1,0
231691,1000000,139,1,0,15,1,0
231692,1000000,139,1,0,15,1,0
231693,1000000,139,1,0,15,1,0
231694,1000000,139,1,0,15,1,0
231695,1000000,139,1,0,15,1,0
231696,1000000,139,1,0,15,1,0
231697,1000000,139,1,0,15,1,0
231698,1000000,139,1,0,15,1,0
231699,1000000,139,1,0,15,1,0
231700,1000000,139,1,0,15,1,0
231701,1000000,139,1,0,15,1,0
231702,1000000,139,1,0,15,1,0
231703,1000000,139,1,0,15,1,0
231704,1000000,139,1,0,15,1,0
231705,7.20138304865892,4,1,0,15,1,0
231706,2,4,1,0,15,1,0
231708,1000000,139,1,0,15,1,0
231709,1000000,139,1,0,15,1,0
231710,1000000,139,1,0,15,1,0
231711,1000000,139,1,0,15,1,0
231712,1000000,139,1,0,15,1,0
231713,1000000,139,1,0,15,1,0
231714,1000000,139,1,0,15,1,0
231715,1000000,139,1,0,15,1,0
231716,1000000,139,1,0,15,1,0
231717,1000000,139,1,0,15,1,0
231718,1000000,139,1,0,15,1,0
231719,1000000,139,1,0,15,1,0
231720,1000000,139,1,0,15,1,0
231721,1000000,139,1,0,15,1,0
231722,1000000,139,1,0,15,1,0
231723,1000000,139,1,0,15,1,0
231724,1000000,139,1,0,15,1,0
231725,1000000,139,1,0,15,1,0
231726,1000000,139,1,0,15,1,0
231727,1000000,139,1,0,15,1,0
231728,1000000,139,1,0,15,1,0
231729,1000000,139,1,0,15,1,0
231730,1000000,139,1,0,15,1,0
231731,1000000,139,1,0,15,1,0
231732,1000000,139,1,0,15,1,0
231733,1000000,139,1,0,15,1,0
231734,1000000,139,1,0,15,1,0
231735,1000000,139,1,0,15,1,0
231736,1000000,139,1,0,15,1,0
231737,1000000,139,1,0,15,1,0
231738,1000000,139,1,0,15,1,0
231739,1000000,139,1,0,15,1,0
231740,1000000,139,1,0,15,1,0
231741,1000000,139,1,0,15,1,0
231742,1000000,139,1,0,15,1,0
231743,7.02943725146747,4,1,0,15,1,0
231744,2,4,1,0,15,1,0
231746,1000000,139,1,0,15,1,0
231747,1000000,139,1,0,15,1,0
231748,1000000,139,1,0,15,1,0
231749,1000000,139,1,0,15,1,0
231750,1000000,139,1,0,15,1,0
231751,1000000,139,1,0,15,1,0
231752,1000000,139,1,0,15,1,0
231753,1000000,139,1,0,15,1,0
231754,1000000,139,1,0,15,1,0
231755,1000000,139,1,0,15,1,0
231756,1000000,139,1,0,15,1,0
231757,1000000,139,1,0,15,1,0
231758,1000000,139,1,0,15,1,0
231759,1000000,139,1,0,15,1,0
231760,1000000,139,1,0,15,1,0
231761,1000000,139,1,0,15,1,0
231762,1000000,139,1,0,15,1,0
231763,1000000,139,1,0,15,1,0
231764,1000000,139,1,0,15,1,0
231765,1000000,139,1,0,15,1,0
231766,1000000,139,1,0,15,1,0
231767,1000000,139,1,0,15,1,0
231768,1000000,139,1,0,15,1,0
231769,1000000,139,1,0,15,1,0
231770,1000000,139,1,0,15,1,0
231771,1000000,139,1,0,15,1,0
231772,1000000,139,1,0,15,1,0
231773,1000000,139,1,0,15,1,0
231774,1000000,139,1,0,15,1,0
231775,1000000,139,1,0,15,1,0
231776,1000000,139,1,0,15,1,0
231777,1000000,139,1,0,15,1,0
231778,1000000,139,1,0,15,1,0
231779,1000000,139,1,0,15,1,0
231780,1000000,139,1,0,15,1,0
231782,6.87426108395752,4,1,0,15,1,0
231783,2,4,1,0,15,1,0
231785,1000000,139,1,0,15,1,0
231786,1000000,139,1,0,15,1,0
231787,1000000,139,1,0,15,1,0
231788,1000000,139,1,0,15,1,0
231789,1000000,139,1,0,15,1,0
231790,1000000,139,1,0,15,1,0
231791,1000000,139,1,0,15,1,0
231792,1000000,139,1,0,15,1,0
231793,1000000,139,1,0,15,1,0
231794,1000000,139,1,0,15,1,0
231795,1000000,139,1,0,15,1,0
231796,1000000,139,1,0,15,1,0
231797,1000000,139,1,0,15,1,0
231798,1000000,139,1,0,15,1,0
231799,1000000,139,1,0,15,1,0
231800,1000000,139,1,0,15,1,0
231801,1000000,139,1,0,15,1,0
231802,1000000,139,1,0,15,1,0
231803,1000000,139,1,0,15,1,0
231804,1000000,139,1,0,15,1,0
231805,1000000,139,1,0,15,1,0
231806,1000000,139,1,0,15,1,0
231807,1000000,139,1,0,15,1,0
231808,1000000,139,1,0,15,1,0
231809,1000000,139,1,0,15,1,0
231810,1000000,139,1,0,15,1,0
231811,1000000,139,1,0,15,1,0
231812,1000000,139,1,0,15,1,0
231813,1000000,139,1,0,15,1,0
231814,1000000,139,1,0,15,1,0
231815,1000000,139,1,0,15,1,0
231816,1000000,139,1,0,15,1,0
231817,1000000,139,1,0,15,1,0
231818,1000000,139,1,0,15,1,0
231819,1000000,139,1,0,15,1,0
231820,6.73464360604789,4,1,0,15,1,0
231821,2,4,1,0,15,1,0
231823,1000000,139,1,0,15,1,0
231824,1000000,139,1,0,15,1,0
231825,1000000,139,1,0,15,1,0
231826,1000000,139,1,0,15,1,0
231827,1000000,139,1,0,15,1,0
231828,1000000,139,1,0,15,1,0
231829,1000000,139,1,0,15,1,0
231830,1000000,139,1,0,15,1,0
231831,1000000,139,1,0,15,1,0
231832,1000000,139,1,0,15,1,0
231833,1000000,139,1,0,15,1,0
231834,1000000,139,1,0,15,1,0
231835,1000000,139,1,0,15,1,0
231836,1000000,139,1,0,15,1,0
231837,1000000,139,1,0,15,1,0
231838,1000000,139,1,0,15,1,0
231839,1000000,139,1,0,15,1,0
231840,1000000,139,1,0,15,1,0
231841,1000000,139,1,0,15,1,0
231842,1000000,139,1,0,15,1,0
231843,1000000,139,1,0,15,1,0
231844,1000000,139,1,0,15,1,0
231845,1000000,139,1,0,15,1,0
231846,1000000,139,1,0,15,1,0
231847,1000000,139,1,0,15,1,0
231848,1000000,139,1,0,15,1,0
231849,1000000,139,1,0,15,1,0
231850,1000000,139,1,0,15,1,0
231851,1000000,139,1,0,15,1,0
231852,1000000,139,1,0,15,1,0
231853,1000000,139,1,0,15,1,0
231854,1000000,139,1,0,15,1,0
231855,1000000,139,1,0,15,1,0
231856,1000000,139,1,0,15,1,0
231857,1000000,139,1,0,15,1,0
231859,6.60952778003501,4,1,0,15,1,0
231860,2,4,1,0,15,1,0
231862,1000000,139,1,0,15,1,0
231863,1000000,139,1,0,15,1,0
231864,1000000,139,1,0,15,1,0
231865,1000000,139,1,0,15,1,0
231866,1000000,139,1,0,15,1,0
231867,1000000,139,1,0,15,1,0
231868,1000000,139,1,0,15,1,0
231869,1000000,139,1,0,15,1,0
231870,1000000,139,1,0,15,1,0
231871,1000000,139,1,0,15,1,0
231872,1000000,139,1,0,15,1,0
231873,1000000,139,1,0,15,1,0
231874,1000000,139,1,0,15,1,0
231875,1000000,139,1,0,15,1,0
231876,1000000,139,1,0,15,1,0
231877,1000000,139,1,0,15,1,0
231878,1000000,139,1,0,15,1,0
231879,1000000,139,1,0,15,1,0
231880,1000000,139,1,0,15,1,0
231881,1000000,139,1,0,15,1,0
231882,1000000,139,1,0,15,1,0
231883,1000000,139,1,0,15,1,0
231884,1000000,139,1,0,15,1,0
231885,1000000,139,1,0,15,1,0
231886,1000000,139,1,0,15,1,0
231887,1000000,139,1,0,15,1,0
231888,1000000,139,1,0,15,1,0
231889,1000000,139,1,0,15,1,0
231890,1000000,139,1,0,15,1,0
231891,1000000,139,1,0,15,1,0
231892,1000000,139,1,0,15,1,0
231893,1000000,139,1,0,15,1,0
231894,1000000,139,1,0,15,1,0
231895,1000000,139,1,0,15,1,0
231896,1000000,139,1,0,15,1,0
231897,6.49799250218219,4,1,0,15,1,0
231898,2,4,1,0,15,1,0
231900,1000000,139,1,0,15,1,0
231901,1000000,139,1,0,15,1,0
231902,1000000,139,1,0,15,1,0
231903,1000000,139,1,0,15,1,0
231904,1000000,139,1,0,15,1,0
231905,1000000,139,1,0,15,1,0
231906,1000000,139,1,0,15,1,0
231907,1000000,139,1,0,15,1,0
231908,1000000,139,1,0,15,1,0
231909,1000000,139,1,0,15,1,0
231910,1000000,139,1,0,15,1,0
231911,1000000,139,1,0,15,1,0
231912,1000000,139,1,0,15,1,0
231913,1000000,139,1,0,15,1,0
231914,1000000,139,1,0,15,1,0
231915,1000000,139,1,0,15,1,0
231916,1000000,139,1,0,15,1,0
231917,1000000,139,1,0,15,1,0
231918,1000000,139,1,0,15,1,0
231919,1000000,139,1,0,15,1,0
231920,1000000,139,1,0,15,1,0
231921,1000000,139,1,0,15,1,0
231922,1000000,139,1,0,15,1,0
231923,1000000,139,1,0,15,1,0
231924,1000000,139,1,0,15,1,0
231925,1000000,139,1,0,15,1,0
231926,1000000,139,1,0,15,1,0
231927,1000000,139,1,0,15,1,0
231928,1000000,139,1,0,15,1,0
231929,1000000,139,1,0,15,1,0
231930,1000000,139,1,0,15,1,0
231931,1000000,139,1,0,15,1,0
231932,1000000,139,1,0,15,1,0
231933,1000000,139,1,0,15,1,0
231934,1000000,139,1,0,15,1,0
231936,6.39923747710101,4,1,0,15,1,0
231937,2,4,1,0,15,1,0
231939,1000000,139,1,0,15,1,0
231940,1000000,139,1,0,15,1,0
231941,1000000,139,1,0,15,1,0
231942,1000000,139,1,0,15,1,0
231943,1000000,139,1,0,15,1,0
231944,1000000,139,1,0,15,1,0
231945,1000000,139,1,0,15,1,0
231946,1000000,139,1,0,15,1,0
231947,1000000,139,1,0,15,1,0
231948,1000000,139,1,0,15,1,0
231949,1000000,139,1,0,15,1,0
231950,1000000,139,1,0,15,1,0
231951,1000000,139,1,0,15,1,0
231952,1000000,139,1,0,15,1,0
231953,1000000,139,1,0,15,1,0
231954,1000000,139,1,0,15,1,0
231955,1000000,139,1,0,15,1,0
231956,1000000,139,1,0,15,1,0
231957,1000000,139,1,0,15,1,0
231958,1000000,139,1,0,15,1,0
231959,1000000,139,1,0,15,1,0
231960,1000000,139,1,0,15,1,0
231961,1000000,139,1,0,15,1,0
231962,1000000,139,1,0,15,1,0
231963,1000000,139,1,0,15,1,0
231964,1000000,139,1,0,15,1,0
231965,1000000,139,1,0,15,1,0
231966,1000000,139,1,0,15,1,0
231967,1000000,139,1,0,15,1,0
231968,1000000,139,1,0,15,1,0
231969,1000000,139,1,0,15,1,0
231970,1000000,139,1,0,15,1,0
231971,1000000,139,1,0,15,1,0
231972,1000000,139,1,0,15,1,0
231973,1000000,139,1,0,15,1,0
231974,6.31257050128608,4,1,0,15,1,0
231975,2,4,1,0,15,1,0
231977,1000000,139,1,0,15,1,0
231978,1000000,139,1,0,15,1,0
231979,1000000,139,1,0,15,1,0
231980,1000000,139,1,0,15,1,0
231981,1000000,139,1,0,15,1,0
231982,1000000,139,1,0,15,1,0
231983,1000000,139,1,0,15,1,0
231984,1000000,139,1,0,15,1,0
231985,1000000,139,1,0,15,1,0
231986,1000000,139,1,0,15,1,0
231987,1000000,139,1,0,15,1,0
231988,1000000,139,1,0,15,1,0
231989,1000000,139,1,0,15,1,0
231990,1000000,139,1,0,15,1,0
231991,1000000,139,1,0,15,1,0
231992,1000000,139,1,0,15,1,0
231993,1000000,139,1,0,15,1,0
231994,1000000,139,1,0,15,1,0
231995,1000000,139,1,0,15,1,0
231996,1000000,139,1,0,15,1,0
231997,1000000,139,1,0,15,1,0
231998,1000000,139,1,0,15,1,0
231999,1000000,139,1,0,15,1,0
232000,1000000,139,1,0,15,1,0
232001,1000000,139,1,0,15,1,0
232002,1000000,139,1,0,15,1,0
232003,1000000,139,1,0,15,1,0
232004,1000000,139,1,0,15,1,0
232005,1000000,139,1,0,15,1,0
232006,1000000,139,1,0,15,1,0
232007,1000000,139,1,0,15,1,0
232008,1000000,139,1,0,15,1,0
232009,1000000,139,1,0,15,1,0
232010,1000000,139,1,0,15,1,0
232011,1000000,139,1,0,15,1,0
232013,6.23739677909186,4,1,0,15,1,0
232014,2,4,1,0,15,1,0
232016,1000000,139,1,0,15,1,0
232017,1000000,139,1,0,15,1,0
232018,1000000,139,1,0,15,1,0
232019,1000000,139,1,0,15,1,0
232020,1000000,139,1,0,15,1,0
232021,1000000,139,1,0,15,1,0
232022,1000000,139,1,0,15,1,0
232023,1000000,139,1,0,15,1,0
232024,1000000,139,1,0,15,1,0
232025,1000000,139,1,0,15,1,0
232026,1000000,139,1,0,15,1,0
232027,1000000,139,1,0,15,1,0
232028,1000000,139,1,0,15,1,0
232029,1000000,139,1,0,15,1,0
232030,1000000,139,1,0,15,1,0
232031,1000000,139,1,0,15,1,0
232032,1000000,139,1,0,15,1,0
232033,1000000,139,1,0,15,1,0
232034,1000000,139,1,0,15,1,0
232035,1000000,139,1,0,15,1,0
232036,1000000,139,1,0,15,1,0
232037,1000000,139,1,0,15,1,0
232038,1000000,139,1,0,15,1,0
232039,1000000,139,1,0,15,1,0
232040,1000000,139,1,0,15,1,0
232041,1000000,139,1,0,15,1,0
232042,1000000,139,1,0,15,1,0
232043,1000000,139,1,0,15,1,0
232044,1000000,139,1,0,15,1,0
232045,1000000,139,1,0,15,1,0
232046,1000000,139,1,0,15,1,0
232047,1000000,139,1,0,15,1,0
232048,1000000,139,1,0,15,1,0
232049,1000000,139,1,0,15,1,0
232050,1000000,139,1,0,15,1,0
232051,6.17320999276778,4,1,0,15,1,0
232052,2,4,1,0,15,1,0
232054,1000000,139,1,0,15,1,0
232055,1000000,139,1,0,15,1,0
232056,1000000,139,1,0,15,1,0
232057,1000000,139,1,0,15,1,0
232058,1000000,139,1,0,15,1,0
232059,1000000,139,1,0,15,1,0
232060,1000000,139,1,0,15,1,0
232061,1000000,139,1,0,15,1,0
232062,1000000,139,1,0,15,1,0
232063,1000000,139,1,0,15,1,0
232064,1000000,139,1,0,15,1,0
232065,1000000,139,1,0,15,1,0
232066,1000000,139,1,0,15,1,0
232067,1000000,139,1,0,15,1,0
232068,1000000,139,1,0,15,1,0
232069,1000000,139,1,0,15,1,0
232070,1000000,139,1,0,15,1,0
232071,1000000,139,1,0,15,1,0
232072,1000000,139,1,0,15,1,0
232073,1000000,139,1,0,15,1,0
232074,1000000,139,1,0,15,1,0
232075,1000000,139,1,0,15,1,0
232076,1000000,139,1,0,15,1,0
232077,1000000,139,1,0,15,1,0
232078,1000000,139,1,0,15,1,0
232079,1000000,139,1,0,15,1,0
232080,1000000,139,1,0,15,1,0
232081,1000000,139,1,0,15,1,0
232082,1000000,139,1,0,15,1,0
232083,1000000,139,1,0,15,1,0
232084,1000000,139,1,0,15,1,0
232085,1000000,139,1,0,15,1,0
232086,1000000,139,1,0,15,1,0
232087,1000000,139,1,0,15,1,0
232088,1000000,139,1,0,15,1,0
232090,6.11958488273276,4,1,0,15,1,0
232091,2,4,1,0,15,1,0
232093,1000000,139,1,0,15,1,0
232094,1000000,139,1,0,15,1,0
232095,1000000,139,1,0,15,1,0
232096,1000000,139,1,0,15,1,0
232097,1000000,139,1,0,15,1,0
232098,1000000,139,1,0,15,1,0
232099,1000000,139,1,0,15,1,0
232100,1000000,139,1,0,15,1,0
232101,1000000,139,1,0,15,1,0
232102,1000000,139,1,0,15,1,0
232103,1000000,139,1,0,15,1,0
232104,1000000,139,1,0,15,1,0
232105,1000000,139,1,0,15,1,0
232106,1000000,139,1,0,15,1,0
232107,1000000,139,1,0,15,1,0
232108,1000000,139,1,0,15,1,0
232109,1000000,139,1,0,15,1,0
232110,1000000,139,1,0,15,1,0
232111,1000000,139,1,0,15,1,0
232112,1000000,139,1,0,15,1,0
232113,1000000,139,1,0,15,1,0
232114,1000000,139,1,0,15,1,0
232115,1000000,139,1,0,15,1,0
232116,1000000,139,1,0,15,1,0
232117,1000000,139,1,0,15,1,0
232118,1000000,139,1,0,15,1,0
232119,1000000,139,1,0,15,1,0
232120,1000000,139,1,0,15,1,0
232121,1000000,139,1,0,15,1,0
232122,1000000,139,1,0,15,1,0
232123,1000000,139,1,0,15,1,0
232124,1000000,139,1,0,15,1,0
232125,1000000,139,1,0,15,1,0
232126,1000000,139,1,0,15,1,0
232127,1000000,139,1,0,15,1,0
232128,6.07617114825848,4,1,0,15,1,0
232129,2,4,1,0,15,1,0
232131,1000000,139,1,0,15,1,0
232132,1000000,139,1,0,15,1,0
232133,1000000,139,1,0,15,1,0
232134,1000000,139,1,0,15,1,0
232135,1000000,139,1,0,15,1,0
232136,1000000,139,1,0,15,1,0
232137,1000000,139,1,0,15,1,0
232138,1000000,139,1,0,15,1,0
232139,1000000,139,1,0,15,1,0
232140,1000000,139,1,0,15,1,0
232141,1000000,139,1,0,15,1,0
232142,1000000,139,1,0,15,1,0
232143,1000000,139,1,0,15,1,0
232144,1000000,139,1,0,15,1,0
232145,1000000,139,1,0,15,1,0
232146,1000000,139,1,0,15,1,0
232147,1000000,139,1,0,15,1,0
232148,1000000,139,1,0,15,1,0
232149,1000000,139,1,0,15,1,0
232150,1000000,139,1,0,15,1,0
232151,1000000,139,1,0,15,1,0
232152,1000000,139,1,0,15,1,0
232153,1000000,139,1,0,15,1,0
232154,1000000,139,1,0,15,1,0
232155,1000000,139,1,0,15,1,0
232156,1000000,139,1,0,15,1,0
232157,1000000,139,1,0,15,1,0
232158,1000000,139,1,0,15,1,0
232159,1000000,139,1,0,15,1,0
232160,1000000,139,1,0,15,1,0
232161,1000000,139,1,0,15,1,0
232162,1000000,139,1,0,15,1,0
232163,1000000,139,1,0,15,1,0
232164,1000000,139,1,0,15,1,0
232165,1000000,139,1,0,15,1,0
232167,6.04268851683014,4,1,0,15,1,0
232168,2,4,1,0,15,1,0
232170,1000000,139,1,0,15,1,0
232171,1000000,139,1,0,15,1,0
232172,1000000,139,1,0,15,1,0
232173,1000000,139,1,0,15,1,0
232174,1000000,139,1,0,15,1,0
232175,1000000,139,1,0,15,1,0
232176,1000000,139,1,0,15,1,0
232177,1000000,139,1,0,15,1,0
232178,1000000,139,1,0,15,1,0
232179,1000000,139,1,0,15,1,0
232180,1000000,139,1,0,15,1,0
232181,1000000,139,1,0,15,1,0
232182,1000000,139,1,0,15,1,0
232183,1000000,139,1,0,15,1,0
232184,1000000,139,1,0,15,1,0
232185,1000000,139,1,0,15,1,0
232186,1000000,139,1,0,15,1,0
232187,1000000,139,1,0,15,1,0
232188,1000000,139,1,0,15,1,0
232189,1000000,139,1,0,15,1,0
232190,1000000,139,1,0,15,1,0
232191,1000000,139,1,0,15,1,0
232192,1000000,139,1,0,15,1,0
232193,1000000,139,1,0,15,1,0
232194,1000000,139,1,0,15,1,0
232195,1000000,139,1,0,15,1,0
232196,1000000,139,1,0,15,1,0
232197,1000000,139,1,0,15,1,0
232198,1000000,139,1,0,15,1,0
232199,1000000,139,1,0,15,1,0
232200,1000000,139,1,0,15,1,0
232201,1000000,139,1,0,15,1,0
232202,1000000,139,1,0,15,1,0
232203,1000000,139,1,0,15,1,0
232204,1000000,139,1,0,15,1,0
232205,6.01892286209341,4,1,0,15,1,0
232206,2,4,1,0,15,1,0
232208,1000000,139,1,0,15,1,0
232209,1000000,139,1,0,15,1,0
232210,1000000,139,1,0,15,1,0
232211,1000000,139,1,0,15,1,0
232212,1000000,139,1,0,15,1,0
232213,1000000,139,1,0,15,1,0
232214,1000000,139,1,0,15,1,0
232215,1000000,139,1,0,15,1,0
232216,1000000,139,1,0,15,1,0
232217,1000000,139,1,0,15,1,0
232218,1000000,139,1,0,15,1,0
232219,1000000,139,1,0,15,1,0
232220,1000000,139,1,0,15,1,0
232221,1000000,139,1,0,15,1,0
232222,1000000,139,1,0,15,1,0
232223,1000000,139,1,0,15,1,0
232224,1000000,139,1,0,15,1,0
232225,1000000,139,1,0,15,1,0
232226,1000000,139,1,0,15,1,0
232227,1000000,139,1,0,15,1,0
232228,1000000,139,1,0,15,1,0
232229,1000000,139,1,0,15,1,0
232230,1000000,139,1,0,15,1,0
232231,1000000,139,1,0,15,1,0
232232,1000000,139,1,0,15,1,0
232233,1000000,139,1,0,15,1,0
232234,1000000,139,1,0,15,1,0
232235,1000000,139,1,0,15,1,0
232236,1000000,139,1,0,15,1,0
232237,1000000,139,1,0,15,1,0
232238,1000000,139,1,0,15,1,0
232239,1000000,139,1,0,15,1,0
232240,1000000,139,1,0,15,1,0
232241,1000000,139,1,0,15,1,0
232242,1000000,139,1,0,15,1,0
232244,6.00472327028899,4,1,0,15,1,0
232245,2,4,1,0,15,1,0
232247,1000000,139,1,0,15,1,0
232248,1000000,139,1,0,15,1,0
232249,1000000,139,1,0,15,1,0
232250,1000000,139,1,0,15,1,0
232251,1000000,139,1,0,15,1,0
232252,1000000,139,1,0,15,1,0
232253,1000000,139,1,0,15,1,0
232254,1000000,139,1,0,15,1,0
232255,1000000,139,1,0,15,1,0
232256,1000000,139,1,0,15,1,0
232257,1000000,139,1,0,15,1,0
232258,1000000,139,1,0,15,1,0
232259,1000000,139,1,0,15,1,0
232260,1000000,139,1,0,15,1,0
232261,1000000,139,1,0,15,1,0
232262,1000000,139,1,0,15,1,0
232263,1000000,139,1,0,15,1,0
232264,1000000,139,1,0,15,1,0
232265,1000000,139,1,0,15,1,0
232266,1000000,139,1,0,15,1,0
232267,1000000,139,1,0,15,1,0
232268,1000000,139,1,0,15,1,0
232269,1000000,139,1,0,15,1,0
232270,1000000,139,1,0,15,1,0
232271,1000000,139,1,0,15,1,0
232272,1000000,139,1,0,15,1,0
232273,1000000,139,1,0,15,1,0
232274,1000000,139,1,0,15,1,0
232275,1000000,139,1,0,15,1,0
232276,1000000,139,1,0,15,1,0
232277,1000000,139,1,0,15,1,0
232278,1000000,139,1,0,15,1,0
232279,1000000,139,1,0,15,1,0
232280,1000000,139,1,0,15,1,0
232281,1000000,139,1,0,15,1,0
232282,6,4,1,0,15,1,0
232283,2,4,1,0,15,1,0
232285,1000000,139,1,0,15,1,0
232286,1000000,139,1,0,15,1,0
232287,1000000,139,1,0,15,1,0
232288,1000000,139,1,0,15,1,0
232289,1000000,139,1,0,15,1,0
232290,1000000,139,1,0,15,1,0
232291,1000000,139,1,0,15,1,0
232292,1000000,139,1,0,15,1,0
232293,1000000,139,1,0,15,1,0
232294,1000000,139,1,0,15,1,0
232295,1000000,139,1,0,15,1,0
232296,1000000,139,1,0,15,1,0
232297,1000000,139,1,0,15,1,0
232298,1000000,139,1,0,15,1,0
232299,1000000,139,1,0,15,1,0
232300,1000000,139,1,0,15,1,0
232301,1000000,139,1,0,15,1,0
232302,1000000,139,1,0,15,1,0
232303,1000000,139,1,0,15,1,0
232304,1000000,139,1,0,15,1,0
232305,1000000,139,1,0,15,1,0
232306,1000000,139,1,0,15,1,0
232307,1000000,139,1,0,15,1,0
232308,1000000,139,1,0,15,1,0
232309,1000000,139,1,0,15,1,0
232310,1000000,139,1,0,15,1,0
232311,1000000,139,1,0,15,1,0
232312,1000000,139,1,0,15,1,0
232313,1000000,139,1,0,15,1,0
232314,1000000,139,1,0,15,1,0
232315,1000000,139,1,0,15,1,0
232316,1000000,139,1,0,15,1,0
232317,1000000,139,1,0,15,1,0
232318,1000000,139,1,0,15,1,0
232319,1000000,139,1,0,15,1,0
232320,307.692307692308,4,1,0,15,1,0
232456,-166.666666666667,4,1,0,15,0,0
232533,-142.857142857143,4,1,0,15,0,0
232571,-125,4,1,0,15,0,0
232610,307.692307692308,4,1,0,15,1,1
247686,-66.6666666666667,4,1,0,15,0,1
247725,-133.333333333333,4,1,0,15,0,1
247763,-100,4,1,0,15,0,1
248917,-66.6666666666667,4,1,0,15,0,1
248956,-133.333333333333,4,1,0,15,0,1
248994,-100,4,1,0,15,0,1
250148,-66.6666666666667,4,1,0,15,0,1
250186,-133.333333333333,4,1,0,15,0,1
250225,-100,4,1,0,15,0,1
251379,-66.6666666666667,4,1,0,15,0,1
251417,-133.333333333333,4,1,0,15,0,1
251456,-100,4,1,0,15,0,1
252225,-100,4,1,0,15,0,0
252302,-100,4,1,0,15,0,1
267379,-66.6666666666667,4,1,0,15,0,1
267417,-133.333333333333,4,1,0,15,0,1
267456,-100,4,1,0,15,0,1
268610,-66.6666666666667,4,1,0,15,0,1
268648,-133.333333333333,4,1,0,15,0,1
268686,-100,4,1,0,15,0,1
269840,-80,4,1,0,15,0,1
269879,-133.333333333333,4,1,0,15,0,1
269917,-100,4,1,0,15,0,1
270763,-100,4,1,0,15,0,0
270767.924,-100.080064051241,4,1,0,15,0,0
270772.848,-100.160256410256,4,1,0,15,0,0
270777.772,-100.240577385726,4,1,0,15,0,0
270782.696,-100.321027287319,4,1,0,15,0,0
270787.62,-100.401606425703,4,1,0,15,0,0
270792.544,-100.48231511254,4,1,0,15,0,0
270797.468,-100.563153660499,4,1,0,15,0,0
270802.392,-100.644122383253,4,1,0,15,0,0
270807.316,-100.725221595488,4,1,0,15,0,0
270812.24,-100.806451612903,4,1,0,15,0,0
270817.164,-100.88781275222,4,1,0,15,0,0
270822.088,-100.969305331179,4,1,0,15,0,0
270827.012,-101.050929668553,4,1,0,15,0,0
270831.936,-101.132686084142,4,1,0,15,0,0
270836.86,-101.214574898785,4,1,0,15,0,0
270841.784,-101.29659643436,4,1,0,15,0,0
270846.708,-101.378751013788,4,1,0,15,0,0
270851.632,-101.461038961039,4,1,0,15,0,0
270856.556,-101.543460601137,4,1,0,15,0,0
270861.48,-101.626016260163,4,1,0,15,0,0
270866.404,-101.708706265256,4,1,0,15,0,0
270871.328,-101.791530944625,4,1,0,15,0,0
270876.252,-101.874490627547,4,1,0,15,0,0
270881.176,-101.957585644372,4,1,0,15,0,0
270886.1,-102.040816326531,4,1,0,15,0,0
270891.024,-102.124183006536,4,1,0,15,0,0
270895.948,-102.207686017989,4,1,0,15,0,0
270900.872,-102.291325695581,4,1,0,15,0,0
270905.796,-102.375102375102,4,1,0,15,0,0
270910.72,-102.459016393443,4,1,0,15,0,0
270915.644,-102.543068088597,4,1,0,15,0,0
270920.568,-102.627257799672,4,1,0,15,0,0
270925.492,-102.711585866886,4,1,0,15,0,0
270930.416,-102.796052631579,4,1,0,15,0,0
270935.34,-102.880658436214,4,1,0,15,0,0
270940.264,-102.965403624382,4,1,0,15,0,0
270945.188,-103.050288540808,4,1,0,15,0,0
270950.112,-103.135313531353,4,1,0,15,0,0
270955.036,-103.220478943022,4,1,0,15,0,0
270959.96,-103.305785123967,4,1,0,15,0,0
270964.884,-103.39123242349,4,1,0,15,0,0
270969.808,-103.476821192053,4,1,0,15,0,0
270974.732,-103.562551781276,4,1,0,15,0,0
270979.656,-103.648424543947,4,1,0,15,0,0
270984.58,-103.734439834025,4,1,0,15,0,0
270989.504,-103.820598006645,4,1,0,15,0,0
270994.428,-103.906899418121,4,1,0,15,0,0
270999.352,-103.993344425957,4,1,0,15,0,0
271004.276,-104.079933388843,4,1,0,15,0,0
271009.2,-104.166666666667,4,1,0,15,0,0
271014.124,-104.253544620517,4,1,0,15,0,0
271019.048,-104.340567612688,4,1,0,15,0,0
271023.972,-104.427736006683,4,1,0,15,0,0
271028.896,-104.515050167224,4,1,0,15,0,0
271033.82,-104.602510460251,4,1,0,15,0,0
271038.744,-104.690117252931,4,1,0,15,0,0
271043.668,-104.777870913663,4,1,0,15,0,0
271048.592,-104.865771812081,4,1,0,15,0,0
271053.516,-104.95382031906,4,1,0,15,0,0
271058.44,-105.042016806723,4,1,0,15,0,0
271063.364,-105.130361648444,4,1,0,15,0,0
271068.288,-105.218855218855,4,1,0,15,0,0
271073.212,-105.30749789385,4,1,0,15,0,0
271078.136,-105.39629005059,4,1,0,15,0,0
271083.06,-105.485232067511,4,1,0,15,0,0
271087.984,-105.574324324324,4,1,0,15,0,0
271092.908,-105.663567202029,4,1,0,15,0,0
271097.832,-105.75296108291,4,1,0,15,0,0
271102.756,-105.84250635055,4,1,0,15,0,0
271107.68,-105.932203389831,4,1,0,15,0,0
271112.604,-106.022052586938,4,1,0,15,0,0
271117.528,-106.112054329372,4,1,0,15,0,0
271122.452,-106.202209005947,4,1,0,15,0,0
271127.376,-106.292517006803,4,1,0,15,0,0
271132.3,-106.382978723404,4,1,0,15,0,0
271137.224,-106.473594548552,4,1,0,15,0,0
271142.148,-106.564364876385,4,1,0,15,0,0
271147.072,-106.655290102389,4,1,0,15,0,0
271151.996,-106.746370623399,4,1,0,15,0,0
271156.92,-106.837606837607,4,1,0,15,0,0
271161.844,-106.928999144568,4,1,0,15,0,0
271166.768,-107.020547945205,4,1,0,15,0,0
271171.692,-107.112253641817,4,1,0,15,0,0
271176.616,-107.204116638079,4,1,0,15,0,0
271181.54,-107.296137339056,4,1,0,15,0,0
271186.464,-107.388316151203,4,1,0,15,0,0
271191.388,-107.480653482373,4,1,0,15,0,0
271196.312,-107.573149741824,4,1,0,15,0,0
271201.236,-107.665805340224,4,1,0,15,0,0
271206.16,-107.758620689655,4,1,0,15,0,0
271211.084,-107.851596203624,4,1,0,15,0,0
271216.008,-107.944732297064,4,1,0,15,0,0
271220.932,-108.038029386344,4,1,0,15,0,0
271225.856,-108.131487889273,4,1,0,15,0,0
271230.78,-108.225108225108,4,1,0,15,0,0
271235.704,-108.318890814558,4,1,0,15,0,0
271240.628,-108.412836079792,4,1,0,15,0,0
271245.552,-108.506944444444,4,1,0,15,0,0
271250.476,-108.601216333623,4,1,0,15,0,0
271255.4,-108.695652173913,4,1,0,15,0,0
271260.324,-108.790252393386,4,1,0,15,0,0
271265.248,-108.885017421603,4,1,0,15,0,0
271270.172,-108.979947689625,4,1,0,15,0,0
271275.096,-109.075043630017,4,1,0,15,0,0
271280.02,-109.170305676856,4,1,0,15,0,0
271284.944,-109.265734265734,4,1,0,15,0,0
271289.868,-109.361329833771,4,1,0,15,0,0
271294.792,-109.457092819615,4,1,0,15,0,0
271299.716,-109.553023663453,4,1,0,15,0,0
271304.64,-109.649122807018,4,1,0,15,0,0
271309.564,-109.745390693591,4,1,0,15,0,0
271314.488,-109.841827768014,4,1,0,15,0,0
271319.412,-109.938434476693,4,1,0,15,0,0
271324.336,-110.035211267606,4,1,0,15,0,0
271329.26,-110.132158590308,4,1,0,15,0,0
271334.184,-110.229276895944,4,1,0,15,0,0
271339.108,-110.326566637246,4,1,0,15,0,0
271344.032,-110.424028268551,4,1,0,15,0,0
271348.956,-110.5216622458,4,1,0,15,0,0
271353.88,-110.619469026549,4,1,0,15,0,0
271358.804,-110.717449069973,4,1,0,15,0,0
271363.728,-110.815602836879,4,1,0,15,0,0
271368.652,-110.913930789707,4,1,0,15,0,0
271373.576,-111.01243339254,4,1,0,15,0,0
271378.5,-111.111111111111,4,1,0,15,0,0
271383.424,-111.209964412811,4,1,0,15,0,0
271388.348,-111.308993766696,4,1,0,15,0,0
271393.272,-111.408199643494,4,1,0,15,0,0
271398.196,-111.507582515611,4,1,0,15,0,0
271403.12,-111.607142857143,4,1,0,15,0,0
271408.044,-111.706881143878,4,1,0,15,0,0
271412.968,-111.806797853309,4,1,0,15,0,0
271417.892,-111.906893464637,4,1,0,15,0,0
271422.816,-112.007168458781,4,1,0,15,0,0
271427.74,-112.107623318386,4,1,0,15,0,0
271432.664,-112.208258527828,4,1,0,15,0,0
271437.588,-112.309074573226,4,1,0,15,0,0
271442.512,-112.410071942446,4,1,0,15,0,0
271447.436,-112.511251125113,4,1,0,15,0,0
271452.36,-112.612612612613,4,1,0,15,0,0
271457.284,-112.714156898106,4,1,0,15,0,0
271462.208,-112.815884476534,4,1,0,15,0,0
271467.132,-112.917795844625,4,1,0,15,0,0
271472.056,-113.019891500904,4,1,0,15,0,0
271476.98,-113.122171945701,4,1,0,15,0,0
271481.904,-113.224637681159,4,1,0,15,0,0
271486.828,-113.327289211242,4,1,0,15,0,0
271491.752,-113.430127041742,4,1,0,15,0,0
271496.676,-113.533151680291,4,1,0,15,0,0
271501.6,-113.636363636364,4,1,0,15,0,0
271506.524,-113.739763421292,4,1,0,15,0,0
271511.448,-113.84335154827,4,1,0,15,0,0
271516.372,-113.947128532361,4,1,0,15,0,0
271521.296,-114.051094890511,4,1,0,15,0,0
271526.22,-114.155251141553,4,1,0,15,0,0
271531.144,-114.259597806216,4,1,0,15,0,0
271536.068,-114.364135407136,4,1,0,15,0,0
271540.992,-114.468864468864,4,1,0,15,0,0
271545.916,-114.573785517874,4,1,0,15,0,0
271550.84,-114.678899082569,4,1,0,15,0,0
271555.764,-114.784205693297,4,1,0,15,0,0
271560.688,-114.889705882353,4,1,0,15,0,0
271565.612,-114.995400183993,4,1,0,15,0,0
271570.536,-115.101289134438,4,1,0,15,0,0
271575.46,-115.207373271889,4,1,0,15,0,0
271580.384,-115.313653136531,4,1,0,15,0,0
271585.308,-115.420129270545,4,1,0,15,0,0
271590.232,-115.526802218115,4,1,0,15,0,0
271595.156,-115.633672525439,4,1,0,15,0,0
271600.08,-115.740740740741,4,1,0,15,0,0
271605.004,-115.848007414272,4,1,0,15,0,0
271609.928,-115.95547309833,4,1,0,15,0,0
271614.852,-116.063138347261,4,1,0,15,0,0
271619.776,-116.171003717472,4,1,0,15,0,0
271624.7,-116.279069767442,4,1,0,15,0,0
271629.624,-116.387337057728,4,1,0,15,0,0
271634.548,-116.495806150979,4,1,0,15,0,0
271639.472,-116.60447761194,4,1,0,15,0,0
271644.396,-116.71335200747,4,1,0,15,0,0
271649.32,-116.822429906542,4,1,0,15,0,0
271654.244,-116.931711880262,4,1,0,15,0,0
271659.168,-117.041198501873,4,1,0,15,0,0
271664.092,-117.150890346767,4,1,0,15,0,0
271669.016,-117.260787992495,4,1,0,15,0,0
271673.94,-117.370892018779,4,1,0,15,0,0
271678.864,-117.481203007519,4,1,0,15,0,0
271683.788,-117.591721542803,4,1,0,15,0,0
271688.712,-117.702448210923,4,1,0,15,0,0
271693.636,-117.813383600377,4,1,0,15,0,0
271698.56,-117.924528301887,4,1,0,15,0,0
271703.484,-118.035882908404,4,1,0,15,0,0
271708.408,-118.147448015123,4,1,0,15,0,0
271713.332,-118.259224219489,4,1,0,15,0,0
271718.256,-118.371212121212,4,1,0,15,0,0
271723.18,-118.483412322275,4,1,0,15,0,0
271728.104,-118.595825426945,4,1,0,15,0,0
271733.028,-118.708452041785,4,1,0,15,0,0
271737.952,-118.821292775665,4,1,0,15,0,0
271742.876,-118.934348239772,4,1,0,15,0,0
271747.8,-119.047619047619,4,1,0,15,0,0
271752.724,-119.161105815062,4,1,0,15,0,0
271757.648,-119.274809160305,4,1,0,15,0,0
271762.572,-119.388729703916,4,1,0,15,0,0
271767.496,-119.502868068834,4,1,0,15,0,0
271772.42,-119.617224880383,4,1,0,15,0,0
271777.344,-119.731800766284,4,1,0,15,0,0
271782.268,-119.846596356663,4,1,0,15,0,0
271787.192,-119.961612284069,4,1,0,15,0,0
271792.116,-120.076849183477,4,1,0,15,0,0
271797.04,-120.192307692308,4,1,0,15,0,0
271801.964,-120.307988450433,4,1,0,15,0,0
271806.888,-120.423892100193,4,1,0,15,0,0
271811.812,-120.540019286403,4,1,0,15,0,0
271816.736,-120.656370656371,4,1,0,15,0,0
271821.66,-120.772946859903,4,1,0,15,0,0
271826.584,-120.889748549323,4,1,0,15,0,0
271831.508,-121.006776379477,4,1,0,15,0,0
271836.432,-121.124031007752,4,1,0,15,0,0
271841.356,-121.241513094083,4,1,0,15,0,0
271846.28,-121.359223300971,4,1,0,15,0,0
271851.204,-121.477162293489,4,1,0,15,0,0
271856.128,-121.5953307393,4,1,0,15,0,0
271861.052,-121.713729308666,4,1,0,15,0,0
271865.976,-121.832358674464,4,1,0,15,0,0
271870.9,-121.951219512195,4,1,0,15,0,0
271875.824,-122.0703125,4,1,0,15,0,0
271880.748,-122.189638318671,4,1,0,15,0,0
271885.672,-122.309197651663,4,1,0,15,0,0
271890.596,-122.428991185113,4,1,0,15,0,0
271895.52,-122.549019607843,4,1,0,15,0,0
271900.444,-122.669283611384,4,1,0,15,0,0
271905.368,-122.78978388998,4,1,0,15,0,0
271910.292,-122.91052114061,4,1,0,15,0,0
271915.216,-123.031496062992,4,1,0,15,0,0
271920.14,-123.152709359606,4,1,0,15,0,0
271925.064,-123.2741617357,4,1,0,15,0,0
271929.988,-123.395853899309,4,1,0,15,0,0
271934.912,-123.517786561265,4,1,0,15,0,0
271939.836,-123.639960435213,4,1,0,15,0,0
271944.76,-123.762376237624,4,1,0,15,0,0
271949.684,-123.88503468781,4,1,0,15,0,0
271954.608,-124.007936507937,4,1,0,15,0,0
271959.532,-124.131082423039,4,1,0,15,0,0
271964.456,-124.254473161034,4,1,0,15,0,0
271969.38,-124.378109452736,4,1,0,15,0,0
271974.304,-124.501992031873,4,1,0,15,0,0
271979.228,-124.626121635095,4,1,0,15,0,0
271984.152,-124.750499001996,4,1,0,15,0,0
271989.076,-124.875124875125,4,1,0,15,0,0
271994,-125,4,1,0,15,0,0
271997,307.692307692308,4,1,0,15,1,0
271999,307.692307692308,4,1,0,15,1,0
272001,307.692307692308,4,1,0,15,1,0
272003,307.692307692308,4,1,0,15,1,0
272005,307.692307692308,4,1,0,15,1,0
272007,307.692307692308,4,1,0,15,1,0
272009,307.692307692308,4,1,0,15,1,0
272011,307.692307692308,4,1,0,15,1,0
272013,307.692307692308,4,1,0,15,1,0
272015,307.692307692308,4,1,0,15,1,0
272017,307.692307692308,4,1,0,15,1,0
272019,307.692307692308,4,1,0,15,1,0
272021,307.692307692308,4,1,0,15,1,0
272023,307.692307692308,4,1,0,15,1,0
272025,307.692307692308,4,1,0,15,1,0
272027,307.692307692308,4,1,0,15,1,0
272029,307.692307692308,4,1,0,15,1,0
272031,307.692307692308,4,1,0,15,1,0
272033,307.692307692308,4,1,0,15,1,0
272035,307.692307692308,4,1,0,15,1,0
272037,307.692307692308,4,1,0,15,1,0
272039,307.692307692308,4,1,0,15,1,0
272041,307.692307692308,4,1,0,15,1,0
272043,307.692307692308,4,1,0,15,1,0
272045,307.692307692308,4,1,0,15,1,0
272047,307.692307692308,4,1,0,15,1,0
272049,307.692307692308,4,1,0,15,1,0
272051,307.692307692308,4,1,0,15,1,0
272053,307.692307692308,4,1,0,15,1,0
272055,307.692307692308,4,1,0,15,1,0
272057,307.692307692308,4,1,0,15,1,0
272059,307.692307692308,4,1,0,15,1,0
272061,307.692307692308,4,1,0,15,1,0
272063,307.692307692308,4,1,0,15,1,0
272065,307.692307692308,4,1,0,15,1,0
272067,307.692307692308,4,1,0,15,1,0
272069,307.692307692308,4,1,0,15,1,0
272071,-200,4,1,0,15,0,0
272148,-100,4,1,0,15,0,0
272149,307.692307692308,4,1,0,15,1,0
272533,-200,4,1,0,15,0,0
272610,-100,4,1,0,15,0,0
273226,307.692307692308,4,1,0,15,1,0
273533,-66.6666666666667,4,1,0,15,0,0
273571,-222.222222222222,4,1,0,15,0,0
273610,-100,4,1,0,15,0,0
274533,-200,4,1,0,15,0,0
274610,-100,4,1,0,15,0,0
274994,-200,4,1,0,15,0,0
275071,-100,4,1,0,15,0,0
276919,307.692307692308,4,1,0,15,1,0
276921,307.692307692308,4,1,0,15,1,0
276923,307.692307692308,4,1,0,15,1,0
276925,307.692307692308,4,1,0,15,1,0
276927,307.692307692308,4,1,0,15,1,0
276929,307.692307692308,4,1,0,15,1,0
276931,307.692307692308,4,1,0,15,1,0
276933,307.692307692308,4,1,0,15,1,0
276935,307.692307692308,4,1,0,15,1,0
276937,307.692307692308,4,1,0,15,1,0
276939,307.692307692308,4,1,0,15,1,0
276941,307.692307692308,4,1,0,15,1,0
276943,307.692307692308,4,1,0,15,1,0
276945,307.692307692308,4,1,0,15,1,0
276947,307.692307692308,4,1,0,15,1,0
276949,307.692307692308,4,1,0,15,1,0
276951,307.692307692308,4,1,0,15,1,0
276953,307.692307692308,4,1,0,15,1,0
276955,307.692307692308,4,1,0,15,1,0
276957,307.692307692308,4,1,0,15,1,0
276959,307.692307692308,4,1,0,15,1,0
276961,307.692307692308,4,1,0,15,1,0
276963,307.692307692308,4,1,0,15,1,0
276965,307.692307692308,4,1,0,15,1,0
276967,307.692307692308,4,1,0,15,1,0
276969,307.692307692308,4,1,0,15,1,0
276971,307.692307692308,4,1,0,15,1,0
276973,307.692307692308,4,1,0,15,1,0
276975,307.692307692308,4,1,0,15,1,0
276977,307.692307692308,4,1,0,15,1,0
276979,307.692307692308,4,1,0,15,1,0
276981,307.692307692308,4,1,0,15,1,0
276983,307.692307692308,4,1,0,15,1,0
276985,307.692307692308,4,1,0,15,1,0
276987,307.692307692308,4,1,0,15,1,0
276989,307.692307692308,4,1,0,15,1,0
276991,307.692307692308,4,1,0,15,1,0
276993,307.692307692308,4,1,0,15,1,0
276994,-200,4,1,0,15,0,0
277071,-100,4,1,0,15,0,0
277072,307.692307692308,4,1,0,15,1,0
277456,-200,4,1,0,15,0,0
277533,-100,4,1,0,15,0,0
278149,307.692307692308,4,1,0,15,1,0
278456,-66.6666666666667,4,1,0,15,0,0
278494,-222.222222222222,4,1,0,15,0,0
278533,-100,4,1,0,15,0,0
279456,-200,4,1,0,15,0,0
279533,-100,4,1,0,15,0,0
279917,-200,4,1,0,15,0,0
279994,-100,4,1,0,15,0,0
281841,307.692307692308,4,1,0,15,1,0
281843,307.692307692308,4,1,0,15,1,0
281845,307.692307692308,4,1,0,15,1,0
281847,307.692307692308,4,1,0,15,1,0
281849,307.692307692308,4,1,0,15,1,0
281851,307.692307692308,4,1,0,15,1,0
281853,307.692307692308,4,1,0,15,1,0
281855,307.692307692308,4,1,0,15,1,0
281857,307.692307692308,4,1,0,15,1,0
281859,307.692307692308,4,1,0,15,1,0
281861,307.692307692308,4,1,0,15,1,0
281863,307.692307692308,4,1,0,15,1,0
281865,307.692307692308,4,1,0,15,1,0
281867,307.692307692308,4,1,0,15,1,0
281869,307.692307692308,4,1,0,15,1,0
281871,307.692307692308,4,1,0,15,1,0
281873,307.692307692308,4,1,0,15,1,0
281875,307.692307692308,4,1,0,15,1,0
281877,307.692307692308,4,1,0,15,1,0
281879,307.692307692308,4,1,0,15,1,0
281881,307.692307692308,4,1,0,15,1,0
281883,307.692307692308,4,1,0,15,1,0
281885,307.692307692308,4,1,0,15,1,0
281887,307.692307692308,4,1,0,15,1,0
281889,307.692307692308,4,1,0,15,1,0
281891,307.692307692308,4,1,0,15,1,0
281893,307.692307692308,4,1,0,15,1,0
281895,307.692307692308,4,1,0,15,1,0
281897,307.692307692308,4,1,0,15,1,0
281899,307.692307692308,4,1,0,15,1,0
281901,307.692307692308,4,1,0,15,1,0
281903,307.692307692308,4,1,0,15,1,0
281905,307.692307692308,4,1,0,15,1,0
281907,307.692307692308,4,1,0,15,1,0
281909,307.692307692308,4,1,0,15,1,0
281911,307.692307692308,4,1,0,15,1,0
281913,307.692307692308,4,1,0,15,1,0
281915,307.692307692308,4,1,0,15,1,0
281917,-200,4,1,0,15,0,0
281994,-100,4,1,0,15,0,0
281995,307.692307692308,4,1,0,15,1,0
282379,-200,4,1,0,15,0,0
282456,-100,4,1,0,15,0,0
283072,307.692307692308,4,1,0,15,1,0
283379,-66.6666666666667,4,1,0,15,0,0
283417,-222.222222222222,4,1,0,15,0,0
283456,-100,4,1,0,15,0,0
284379,-200,4,1,0,15,0,0
284456,-100,4,1,0,15,0,0
284840,-200,4,1,0,15,0,0
284917,-100,4,1,0,15,0,0
286764,307.692307692308,4,1,0,15,1,0
286766,307.692307692308,4,1,0,15,1,0
286768,307.692307692308,4,1,0,15,1,0
286770,307.692307692308,4,1,0,15,1,0
286772,307.692307692308,4,1,0,15,1,0
286774,307.692307692308,4,1,0,15,1,0
286776,307.692307692308,4,1,0,15,1,0
286778,307.692307692308,4,1,0,15,1,0
286780,307.692307692308,4,1,0,15,1,0
286782,307.692307692308,4,1,0,15,1,0
286784,307.692307692308,4,1,0,15,1,0
286786,307.692307692308,4,1,0,15,1,0
286788,307.692307692308,4,1,0,15,1,0
286790,307.692307692308,4,1,0,15,1,0
286792,307.692307692308,4,1,0,15,1,0
286794,307.692307692308,4,1,0,15,1,0
286796,307.692307692308,4,1,0,15,1,0
286798,307.692307692308,4,1,0,15,1,0
286800,307.692307692308,4,1,0,15,1,0
286802,307.692307692308,4,1,0,15,1,0
286804,307.692307692308,4,1,0,15,1,0
286806,307.692307692308,4,1,0,15,1,0
286808,307.692307692308,4,1,0,15,1,0
286810,307.692307692308,4,1,0,15,1,0
286812,307.692307692308,4,1,0,15,1,0
286814,307.692307692308,4,1,0,15,1,0
286816,307.692307692308,4,1,0,15,1,0
286818,307.692307692308,4,1,0,15,1,0
286820,307.692307692308,4,1,0,15,1,0
286822,307.692307692308,4,1,0,15,1,0
286824,307.692307692308,4,1,0,15,1,0
286826,307.692307692308,4,1,0,15,1,0
286828,307.692307692308,4,1,0,15,1,0
286830,307.692307692308,4,1,0,15,1,0
286832,307.692307692308,4,1,0,15,1,0
286834,307.692307692308,4,1,0,15,1,0
286836,307.692307692308,4,1,0,15,1,0
286838,307.692307692308,4,1,0,15,1,0
286840,-200,4,1,0,15,0,0
286917,-100,4,1,0,15,0,0
286918,307.692307692308,4,1,0,15,1,0
287302,-200,4,1,0,15,0,0
287379,-100,4,1,0,15,0,0
287995,307.692307692308,4,1,0,15,1,0
288302,-66.6666666666667,4,1,0,15,0,0
288340,-222.222222222222,4,1,0,15,0,0
288379,-100,4,1,0,15,0,0
289302,-200,4,1,0,15,0,0
289379,-100,4,1,0,15,0,0
289763,-200,4,1,0,15,0,0
289840,-100,4,1,0,15,0,0
291687,307.692307692308,4,1,0,15,1,0
291689,307.692307692308,4,1,0,15,1,0
291691,307.692307692308,4,1,0,15,1,0
291693,307.692307692308,4,1,0,15,1,0
291695,307.692307692308,4,1,0,15,1,0
291697,307.692307692308,4,1,0,15,1,0
291699,307.692307692308,4,1,0,15,1,0
291701,307.692307692308,4,1,0,15,1,0
291703,307.692307692308,4,1,0,15,1,0
291705,307.692307692308,4,1,0,15,1,0
291707,307.692307692308,4,1,0,15,1,0
291709,307.692307692308,4,1,0,15,1,0
291711,307.692307692308,4,1,0,15,1,0
291713,307.692307692308,4,1,0,15,1,0
291715,307.692307692308,4,1,0,15,1,0
291717,307.692307692308,4,1,0,15,1,0
291719,307.692307692308,4,1,0,15,1,0
291721,307.692307692308,4,1,0,15,1,0
291723,307.692307692308,4,1,0,15,1,0
291725,307.692307692308,4,1,0,15,1,0
291727,307.692307692308,4,1,0,15,1,0
291729,307.692307692308,4,1,0,15,1,0
291731,307.692307692308,4,1,0,15,1,0
291733,307.692307692308,4,1,0,15,1,0
291735,307.692307692308,4,1,0,15,1,0
291737,307.692307692308,4,1,0,15,1,0
291739,307.692307692308,4,1,0,15,1,0
291741,307.692307692308,4,1,0,15,1,0
291743,307.692307692308,4,1,0,15,1,0
291745,307.692307692308,4,1,0,15,1,0
291747,307.692307692308,4,1,0,15,1,0
291749,307.692307692308,4,1,0,15,1,0
291751,307.692307692308,4,1,0,15,1,0
291753,307.692307692308,4,1,0,15,1,0
291755,307.692307692308,4,1,0,15,1,0
291757,307.692307692308,4,1,0,15,1,0
291759,307.692307692308,4,1,0,15,1,0
291761,307.692307692308,4,1,0,15,1,0
291763,-200,4,1,0,15,0,0
291840,-100,4,1,0,15,0,0
291841,307.692307692308,4,1,0,15,1,0
292225,-200,4,1,0,15,0,0
292302,-100,4,1,0,15,0,0
292918,307.692307692308,4,1,0,15,1,0
294225,-200,4,1,0,15,0,0
294302,-100,4,1,0,15,0,0
294686,-200,4,1,0,15,0,0
294763,-100,4,1,0,15,0,0
296611,307.692307692308,4,1,0,15,1,0
296613,307.692307692308,4,1,0,15,1,0
296615,307.692307692308,4,1,0,15,1,0
296617,307.692307692308,4,1,0,15,1,0
296619,307.692307692308,4,1,0,15,1,0
296621,307.692307692308,4,1,0,15,1,0
296623,307.692307692308,4,1,0,15,1,0
296625,307.692307692308,4,1,0,15,1,0
296627,307.692307692308,4,1,0,15,1,0
296629,307.692307692308,4,1,0,15,1,0
296631,307.692307692308,4,1,0,15,1,0
296633,307.692307692308,4,1,0,15,1,0
296635,307.692307692308,4,1,0,15,1,0
296637,307.692307692308,4,1,0,15,1,0
296639,307.692307692308,4,1,0,15,1,0
296641,307.692307692308,4,1,0,15,1,0
296643,307.692307692308,4,1,0,15,1,0
296645,307.692307692308,4,1,0,15,1,0
296647,307.692307692308,4,1,0,15,1,0
296649,307.692307692308,4,1,0,15,1,0
296651,307.692307692308,4,1,0,15,1,0
296653,307.692307692308,4,1,0,15,1,0
296655,307.692307692308,4,1,0,15,1,0
296657,307.692307692308,4,1,0,15,1,0
296659,307.692307692308,4,1,0,15,1,0
296661,307.692307692308,4,1,0,15,1,0
296663,307.692307692308,4,1,0,15,1,0
296665,307.692307692308,4,1,0,15,1,0
296667,307.692307692308,4,1,0,15,1,0
296669,307.692307692308,4,1,0,15,1,0
296671,307.692307692308,4,1,0,15,1,0
296673,307.692307692308,4,1,0,15,1,0
296675,307.692307692308,4,1,0,15,1,0
296677,307.692307692308,4,1,0,15,1,0
296679,307.692307692308,4,1,0,15,1,0
296681,307.692307692308,4,1,0,15,1,0
296683,307.692307692308,4,1,0,15,1,0
296685,307.692307692308,4,1,0,15,1,0
296686,-200,4,1,0,15,0,0
296763,-100,4,1,0,15,0,0
296764,307.692307692308,4,1,0,15,1,0
297148,-200,4,1,0,15,0,0
297225,-100,4,1,0,15,0,0
297841,307.692307692308,4,1,0,15,1,0
299148,-200,4,1,0,15,0,0
299225,-100,4,1,0,15,0,0
299610,-200,4,1,0,15,0,0
299686,-100,4,1,0,15,0,0
301534,307.692307692308,4,1,0,15,1,0
301536,307.692307692308,4,1,0,15,1,0
301538,307.692307692308,4,1,0,15,1,0
301540,307.692307692308,4,1,0,15,1,0
301542,307.692307692308,4,1,0,15,1,0
301544,307.692307692308,4,1,0,15,1,0
301546,307.692307692308,4,1,0,15,1,0
301548,307.692307692308,4,1,0,15,1,0
301550,307.692307692308,4,1,0,15,1,0
301552,307.692307692308,4,1,0,15,1,0
301554,307.692307692308,4,1,0,15,1,0
301556,307.692307692308,4,1,0,15,1,0
301558,307.692307692308,4,1,0,15,1,0
301560,307.692307692308,4,1,0,15,1,0
301562,307.692307692308,4,1,0,15,1,0
301564,307.692307692308,4,1,0,15,1,0
301566,307.692307692308,4,1,0,15,1,0
301568,307.692307692308,4,1,0,15,1,0
301570,307.692307692308,4,1,0,15,1,0
301572,307.692307692308,4,1,0,15,1,0
301574,307.692307692308,4,1,0,15,1,0
301576,307.692307692308,4,1,0,15,1,0
301578,307.692307692308,4,1,0,15,1,0
301580,307.692307692308,4,1,0,15,1,0
301582,307.692307692308,4,1,0,15,1,0
301584,307.692307692308,4,1,0,15,1,0
301586,307.692307692308,4,1,0,15,1,0
301588,307.692307692308,4,1,0,15,1,0
301590,307.692307692308,4,1,0,15,1,0
301592,307.692307692308,4,1,0,15,1,0
301594,307.692307692308,4,1,0,15,1,0
301596,307.692307692308,4,1,0,15,1,0
301598,307.692307692308,4,1,0,15,1,0
301600,307.692307692308,4,1,0,15,1,0
301602,307.692307692308,4,1,0,15,1,0
301604,307.692307692308,4,1,0,15,1,0
301606,307.692307692308,4,1,0,15,1,0
301608,307.692307692308,4,1,0,15,1,0
301610,-200,4,1,0,15,0,0
301686,-100,4,1,0,15,0,0
301687,307.692307692308,4,1,0,15,1,0
302071,-200,4,1,0,15,0,0
302148,-100,4,1,0,15,0,0
303995,307.692307692308,4,1,0,15,1,0
304071,-200,4,1,0,15,0,0
304148,-100,4,1,0,15,0,0
304533,-200,4,1,0,15,0,0
304610,-100,4,1,0,15,0,0
306457,307.692307692308,4,1,0,15,1,0
306459,307.692307692308,4,1,0,15,1,0
306461,307.692307692308,4,1,0,15,1,0
306463,307.692307692308,4,1,0,15,1,0
306465,307.692307692308,4,1,0,15,1,0
306467,307.692307692308,4,1,0,15,1,0
306469,307.692307692308,4,1,0,15,1,0
306471,307.692307692308,4,1,0,15,1,0
306473,307.692307692308,4,1,0,15,1,0
306475,307.692307692308,4,1,0,15,1,0
306477,307.692307692308,4,1,0,15,1,0
306479,307.692307692308,4,1,0,15,1,0
306481,307.692307692308,4,1,0,15,1,0
306483,307.692307692308,4,1,0,15,1,0
306485,307.692307692308,4,1,0,15,1,0
306487,307.692307692308,4,1,0,15,1,0
306489,307.692307692308,4,1,0,15,1,0
306491,307.692307692308,4,1,0,15,1,0
306493,307.692307692308,4,1,0,15,1,0
306495,307.692307692308,4,1,0,15,1,0
306497,307.692307692308,4,1,0,15,1,0
306499,307.692307692308,4,1,0,15,1,0
306501,307.692307692308,4,1,0,15,1,0
306503,307.692307692308,4,1,0,15,1,0
306505,307.692307692308,4,1,0,15,1,0
306507,307.692307692308,4,1,0,15,1,0
306509,307.692307692308,4,1,0,15,1,0
306511,307.692307692308,4,1,0,15,1,0
306513,307.692307692308,4,1,0,15,1,0
306515,307.692307692308,4,1,0,15,1,0
306517,307.692307692308,4,1,0,15,1,0
306519,307.692307692308,4,1,0,15,1,0
306521,307.692307692308,4,1,0,15,1,0
306523,307.692307692308,4,1,0,15,1,0
306525,307.692307692308,4,1,0,15,1,0
306527,307.692307692308,4,1,0,15,1,0
306529,307.692307692308,4,1,0,15,1,0
306531,307.692307692308,4,1,0,15,1,0
306533,-200,4,1,0,15,0,0
306610,307.692307692308,4,1,0,15,1,0
306610,-100,4,1,0,15,0,0
306994,-200,4,1,0,15,0,0
307071,-100,4,1,0,15,0,0
307687,307.692307692308,4,1,0,15,1,0
308994,-200,4,1,0,15,0,0
309071,-100,4,1,0,15,0,0
309456,-200,4,1,0,15,0,0
309513,-100,4,1,0,15,0,0
311379,-133.333333333333,4,1,0,15,0,0

[HitObjects]
448,192,0,128,0,76:0:0:0:0:
320,192,0,1,0,0:0:0:0:
320,192,230,128,0,307:0:0:0:0:
192,192,461,128,0,538:0:0:0:0:
64,192,692,128,0,769:0:0:0:0:
192,192,923,128,0,1000:0:0:0:0:
320,192,1000,128,0,1076:0:0:0:0:
192,192,1153,128,0,1230:0:0:0:0:
320,192,6148,1,0,0:0:0:0:
448,192,6148,128,0,6224:0:0:0:0:
320,192,6378,128,0,6455:0:0:0:0:
192,192,6609,128,0,6686:0:0:0:0:
64,192,6840,128,0,6917:0:0:0:0:
192,192,7692,1,0,0:0:0:0:
64,192,7692,1,0,0:0:0:0:
320,192,11072,1,0,0:0:0:0:
448,192,11072,128,0,11148:0:0:0:0:
320,192,11302,128,0,11379:0:0:0:0:
192,192,11533,128,0,11610:0:0:0:0:
64,192,11764,128,0,11841:0:0:0:0:
192,192,11995,128,0,12072:0:0:0:0:
320,192,12072,128,0,12148:0:0:0:0:
64,192,12225,128,0,12302:0:0:0:0:
192,192,13526,1,0,0:0:0:0:
448,192,15687,1,0,0:0:0:0:
64,192,15687,1,0,0:0:0:0:
320,192,15994,1,0,0:0:0:0:
448,192,15994,128,0,16071:0:0:0:0:
320,192,16225,128,0,16302:0:0:0:0:
192,192,16456,128,0,16533:0:0:0:0:
448,192,19687,1,0,0:0:0:0:
192,192,19687,1,0,0:0:0:0:
320,192,19687,1,0,0:0:0:0:
320,192,20302,1,0,0:0:0:0:
448,192,20917,1,0,0:0:0:0:
448,192,22148,1,0,0:0:0:0:
320,192,22763,1,0,0:0:0:0:
448,192,23379,1,0,0:0:0:0:
64,192,23687,1,0,0:0:0:0:
192,192,23994,1,0,0:0:0:0:
320,192,24302,1,0,0:0:0:0:
448,192,24610,1,0,0:0:0:0:
192,192,25225,1,0,0:0:0:0:
448,192,25840,1,0,0:0:0:0:
320,192,26456,1,0,0:0:0:0:
192,192,27071,1,0,0:0:0:0:
320,192,27379,1,0,0:0:0:0:
448,192,27687,1,0,0:0:0:0:
320,192,27994,1,0,0:0:0:0:
192,192,28302,1,0,0:0:0:0:
448,192,29225,1,0,0:0:0:0:
448,192,29533,1,0,0:0:0:0:
192,192,30148,1,0,0:0:0:0:
448,192,30763,1,0,0:0:0:0:
448,192,31687,1,0,0:0:0:0:
448,192,31994,1,0,0:0:0:0:
192,192,32610,1,0,0:0:0:0:
448,192,33225,1,0,0:0:0:0:
448,192,34148,1,0,0:0:0:0:
448,192,34456,1,0,0:0:0:0:
320,192,35071,1,0,0:0:0:0:
192,192,35687,1,0,0:0:0:0:
64,192,36302,1,0,0:0:0:0:
64,192,36917,1,0,0:0:0:0:
192,192,37225,1,0,0:0:0:0:
320,192,37533,1,0,0:0:0:0:
192,192,37840,1,0,0:0:0:0:
64,192,38148,1,0,0:0:0:0:
192,192,39379,1,0,0:0:0:0:
448,192,39379,1,0,0:0:0:0:
320,192,39533,1,0,0:0:0:0:
192,192,39687,1,0,0:0:0:0:
64,192,39687,1,0,0:0:0:0:
320,192,39840,1,0,0:0:0:0:
64,192,39994,1,0,0:0:0:0:
448,192,39994,1,0,0:0:0:0:
192,192,39994,1,0,0:0:0:0:
192,192,40148,1,0,0:0:0:0:
320,192,40302,1,0,0:0:0:0:
448,192,40302,1,0,0:0:0:0:
192,192,40456,1,0,0:0:0:0:
64,192,40610,1,0,0:0:0:0:
448,192,40610,1,0,0:0:0:0:
320,192,40610,1,0,0:0:0:0:
192,192,40763,1,0,0:0:0:0:
64,192,40917,1,0,0:0:0:0:
320,192,40917,1,0,0:0:0:0:
448,192,41071,1,0,0:0:0:0:
320,192,41225,1,0,0:0:0:0:
192,192,41225,1,0,0:0:0:0:
64,192,41379,1,0,0:0:0:0:
192,192,41533,1,0,0:0:0:0:
448,192,41533,1,0,0:0:0:0:
448,192,41687,1,0,0:0:0:0:
192,192,41687,1,0,0:0:0:0:
320,192,41687,1,0,0:0:0:0:
448,192,41840,1,0,0:0:0:0:
192,192,41840,1,0,0:0:0:0:
64,192,41840,1,0,0:0:0:0:
320,192,41994,1,0,0:0:0:0:
192,192,42148,1,0,0:0:0:0:
64,192,42148,1,0,0:0:0:0:
320,192,42302,1,0,0:0:0:0:
448,192,42456,1,0,0:0:0:0:
192,192,42456,1,0,0:0:0:0:
64,192,42456,1,0,0:0:0:0:
320,192,42610,1,0,0:0:0:0:
448,192,42763,1,0,0:0:0:0:
192,192,42763,1,0,0:0:0:0:
64,192,42917,1,0,0:0:0:0:
320,192,43071,1,0,0:0:0:0:
192,192,43071,1,0,0:0:0:0:
448,192,43071,1,0,0:0:0:0:
320,192,43225,1,0,0:0:0:0:
320,192,43379,1,0,0:0:0:0:
448,192,43379,1,0,0:0:0:0:
192,192,43379,1,0,0:0:0:0:
64,192,43533,1,0,0:0:0:0:
64,192,43687,1,0,0:0:0:0:
320,192,43687,1,0,0:0:0:0:
448,192,43687,1,0,0:0:0:0:
448,192,43840,1,0,0:0:0:0:
64,192,43994,1,0,0:0:0:0:
320,192,43994,1,0,0:0:0:0:
192,192,43994,1,0,0:0:0:0:
448,192,44148,1,0,0:0:0:0:
448,192,44302,1,0,0:0:0:0:
320,192,44302,1,0,0:0:0:0:
192,192,44302,1,0,0:0:0:0:
64,192,44456,1,0,0:0:0:0:
192,192,44610,1,0,0:0:0:0:
448,192,44610,1,0,0:0:0:0:
320,192,44763,1,0,0:0:0:0:
64,192,44917,1,0,0:0:0:0:
192,192,44917,1,0,0:0:0:0:
448,192,44917,1,0,0:0:0:0:
448,192,45071,1,0,0:0:0:0:
320,192,45225,1,0,0:0:0:0:
192,192,45225,1,0,0:0:0:0:
64,192,45379,1,0,0:0:0:0:
448,192,45533,1,0,0:0:0:0:
320,192,45533,1,0,0:0:0:0:
192,192,45533,1,0,0:0:0:0:
320,192,45687,1,0,0:0:0:0:
64,192,45840,1,0,0:0:0:0:
448,192,45840,1,0,0:0:0:0:
192,192,45994,1,0,0:0:0:0:
320,192,46148,1,0,0:0:0:0:
64,192,46148,1,0,0:0:0:0:
448,192,46148,1,0,0:0:0:0:
448,192,46302,1,0,0:0:0:0:
64,192,46456,1,0,0:0:0:0:
192,192,46456,1,0,0:0:0:0:
320,192,46610,1,0,0:0:0:0:
448,192,46763,1,0,0:0:0:0:
192,192,46763,1,0,0:0:0:0:
320,192,46763,1,0,0:0:0:0:
64,192,46917,1,0,0:0:0:0:
192,192,47071,1,0,0:0:0:0:
320,192,47071,1,0,0:0:0:0:
64,192,47071,1,0,0:0:0:0:
448,192,47225,1,0,0:0:0:0:
448,192,47379,1,0,0:0:0:0:
320,192,47379,1,0,0:0:0:0:
192,192,47379,1,0,0:0:0:0:
320,192,47533,1,0,0:0:0:0:
192,192,47687,1,0,0:0:0:0:
64,192,47687,1,0,0:0:0:0:
448,192,47687,1,0,0:0:0:0:
320,192,47840,1,0,0:0:0:0:
192,192,47994,1,0,0:0:0:0:
448,192,47994,128,0,49224:0:0:0:0:
320,192,49224,1,0,0:0:0:0:
64,192,49224,1,0,0:0:0:0:
192,192,49378,1,0,0:0:0:0:
448,192,49532,1,0,0:0:0:0:
320,192,49532,1,0,0:0:0:0:
64,192,49686,1,0,0:0:0:0:
192,192,49840,1,0,0:0:0:0:
320,192,49840,1,0,0:0:0:0:
448,192,49840,1,0,0:0:0:0:
64,192,49993,1,0,0:0:0:0:
320,192,50147,1,0,0:0:0:0:
192,192,50147,1,0,0:0:0:0:
448,192,50301,1,0,0:0:0:0:
320,192,50455,1,0,0:0:0:0:
192,192,50455,1,0,0:0:0:0:
64,192,50455,1,0,0:0:0:0:
448,192,50609,1,0,0:0:0:0:
64,192,50763,1,0,0:0:0:0:
320,192,50763,1,0,0:0:0:0:
192,192,50917,1,0,0:0:0:0:
320,192,51070,1,0,0:0:0:0:
448,192,51070,1,0,0:0:0:0:
192,192,51224,1,0,0:0:0:0:
320,192,51378,1,0,0:0:0:0:
64,192,51378,1,0,0:0:0:0:
448,192,51378,1,0,0:0:0:0:
448,192,51532,1,0,0:0:0:0:
320,192,51686,1,0,0:0:0:0:
192,192,51686,1,0,0:0:0:0:
64,192,51686,1,0,0:0:0:0:
64,192,51840,1,0,0:0:0:0:
320,192,51993,1,0,0:0:0:0:
448,192,51993,1,0,0:0:0:0:
192,192,52147,1,0,0:0:0:0:
320,192,52301,1,0,0:0:0:0:
64,192,52301,1,0,0:0:0:0:
448,192,52301,1,0,0:0:0:0:
192,192,52455,1,0,0:0:0:0:
320,192,52609,1,0,0:0:0:0:
64,192,52609,1,0,0:0:0:0:
192,192,52763,1,0,0:0:0:0:
448,192,52917,1,0,0:0:0:0:
320,192,52917,1,0,0:0:0:0:
64,192,52917,1,0,0:0:0:0:
448,192,53070,1,0,0:0:0:0:
64,192,53224,1,0,0:0:0:0:
320,192,53224,1,0,0:0:0:0:
64,192,53378,1,0,0:0:0:0:
192,192,53532,1,0,0:0:0:0:
320,192,53532,1,0,0:0:0:0:
448,192,53686,1,0,0:0:0:0:
448,192,53840,1,0,0:0:0:0:
320,192,53840,1,0,0:0:0:0:
192,192,53840,1,0,0:0:0:0:
64,192,53993,1,0,0:0:0:0:
64,192,54147,1,0,0:0:0:0:
192,192,54147,1,0,0:0:0:0:
320,192,54147,1,0,0:0:0:0:
448,192,54301,1,0,0:0:0:0:
64,192,54609,1,0,0:0:0:0:
448,192,54763,1,0,0:0:0:0:
320,192,54763,1,0,0:0:0:0:
192,192,54763,1,0,0:0:0:0:
192,192,54917,1,0,0:0:0:0:
448,192,55224,1,0,0:0:0:0:
64,192,55378,1,0,0:0:0:0:
192,192,55378,1,0,0:0:0:0:
320,192,55378,1,0,0:0:0:0:
320,192,55532,1,0,0:0:0:0:
320,192,55840,1,0,0:0:0:0:
448,192,55993,1,0,0:0:0:0:
64,192,55993,1,0,0:0:0:0:
320,192,55993,128,0,57840:0:0:0:0:
448,192,56147,1,0,0:0:0:0:
64,192,56455,1,0,0:0:0:0:
448,192,56609,1,0,0:0:0:0:
192,192,56609,1,0,0:0:0:0:
192,192,56763,1,0,0:0:0:0:
448,192,56917,1,0,0:0:0:0:
64,192,56917,1,0,0:0:0:0:
192,192,57070,1,0,0:0:0:0:
448,192,57224,1,0,0:0:0:0:
64,192,57224,1,0,0:0:0:0:
448,192,57378,1,0,0:0:0:0:
192,192,57532,1,0,0:0:0:0:
64,192,57532,1,0,0:0:0:0:
448,192,57686,1,0,0:0:0:0:
448,192,57840,1,0,0:0:0:0:
192,192,57840,1,0,0:0:0:0:
64,192,57840,1,0,0:0:0:0:
320,192,59070,1,0,0:0:0:0:
192,192,59070,1,0,0:0:0:0:
320,192,59224,1,0,0:0:0:0:
192,192,59224,1,0,0:0:0:0:
448,192,59378,1,0,0:0:0:0:
320,192,59378,1,0,0:0:0:0:
192,192,59378,1,0,0:0:0:0:
64,192,59532,1,0,0:0:0:0:
320,192,59609,1,0,0:0:0:0:
448,192,59609,1,0,0:0:0:0:
192,192,59686,1,0,0:0:0:0:
64,192,59763,1,0,0:0:0:0:
320,192,59763,1,0,0:0:0:0:
448,192,59839,1,0,0:0:0:0:
192,192,59839,1,0,0:0:0:0:
320,192,59993,1,0,0:0:0:0:
192,192,59993,1,0,0:0:0:0:
64,192,59993,1,0,0:0:0:0:
448,192,60147,1,0,0:0:0:0:
192,192,60224,1,0,0:0:0:0:
320,192,60301,1,0,0:0:0:0:
64,192,60301,1,0,0:0:0:0:
448,192,60378,1,0,0:0:0:0:
320,192,60455,1,0,0:0:0:0:
192,192,60455,1,0,0:0:0:0:
448,192,60609,1,0,0:0:0:0:
64,192,60609,1,0,0:0:0:0:
320,192,60609,1,0,0:0:0:0:
192,192,60763,1,0,0:0:0:0:
448,192,60839,1,0,0:0:0:0:
320,192,60839,1,0,0:0:0:0:
192,192,60916,1,0,0:0:0:0:
320,192,60993,1,0,0:0:0:0:
64,192,60993,1,0,0:0:0:0:
448,192,61070,1,0,0:0:0:0:
320,192,61224,1,0,0:0:0:0:
64,192,61224,1,0,0:0:0:0:
448,192,61224,1,0,0:0:0:0:
448,192,61378,1,0,0:0:0:0:
192,192,61455,1,0,0:0:0:0:
320,192,61455,1,0,0:0:0:0:
64,192,61532,1,0,0:0:0:0:
448,192,61532,1,0,0:0:0:0:
320,192,61686,1,0,0:0:0:0:
192,192,61686,1,0,0:0:0:0:
448,192,61839,1,0,0:0:0:0:
64,192,61839,1,0,0:0:0:0:
320,192,61839,1,0,0:0:0:0:
192,192,61993,1,0,0:0:0:0:
320,192,62070,1,0,0:0:0:0:
448,192,62070,1,0,0:0:0:0:
64,192,62147,1,0,0:0:0:0:
192,192,62147,1,0,0:0:0:0:
320,192,62224,1,0,0:0:0:0:
448,192,62224,1,0,0:0:0:0:
192,192,62301,1,0,0:0:0:0:
64,192,62301,1,0,0:0:0:0:
448,192,62455,1,0,0:0:0:0:
64,192,62455,1,0,0:0:0:0:
192,192,62455,1,0,0:0:0:0:
320,192,62609,1,0,0:0:0:0:
64,192,62686,1,0,0:0:0:0:
320,192,62763,1,0,0:0:0:0:
192,192,62763,1,0,0:0:0:0:
448,192,62839,1,0,0:0:0:0:
64,192,62839,1,0,0:0:0:0:
320,192,62916,1,0,0:0:0:0:
192,192,62916,1,0,0:0:0:0:
192,192,63070,1,0,0:0:0:0:
64,192,63070,1,0,0:0:0:0:
320,192,63070,1,0,0:0:0:0:
448,192,63224,1,0,0:0:0:0:
320,192,63301,1,0,0:0:0:0:
448,192,63378,1,0,0:0:0:0:
320,192,63378,1,0,0:0:0:0:
192,192,63378,1,0,0:0:0:0:
64,192,63378,1,0,0:0:0:0:
192,192,63532,1,0,0:0:0:0:
448,192,63686,1,0,0:0:0:0:
64,192,63686,1,0,0:0:0:0:
320,192,63686,1,0,0:0:0:0:
320,192,63839,1,0,0:0:0:0:
192,192,63916,1,0,0:0:0:0:
320,192,63993,1,0,0:0:0:0:
448,192,63993,128,0,64070:0:0:0:0:
320,192,64147,1,0,0:0:0:0:
192,192,64147,1,0,0:0:0:0:
64,192,64301,1,0,0:0:0:0:
192,192,64301,1,0,0:0:0:0:
448,192,64301,128,0,64378:0:0:0:0:
320,192,64378,128,0,64455:0:0:0:0:
192,192,64455,128,0,64532:0:0:0:0:
64,192,64532,128,0,64609:0:0:0:0:
448,192,64609,1,0,0:0:0:0:
320,192,64609,1,0,0:0:0:0:
192,192,64686,1,0,0:0:0:0:
64,192,64686,1,0,0:0:0:0:
320,192,64763,1,0,0:0:0:0:
448,192,64763,1,0,0:0:0:0:
192,192,64839,128,0,64916:0:0:0:0:
64,192,64916,1,0,0:0:0:0:
448,192,64916,1,0,0:0:0:0:
320,192,65070,128,0,65147:0:0:0:0:
448,192,65070,1,0,0:0:0:0:
64,192,65147,1,0,0:0:0:0:
192,192,65224,128,0,65378:0:0:0:0:
448,192,65378,128,0,65532:0:0:0:0:
320,192,65532,128,0,65686:0:0:0:0:
192,192,65686,128,0,65839:0:0:0:0:
64,192,65839,128,0,65993:0:0:0:0:
192,192,65993,128,0,66147:0:0:0:0:
320,192,66147,128,0,66301:0:0:0:0:
448,192,66301,128,0,66455:0:0:0:0:
64,192,66455,1,0,0:0:0:0:
192,192,66455,128,0,66532:0:0:0:0:
320,192,66609,1,0,0:0:0:0:
448,192,66609,1,0,0:0:0:0:
64,192,66763,1,0,0:0:0:0:
448,192,66763,128,0,66839:0:0:0:0:
320,192,66839,128,0,66916:0:0:0:0:
192,192,66916,128,0,66993:0:0:0:0:
448,192,66993,128,0,67070:0:0:0:0:
192,192,67070,1,0,0:0:0:0:
64,192,67070,128,0,67147:0:0:0:0:
320,192,67147,1,0,0:0:0:0:
448,192,67147,1,0,0:0:0:0:
192,192,67224,1,0,0:0:0:0:
64,192,67224,1,0,0:0:0:0:
448,192,67301,128,0,67378:0:0:0:0:
320,192,67378,1,0,0:0:0:0:
192,192,67378,1,0,0:0:0:0:
320,192,67532,128,0,67609:0:0:0:0:
448,192,67532,1,0,0:0:0:0:
64,192,67609,1,0,0:0:0:0:
192,192,67686,128,0,67839:0:0:0:0:
448,192,67686,1,0,0:0:0:0:
64,192,67763,1,0,0:0:0:0:
448,192,67839,128,0,67993:0:0:0:0:
320,192,67839,1,0,0:0:0:0:
320,192,67993,128,0,68147:0:0:0:0:
64,192,67993,1,0,0:0:0:0:
192,192,67993,1,0,0:0:0:0:
64,192,68147,1,0,0:0:0:0:
192,192,68147,128,0,68301:0:0:0:0:
448,192,68224,1,0,0:0:0:0:
64,192,68301,128,0,68455:0:0:0:0:
320,192,68301,1,0,0:0:0:0:
448,192,68378,1,0,0:0:0:0:
192,192,68455,128,0,68609:0:0:0:0:
320,192,68455,1,0,0:0:0:0:
320,192,68609,128,0,68763:0:0:0:0:
64,192,68609,1,0,0:0:0:0:
448,192,68609,1,0,0:0:0:0:
448,192,68763,128,0,68916:0:0:0:0:
192,192,68763,1,0,0:0:0:0:
64,192,68839,1,0,0:0:0:0:
320,192,68916,128,0,68993:0:0:0:0:
192,192,68916,1,0,0:0:0:0:
192,192,69070,1,0,0:0:0:0:
320,192,69224,1,0,0:0:0:0:
448,192,69224,128,0,69301:0:0:0:0:
64,192,69301,128,0,69378:0:0:0:0:
192,192,69378,128,0,69455:0:0:0:0:
320,192,69455,128,0,69532:0:0:0:0:
64,192,69532,1,0,0:0:0:0:
448,192,69532,128,0,69609:0:0:0:0:
192,192,69609,1,0,0:0:0:0:
64,192,69686,1,0,0:0:0:0:
320,192,69686,1,0,0:0:0:0:
448,192,69763,128,0,69839:0:0:0:0:
320,192,69839,1,0,0:0:0:0:
64,192,69839,1,0,0:0:0:0:
192,192,69993,1,0,0:0:0:0:
448,192,69993,128,0,70070:0:0:0:0:
64,192,70070,1,0,0:0:0:0:
192,192,70147,128,0,70301:0:0:0:0:
448,192,70301,128,0,70455:0:0:0:0:
320,192,70455,128,0,70609:0:0:0:0:
192,192,70609,128,0,70763:0:0:0:0:
64,192,70763,128,0,70916:0:0:0:0:
192,192,70916,128,0,71070:0:0:0:0:
320,192,71070,128,0,71224:0:0:0:0:
448,192,71224,128,0,71378:0:0:0:0:
64,192,71378,1,0,0:0:0:0:
320,192,71378,128,0,71455:0:0:0:0:
192,192,71532,1,0,0:0:0:0:
448,192,71532,1,0,0:0:0:0:
192,192,71686,128,0,71763:0:0:0:0:
64,192,71686,1,0,0:0:0:0:
320,192,71686,1,0,0:0:0:0:
448,192,71763,128,0,71839:0:0:0:0:
320,192,71839,128,0,71916:0:0:0:0:
192,192,71916,128,0,71993:0:0:0:0:
64,192,71993,128,0,72070:0:0:0:0:
448,192,71993,1,0,0:0:0:0:
320,192,72070,1,0,0:0:0:0:
192,192,72147,1,0,0:0:0:0:
448,192,72147,1,0,0:0:0:0:
320,192,72224,128,0,72301:0:0:0:0:
192,192,72301,1,0,0:0:0:0:
64,192,72301,1,0,0:0:0:0:
448,192,72455,128,0,72532:0:0:0:0:
64,192,72532,1,0,0:0:0:0:
192,192,72609,128,0,72763:0:0:0:0:
320,192,72609,128,0,72647:0:0:0:0:
448,192,72763,128,0,72916:0:0:0:0:
64,192,72839,128,0,72878:0:0:0:0:
320,192,72916,128,0,73070:0:0:0:0:
192,192,73070,128,0,73224:0:0:0:0:
448,192,73070,128,0,73109:0:0:0:0:
64,192,73224,128,0,73378:0:0:0:0:
320,192,73224,128,0,73378:0:0:0:0:
192,192,73378,128,0,73532:0:0:0:0:
320,192,73532,128,0,73686:0:0:0:0:
448,192,73686,128,0,73839:0:0:0:0:
192,192,73839,1,0,0:0:0:0:
64,192,73839,1,0,0:0:0:0:
320,192,73839,128,0,73878:0:0:0:0:
448,192,73993,1,0,0:0:0:0:
64,192,74147,1,0,0:0:0:0:
448,192,74147,1,0,0:0:0:0:
192,192,74147,128,0,74186:0:0:0:0:
320,192,74301,1,0,0:0:0:0:
192,192,74455,1,0,0:0:0:0:
448,192,74455,1,0,0:0:0:0:
320,192,74455,128,0,74493:0:0:0:0:
448,192,74609,128,0,74686:0:0:0:0:
64,192,74763,1,0,0:0:0:0:
192,192,74763,1,0,0:0:0:0:
320,192,74763,128,0,74801:0:0:0:0:
64,192,74916,1,0,0:0:0:0:
320,192,75070,1,0,0:0:0:0:
192,192,75070,1,0,0:0:0:0:
448,192,75070,128,0,75109:0:0:0:0:
320,192,75224,1,0,0:0:0:0:
64,192,75378,1,0,0:0:0:0:
448,192,75378,1,0,0:0:0:0:
192,192,75378,128,0,75416:0:0:0:0:
320,192,75532,1,0,0:0:0:0:
448,192,75686,1,0,0:0:0:0:
64,192,75686,1,0,0:0:0:0:
320,192,75686,128,0,75724:0:0:0:0:
192,192,75839,1,0,0:0:0:0:
64,192,75993,1,0,0:0:0:0:
448,192,75993,1,0,0:0:0:0:
192,192,75993,128,0,76032:0:0:0:0:
320,192,76147,1,0,0:0:0:0:
320,192,76301,1,0,0:0:0:0:
192,192,76301,128,0,76339:0:0:0:0:
64,192,76301,1,0,0:0:0:0:
448,192,76455,1,0,0:0:0:0:
192,192,76609,1,0,0:0:0:0:
448,192,76609,1,0,0:0:0:0:
64,192,76609,128,0,76647:0:0:0:0:
320,192,76763,128,0,76801:0:0:0:0:
192,192,76916,1,0,0:0:0:0:
448,192,76916,1,0,0:0:0:0:
320,192,76916,1,0,0:0:0:0:
64,192,77070,1,0,0:0:0:0:
448,192,77224,1,0,0:0:0:0:
64,192,77224,1,0,0:0:0:0:
192,192,77224,128,0,77263:0:0:0:0:
320,192,77378,128,0,77416:0:0:0:0:
320,192,77532,128,0,77686:0:0:0:0:
192,192,77532,128,0,77686:0:0:0:0:
64,192,77532,128,0,77686:0:0:0:0:
320,192,77763,128,0,77916:0:0:0:0:
192,192,77763,128,0,77916:0:0:0:0:
64,192,77763,128,0,77916:0:0:0:0:
448,192,78147,128,0,78301:0:0:0:0:
320,192,78147,128,0,78301:0:0:0:0:
192,192,78147,128,0,78301:0:0:0:0:
448,192,78378,128,0,78532:0:0:0:0:
320,192,78378,128,0,78532:0:0:0:0:
192,192,78378,128,0,78532:0:0:0:0:
64,192,78609,1,0,0:0:0:0:
64,192,78763,1,0,0:0:0:0:
320,192,78763,1,0,0:0:0:0:
448,192,78763,128,0,78801:0:0:0:0:
192,192,78916,1,0,0:0:0:0:
64,192,79070,1,0,0:0:0:0:
192,192,79070,1,0,0:0:0:0:
320,192,79070,128,0,79109:0:0:0:0:
448,192,79224,1,0,0:0:0:0:
448,192,79378,1,0,0:0:0:0:
320,192,79378,1,0,0:0:0:0:
192,192,79378,128,0,79416:0:0:0:0:
320,192,79532,128,0,79609:0:0:0:0:
192,192,79686,1,0,0:0:0:0:
448,192,79686,1,0,0:0:0:0:
64,192,79686,128,0,79724:0:0:0:0:
448,192,79839,1,0,0:0:0:0:
192,192,79993,1,0,0:0:0:0:
448,192,79993,1,0,0:0:0:0:
320,192,79993,128,0,80032:0:0:0:0:
192,192,80147,1,0,0:0:0:0:
320,192,80301,1,0,0:0:0:0:
448,192,80301,1,0,0:0:0:0:
64,192,80301,128,0,80339:0:0:0:0:
192,192,80455,1,0,0:0:0:0:
448,192,80609,128,0,80647:0:0:0:0:
192,192,80609,1,0,0:0:0:0:
64,192,80609,1,0,0:0:0:0:
320,192,80763,1,0,0:0:0:0:
320,192,80916,128,0,80955:0:0:0:0:
192,192,80916,1,0,0:0:0:0:
448,192,80916,1,0,0:0:0:0:
192,192,81070,1,0,0:0:0:0:
64,192,81224,1,0,0:0:0:0:
320,192,81224,1,0,0:0:0:0:
192,192,81224,128,0,81263:0:0:0:0:
448,192,81378,1,0,0:0:0:0:
320,192,81532,128,0,81570:0:0:0:0:
192,192,81532,1,0,0:0:0:0:
448,192,81532,1,0,0:0:0:0:
64,192,81686,1,0,0:0:0:0:
320,192,81686,1,0,0:0:0:0:
192,192,81686,128,0,81724:0:0:0:0:
320,192,81993,1,0,0:0:0:0:
448,192,81993,1,0,0:0:0:0:
64,192,81993,1,0,0:0:0:0:
192,192,82147,1,0,0:0:0:0:
448,192,82147,1,0,0:0:0:0:
320,192,82147,128,0,82186:0:0:0:0:
64,192,82301,1,0,0:0:0:0:
192,192,82301,128,0,82339:0:0:0:0:
320,192,82301,1,0,0:0:0:0:
64,192,82609,128,0,82647:0:0:0:0:
192,192,82609,1,0,0:0:0:0:
448,192,82609,1,0,0:0:0:0:
192,192,82763,128,0,82801:0:0:0:0:
64,192,82763,1,0,0:0:0:0:
448,192,82763,1,0,0:0:0:0:
64,192,82916,128,0,82955:0:0:0:0:
192,192,82916,1,0,0:0:0:0:
320,192,82916,1,0,0:0:0:0:
448,192,83224,1,0,0:0:0:0:
320,192,83224,128,0,83263:0:0:0:0:
64,192,83224,1,0,0:0:0:0:
320,192,83378,1,0,0:0:0:0:
448,192,83378,128,0,83416:0:0:0:0:
64,192,83378,1,0,0:0:0:0:
192,192,83532,1,0,0:0:0:0:
448,192,83532,1,0,0:0:0:0:
320,192,83532,128,0,83570:0:0:0:0:
448,192,83686,1,0,0:0:0:0:
64,192,83686,128,0,83839:0:0:0:0:
192,192,83686,1,0,0:0:0:0:
320,192,83686,1,0,0:0:0:0:
192,192,83839,128,0,83993:0:0:0:0:
320,192,83993,128,0,84147:0:0:0:0:
448,192,84147,128,0,84301:0:0:0:0:
320,192,84301,128,0,84455:0:0:0:0:
64,192,84455,128,0,84609:0:0:0:0:
192,192,84609,128,0,84763:0:0:0:0:
320,192,84763,128,0,84916:0:0:0:0:
448,192,84916,128,0,85070:0:0:0:0:
320,192,85070,128,0,85224:0:0:0:0:
448,192,85530,1,0,0:0:0:0:
192,192,85530,1,0,0:0:0:0:
448,192,85836,1,0,0:0:0:0:
64,192,85836,1,0,0:0:0:0:
64,192,86143,128,0,86297:0:0:0:0:
192,192,86297,128,0,86451:0:0:0:0:
320,192,86451,128,0,86605:0:0:0:0:
448,192,86605,128,0,86759:0:0:0:0:
320,192,86759,128,0,86913:0:0:0:0:
64,192,86913,128,0,87067:0:0:0:0:
192,192,87067,128,0,87220:0:0:0:0:
320,192,87220,128,0,87374:0:0:0:0:
448,192,87374,128,0,87528:0:0:0:0:
320,192,87528,128,0,87682:0:0:0:0:
192,192,87988,1,0,0:0:0:0:
64,192,87988,1,0,0:0:0:0:
448,192,88294,1,0,0:0:0:0:
320,192,88294,1,0,0:0:0:0:
64,192,88600,128,0,88754:0:0:0:0:
192,192,88754,128,0,88908:0:0:0:0:
320,192,88908,128,0,89062:0:0:0:0:
448,192,89062,128,0,89216:0:0:0:0:
320,192,89216,128,0,89370:0:0:0:0:
64,192,89370,128,0,89524:0:0:0:0:
192,192,89524,128,0,89677:0:0:0:0:
320,192,89677,128,0,89831:0:0:0:0:
448,192,89831,128,0,89985:0:0:0:0:
320,192,89985,128,0,90139:0:0:0:0:
64,192,90445,1,0,0:0:0:0:
320,192,90445,1,0,0:0:0:0:
192,192,90751,1,0,0:0:0:0:
448,192,90751,1,0,0:0:0:0:
64,192,91057,128,0,91211:0:0:0:0:
192,192,91211,128,0,91365:0:0:0:0:
320,192,91365,128,0,91519:0:0:0:0:
448,192,91519,128,0,91673:0:0:0:0:
320,192,91673,128,0,91827:0:0:0:0:
64,192,91827,128,0,91981:0:0:0:0:
192,192,91981,128,0,92134:0:0:0:0:
320,192,92134,128,0,92288:0:0:0:0:
448,192,92288,128,0,92442:0:0:0:0:
320,192,92442,128,0,92596:0:0:0:0:
320,192,93519,1,0,0:0:0:0:
64,192,93519,128,0,93672:0:0:0:0:
448,192,93519,1,0,0:0:0:0:
192,192,93672,128,0,93826:0:0:0:0:
320,192,93826,128,0,93980:0:0:0:0:
64,192,93826,1,0,0:0:0:0:
448,192,93826,1,0,0:0:0:0:
448,192,93980,128,0,94134:0:0:0:0:
320,192,94134,128,0,94288:0:0:0:0:
64,192,94134,1,0,0:0:0:0:
192,192,94134,1,0,0:0:0:0:
192,192,94288,128,0,94442:0:0:0:0:
64,192,94442,128,0,94595:0:0:0:0:
320,192,94442,1,0,0:0:0:0:
448,192,94442,1,0,0:0:0:0:
192,192,94595,128,0,94749:0:0:0:0:
64,192,94749,128,0,94903:0:0:0:0:
448,192,94749,1,0,0:0:0:0:
320,192,94749,1,0,0:0:0:0:
192,192,94903,128,0,95057:0:0:0:0:
320,192,95057,128,0,95211:0:0:0:0:
64,192,95057,1,0,0:0:0:0:
448,192,95057,1,0,0:0:0:0:
448,192,95211,128,0,95365:0:0:0:0:
320,192,95365,128,0,95519:0:0:0:0:
64,192,95365,1,0,0:0:0:0:
192,192,95365,1,0,0:0:0:0:
192,192,95519,128,0,95672:0:0:0:0:
448,192,95519,1,0,0:0:0:0:
64,192,95519,1,0,0:0:0:0:
64,192,95672,128,0,95826:0:0:0:0:
320,192,95672,1,0,0:0:0:0:
448,192,95672,1,0,0:0:0:0:
192,192,95826,128,0,95980:0:0:0:0:
448,192,95826,1,0,0:0:0:0:
320,192,95826,1,0,0:0:0:0:
64,192,95980,128,0,96134:0:0:0:0:
320,192,95980,1,0,0:0:0:0:
448,192,95980,1,0,0:0:0:0:
192,192,96134,128,0,96288:0:0:0:0:
320,192,96288,128,0,96442:0:0:0:0:
64,192,96288,1,0,0:0:0:0:
448,192,96288,1,0,0:0:0:0:
448,192,96442,128,0,96595:0:0:0:0:
320,192,96595,128,0,96749:0:0:0:0:
192,192,96595,1,0,0:0:0:0:
64,192,96595,1,0,0:0:0:0:
192,192,96749,128,0,96903:0:0:0:0:
64,192,96903,128,0,97057:0:0:0:0:
448,192,96903,1,0,0:0:0:0:
320,192,96903,1,0,0:0:0:0:
192,192,97057,128,0,97211:0:0:0:0:
64,192,97211,128,0,97519:0:0:0:0:
448,192,97211,1,0,0:0:0:0:
192,192,97519,128,0,97826:0:0:0:0:
320,192,97519,1,0,0:0:0:0:
448,192,97826,128,0,98134:0:0:0:0:
64,192,97826,1,0,0:0:0:0:
192,192,98134,1,0,0:0:0:0:
320,192,98134,128,0,98442:0:0:0:0:
64,192,98442,128,0,98595:0:0:0:0:
448,192,98442,1,0,0:0:0:0:
192,192,98442,1,0,0:0:0:0:
192,192,98595,128,0,98749:0:0:0:0:
320,192,98749,128,0,98903:0:0:0:0:
64,192,98749,1,0,0:0:0:0:
448,192,98749,1,0,0:0:0:0:
448,192,98903,128,0,99057:0:0:0:0:
320,192,99057,128,0,99211:0:0:0:0:
64,192,99057,1,0,0:0:0:0:
192,192,99057,1,0,0:0:0:0:
192,192,99211,128,0,99365:0:0:0:0:
64,192,99365,128,0,99519:0:0:0:0:
320,192,99365,1,0,0:0:0:0:
448,192,99365,1,0,0:0:0:0:
192,192,99519,128,0,99672:0:0:0:0:
64,192,99672,128,0,99826:0:0:0:0:
448,192,99672,1,0,0:0:0:0:
320,192,99672,1,0,0:0:0:0:
192,192,99826,128,0,99980:0:0:0:0:
320,192,99980,128,0,100134:0:0:0:0:
64,192,99980,1,0,0:0:0:0:
448,192,99980,1,0,0:0:0:0:
448,192,100134,128,0,100288:0:0:0:0:
320,192,100288,128,0,100442:0:0:0:0:
64,192,100288,1,0,0:0:0:0:
192,192,100288,1,0,0:0:0:0:
192,192,100442,128,0,100595:0:0:0:0:
64,192,100595,128,0,100749:0:0:0:0:
320,192,100595,1,0,0:0:0:0:
448,192,100595,1,0,0:0:0:0:
192,192,100749,128,0,100903:0:0:0:0:
64,192,100903,128,0,101057:0:0:0:0:
320,192,100903,1,0,0:0:0:0:
448,192,100903,1,0,0:0:0:0:
192,192,101057,128,0,101211:0:0:0:0:
320,192,101211,128,0,101365:0:0:0:0:
64,192,101211,1,0,0:0:0:0:
448,192,101211,1,0,0:0:0:0:
448,192,101365,128,0,101519:0:0:0:0:
320,192,101519,128,0,101672:0:0:0:0:
192,192,101519,1,0,0:0:0:0:
64,192,101519,1,0,0:0:0:0:
192,192,101672,128,0,101826:0:0:0:0:
64,192,101826,128,0,101980:0:0:0:0:
448,192,101826,1,0,0:0:0:0:
320,192,101826,1,0,0:0:0:0:
192,192,101980,128,0,102134:0:0:0:0:
448,192,102134,1,0,0:0:0:0:
64,192,102134,128,0,102442:0:0:0:0:
320,192,102134,1,0,0:0:0:0:
192,192,102442,128,0,102749:0:0:0:0:
320,192,102595,1,0,0:0:0:0:
448,192,102749,128,0,103057:0:0:0:0:
192,192,102903,1,0,0:0:0:0:
320,192,103057,128,0,103365:0:0:0:0:
64,192,103211,1,0,0:0:0:0:
64,192,103365,128,0,103519:0:0:0:0:
448,192,103365,1,0,0:0:0:0:
192,192,103365,1,0,0:0:0:0:
192,192,103519,128,0,103672:0:0:0:0:
320,192,103672,128,0,103826:0:0:0:0:
64,192,103672,1,0,0:0:0:0:
448,192,103672,1,0,0:0:0:0:
448,192,103826,128,0,103980:0:0:0:0:
320,192,103980,128,0,104134:0:0:0:0:
64,192,103980,1,0,0:0:0:0:
192,192,103980,1,0,0:0:0:0:
192,192,104134,128,0,104288:0:0:0:0:
64,192,104288,128,0,104442:0:0:0:0:
320,192,104288,1,0,0:0:0:0:
448,192,104288,1,0,0:0:0:0:
192,192,104442,128,0,104595:0:0:0:0:
64,192,104595,128,0,104749:0:0:0:0:
448,192,104595,1,0,0:0:0:0:
320,192,104595,1,0,0:0:0:0:
192,192,104749,128,0,104903:0:0:0:0:
320,192,104903,1,0,0:0:0:0:
64,192,104903,128,0,105057:0:0:0:0:
448,192,104903,1,0,0:0:0:0:
192,192,105057,128,0,105211:0:0:0:0:
64,192,105211,128,0,105365:0:0:0:0:
320,192,105211,1,0,0:0:0:0:
448,192,105211,1,0,0:0:0:0:
192,192,105365,128,0,105519:0:0:0:0:
320,192,105519,128,0,105672:0:0:0:0:
448,192,105519,1,0,0:0:0:0:
64,192,105519,1,0,0:0:0:0:
192,192,105672,128,0,105826:0:0:0:0:
64,192,105826,128,0,105980:0:0:0:0:
320,192,105826,1,0,0:0:0:0:
448,192,105826,1,0,0:0:0:0:
192,192,105980,128,0,106134:0:0:0:0:
320,192,106134,128,0,106288:0:0:0:0:
64,192,106134,1,0,0:0:0:0:
448,192,106134,1,0,0:0:0:0:
448,192,106288,128,0,106442:0:0:0:0:
320,192,106442,128,0,106595:0:0:0:0:
192,192,106442,1,0,0:0:0:0:
64,192,106442,1,0,0:0:0:0:
192,192,106595,128,0,106749:0:0:0:0:
64,192,106749,128,0,106903:0:0:0:0:
448,192,106749,1,0,0:0:0:0:
320,192,106749,1,0,0:0:0:0:
448,192,106903,128,0,107057:0:0:0:0:
320,192,107057,128,0,107365:0:0:0:0:
64,192,107057,128,0,107211:0:0:0:0:
192,192,107211,128,0,107365:0:0:0:0:
448,192,107365,128,0,107672:0:0:0:0:
64,192,107365,128,0,107519:0:0:0:0:
192,192,107519,128,0,107672:0:0:0:0:
320,192,107672,128,0,107980:0:0:0:0:
64,192,107672,128,0,107826:0:0:0:0:
192,192,107826,128,0,107980:0:0:0:0:
64,192,107980,128,0,108134:0:0:0:0:
448,192,107980,128,0,108288:0:0:0:0:
192,192,108134,128,0,108288:0:0:0:0:
320,192,108288,1,0,0:0:0:0:
64,192,108288,128,0,108442:0:0:0:0:
192,192,108442,128,0,108595:0:0:0:0:
448,192,108595,1,0,0:0:0:0:
64,192,108595,1,0,0:0:0:0:
320,192,108595,128,0,108749:0:0:0:0:
448,192,108749,128,0,108903:0:0:0:0:
192,192,108903,1,0,0:0:0:0:
64,192,108903,1,0,0:0:0:0:
320,192,108903,128,0,109057:0:0:0:0:
192,192,109057,128,0,109211:0:0:0:0:
448,192,109211,1,0,0:0:0:0:
320,192,109211,1,0,0:0:0:0:
64,192,109211,128,0,109365:0:0:0:0:
192,192,109365,128,0,109519:0:0:0:0:
320,192,109519,1,0,0:0:0:0:
448,192,109519,1,0,0:0:0:0:
64,192,109519,128,0,109672:0:0:0:0:
192,192,109672,128,0,109826:0:0:0:0:
448,192,109826,1,0,0:0:0:0:
320,192,109826,1,0,0:0:0:0:
64,192,109826,128,0,109980:0:0:0:0:
192,192,109980,128,0,110134:0:0:0:0:
320,192,110134,1,0,0:0:0:0:
64,192,110134,128,0,110288:0:0:0:0:
448,192,110134,1,0,0:0:0:0:
192,192,110288,128,0,110442:0:0:0:0:
448,192,110442,1,0,0:0:0:0:
320,192,110442,128,0,110595:0:0:0:0:
64,192,110442,1,0,0:0:0:0:
192,192,110595,128,0,110749:0:0:0:0:
448,192,110749,1,0,0:0:0:0:
320,192,110749,1,0,0:0:0:0:
64,192,110749,128,0,110903:0:0:0:0:
192,192,110903,128,0,111057:0:0:0:0:
448,192,111057,1,0,0:0:0:0:
64,192,111057,1,0,0:0:0:0:
320,192,111057,128,0,111211:0:0:0:0:
448,192,111211,128,0,111365:0:0:0:0:
64,192,111365,1,0,0:0:0:0:
192,192,111365,1,0,0:0:0:0:
320,192,111365,128,0,111519:0:0:0:0:
192,192,111519,128,0,111672:0:0:0:0:
320,192,111672,1,0,0:0:0:0:
448,192,111672,1,0,0:0:0:0:
64,192,111672,128,0,111826:0:0:0:0:
192,192,111826,128,0,111980:0:0:0:0:
320,192,111980,1,0,0:0:0:0:
448,192,111980,1,0,0:0:0:0:
192,192,112365,1,0,0:0:0:0:
320,192,112442,1,0,0:0:0:0:
448,192,112595,1,0,0:0:0:0:
448,192,112826,1,0,0:0:0:0:
448,192,113057,1,0,0:0:0:0:
64,192,113211,1,0,0:0:0:0:
192,192,113211,1,0,0:0:0:0:
320,192,113211,1,0,0:0:0:0:
448,192,113288,1,0,0:0:0:0:
192,192,113365,128,0,113403:0:0:0:0:
64,192,113442,1,0,0:0:0:0:
320,192,113519,1,0,0:0:0:0:
448,192,113519,1,0,0:0:0:0:
192,192,113595,1,0,0:0:0:0:
320,192,113672,128,0,113711:0:0:0:0:
448,192,113749,1,0,0:0:0:0:
192,192,113826,1,0,0:0:0:0:
64,192,113826,1,0,0:0:0:0:
320,192,113903,1,0,0:0:0:0:
64,192,113980,128,0,114019:0:0:0:0:
192,192,114057,1,0,0:0:0:0:
320,192,114134,1,0,0:0:0:0:
448,192,114134,1,0,0:0:0:0:
192,192,114211,1,0,0:0:0:0:
64,192,114288,128,0,114326:0:0:0:0:
320,192,114365,1,0,0:0:0:0:
192,192,114442,1,0,0:0:0:0:
64,192,114442,1,0,0:0:0:0:
448,192,114519,1,0,0:0:0:0:
320,192,114595,128,0,114634:0:0:0:0:
64,192,114672,1,0,0:0:0:0:
320,192,114749,1,0,0:0:0:0:
448,192,114749,1,0,0:0:0:0:
64,192,114826,1,0,0:0:0:0:
320,192,114903,128,0,114942:0:0:0:0:
448,192,114980,1,0,0:0:0:0:
64,192,115057,1,0,0:0:0:0:
192,192,115057,1,0,0:0:0:0:
320,192,115134,1,0,0:0:0:0:
192,192,115211,128,0,115249:0:0:0:0:
64,192,115288,1,0,0:0:0:0:
320,192,115365,1,0,0:0:0:0:
448,192,115365,1,0,0:0:0:0:
192,192,115442,1,0,0:0:0:0:
448,192,115519,128,0,115557:0:0:0:0:
320,192,115595,1,0,0:0:0:0:
192,192,115672,1,0,0:0:0:0:
64,192,115672,1,0,0:0:0:0:
448,192,115749,1,0,0:0:0:0:
64,192,115826,128,0,115865:0:0:0:0:
192,192,115903,1,0,0:0:0:0:
320,192,115980,1,0,0:0:0:0:
448,192,115980,1,0,0:0:0:0:
192,192,116057,1,0,0:0:0:0:
320,192,116134,128,0,116172:0:0:0:0:
448,192,116211,1,0,0:0:0:0:
192,192,116288,1,0,0:0:0:0:
64,192,116288,1,0,0:0:0:0:
448,192,116365,1,0,0:0:0:0:
192,192,116442,128,0,116480:0:0:0:0:
64,192,116519,1,0,0:0:0:0:
320,192,116595,1,0,0:0:0:0:
448,192,116595,1,0,0:0:0:0:
192,192,116672,1,0,0:0:0:0:
448,192,116749,128,0,116788:0:0:0:0:
320,192,116826,1,0,0:0:0:0:
64,192,116903,1,0,0:0:0:0:
192,192,116942,1,0,0:0:0:0:
320,192,116980,1,0,0:0:0:0:
448,192,117019,1,0,0:0:0:0:
64,192,117057,1,0,0:0:0:0:
192,192,117095,1,0,0:0:0:0:
320,192,117134,1,0,0:0:0:0:
448,192,117172,1,0,0:0:0:0:
64,192,117211,1,0,0:0:0:0:
192,192,117249,1,0,0:0:0:0:
320,192,117288,1,0,0:0:0:0:
448,192,117326,1,0,0:0:0:0:
64,192,117365,1,0,0:0:0:0:
192,192,117403,1,0,0:0:0:0:
320,192,117442,1,0,0:0:0:0:
448,192,117480,1,0,0:0:0:0:
64,192,117519,1,0,0:0:0:0:
192,192,117557,1,0,0:0:0:0:
320,192,117595,1,0,0:0:0:0:
448,192,117634,1,0,0:0:0:0:
64,192,117672,1,0,0:0:0:0:
192,192,117711,1,0,0:0:0:0:
320,192,117749,1,0,0:0:0:0:
448,192,117788,1,0,0:0:0:0:
64,192,117826,1,0,0:0:0:0:
192,192,117865,1,0,0:0:0:0:
320,192,117903,1,0,0:0:0:0:
448,192,117942,1,0,0:0:0:0:
64,192,117980,1,0,0:0:0:0:
192,192,118019,1,0,0:0:0:0:
320,192,118057,1,0,0:0:0:0:
448,192,118095,1,0,0:0:0:0:
64,192,118134,1,0,0:0:0:0:
192,192,118134,1,0,0:0:0:0:
320,192,118134,1,0,0:0:0:0:
448,192,118211,1,0,0:0:0:0:
192,192,118288,128,0,118326:0:0:0:0:
64,192,118365,1,0,0:0:0:0:
320,192,118442,1,0,0:0:0:0:
448,192,118442,1,0,0:0:0:0:
192,192,118519,1,0,0:0:0:0:
320,192,118595,128,0,118634:0:0:0:0:
448,192,118672,1,0,0:0:0:0:
192,192,118749,1,0,0:0:0:0:
64,192,118749,1,0,0:0:0:0:
320,192,118826,1,0,0:0:0:0:
64,192,118903,128,0,118942:0:0:0:0:
192,192,118980,1,0,0:0:0:0:
320,192,119057,1,0,0:0:0:0:
448,192,119057,1,0,0:0:0:0:
192,192,119134,1,0,0:0:0:0:
64,192,119211,128,0,119249:0:0:0:0:
320,192,119288,1,0,0:0:0:0:
192,192,119365,1,0,0:0:0:0:
64,192,119365,1,0,0:0:0:0:
448,192,119442,1,0,0:0:0:0:
320,192,119519,128,0,119557:0:0:0:0:
64,192,119595,1,0,0:0:0:0:
320,192,119672,1,0,0:0:0:0:
448,192,119672,1,0,0:0:0:0:
64,192,119749,1,0,0:0:0:0:
320,192,119826,128,0,119865:0:0:0:0:
448,192,119903,1,0,0:0:0:0:
64,192,119980,1,0,0:0:0:0:
192,192,119980,1,0,0:0:0:0:
320,192,120057,1,0,0:0:0:0:
192,192,120134,128,0,120172:0:0:0:0:
64,192,120211,1,0,0:0:0:0:
320,192,120288,1,0,0:0:0:0:
448,192,120288,1,0,0:0:0:0:
192,192,120365,1,0,0:0:0:0:
448,192,120442,128,0,120480:0:0:0:0:
320,192,120519,1,0,0:0:0:0:
192,192,120595,1,0,0:0:0:0:
64,192,120595,1,0,0:0:0:0:
448,192,120672,1,0,0:0:0:0:
64,192,120749,128,0,120788:0:0:0:0:
192,192,120826,1,0,0:0:0:0:
320,192,120903,1,0,0:0:0:0:
448,192,120903,1,0,0:0:0:0:
192,192,120980,1,0,0:0:0:0:
320,192,121057,128,0,121095:0:0:0:0:
448,192,121134,1,0,0:0:0:0:
192,192,121211,1,0,0:0:0:0:
64,192,121211,1,0,0:0:0:0:
448,192,121288,1,0,0:0:0:0:
192,192,121365,128,0,121403:0:0:0:0:
64,192,121442,1,0,0:0:0:0:
320,192,121519,1,0,0:0:0:0:
448,192,121519,1,0,0:0:0:0:
192,192,121595,1,0,0:0:0:0:
448,192,121672,128,0,121711:0:0:0:0:
192,192,121749,1,0,0:0:0:0:
64,192,121826,128,0,121980:0:0:0:0:
192,192,121980,128,0,122134:0:0:0:0:
320,192,122134,128,0,122288:0:0:0:0:
448,192,122288,128,0,122442:0:0:0:0:
320,192,122442,128,0,122595:0:0:0:0:
192,192,122595,128,0,122749:0:0:0:0:
64,192,122749,128,0,122903:0:0:0:0:
192,192,122903,128,0,123057:0:0:0:0:
64,192,123057,1,0,0:0:0:0:
320,192,123057,1,0,0:0:0:0:
448,192,123134,1,0,0:0:0:0:
192,192,123211,1,0,0:0:0:0:
448,192,123288,1,0,0:0:0:0:
64,192,123365,1,0,0:0:0:0:
320,192,123365,1,0,0:0:0:0:
448,192,123442,1,0,0:0:0:0:
320,192,123519,1,0,0:0:0:0:
448,192,123595,1,0,0:0:0:0:
64,192,123672,1,0,0:0:0:0:
192,192,123672,1,0,0:0:0:0:
320,192,123749,1,0,0:0:0:0:
64,192,123826,1,0,0:0:0:0:
192,192,123903,1,0,0:0:0:0:
448,192,123980,1,0,0:0:0:0:
320,192,123980,1,0,0:0:0:0:
192,192,124057,1,0,0:0:0:0:
64,192,124134,1,0,0:0:0:0:
320,192,124211,1,0,0:0:0:0:
64,192,124288,1,0,0:0:0:0:
192,192,124288,1,0,0:0:0:0:
448,192,124365,1,0,0:0:0:0:
320,192,124442,1,0,0:0:0:0:
64,192,124519,1,0,0:0:0:0:
320,192,124595,1,0,0:0:0:0:
448,192,124595,1,0,0:0:0:0:
64,192,124672,1,0,0:0:0:0:
320,192,124749,1,0,0:0:0:0:
448,192,124826,1,0,0:0:0:0:
192,192,124903,1,0,0:0:0:0:
64,192,124903,1,0,0:0:0:0:
320,192,124980,1,0,0:0:0:0:
192,192,125057,1,0,0:0:0:0:
64,192,125134,1,0,0:0:0:0:
320,192,125211,1,0,0:0:0:0:
448,192,125211,1,0,0:0:0:0:
192,192,125288,1,0,0:0:0:0:
448,192,125365,1,0,0:0:0:0:
320,192,125442,1,0,0:0:0:0:
192,192,125519,1,0,0:0:0:0:
64,192,125519,1,0,0:0:0:0:
448,192,125595,1,0,0:0:0:0:
64,192,125672,1,0,0:0:0:0:
192,192,125749,1,0,0:0:0:0:
320,192,125826,1,0,0:0:0:0:
448,192,125826,1,0,0:0:0:0:
192,192,125903,1,0,0:0:0:0:
320,192,125980,1,0,0:0:0:0:
448,192,126057,1,0,0:0:0:0:
192,192,126134,1,0,0:0:0:0:
64,192,126134,1,0,0:0:0:0:
448,192,126211,1,0,0:0:0:0:
192,192,126288,1,0,0:0:0:0:
64,192,126365,1,0,0:0:0:0:
448,192,126442,1,0,0:0:0:0:
320,192,126442,1,0,0:0:0:0:
192,192,126519,1,0,0:0:0:0:
448,192,126595,1,0,0:0:0:0:
64,192,126672,1,0,0:0:0:0:
448,192,126749,1,0,0:0:0:0:
320,192,126788,1,0,0:0:0:0:
64,192,126826,1,0,0:0:0:0:
192,192,126865,1,0,0:0:0:0:
448,192,126903,1,0,0:0:0:0:
320,192,126942,1,0,0:0:0:0:
64,192,126980,1,0,0:0:0:0:
192,192,127019,1,0,0:0:0:0:
448,192,127057,1,0,0:0:0:0:
320,192,127095,1,0,0:0:0:0:
64,192,127134,1,0,0:0:0:0:
192,192,127172,1,0,0:0:0:0:
448,192,127211,1,0,0:0:0:0:
320,192,127249,1,0,0:0:0:0:
64,192,127288,1,0,0:0:0:0:
192,192,127326,1,0,0:0:0:0:
448,192,127365,1,0,0:0:0:0:
320,192,127403,1,0,0:0:0:0:
64,192,127442,1,0,0:0:0:0:
192,192,127480,1,0,0:0:0:0:
448,192,127519,1,0,0:0:0:0:
320,192,127557,1,0,0:0:0:0:
64,192,127595,1,0,0:0:0:0:
192,192,127634,1,0,0:0:0:0:
448,192,127672,1,0,0:0:0:0:
320,192,127711,1,0,0:0:0:0:
64,192,127749,1,0,0:0:0:0:
192,192,127788,1,0,0:0:0:0:
448,192,127826,1,0,0:0:0:0:
320,192,127865,1,0,0:0:0:0:
64,192,127903,1,0,0:0:0:0:
192,192,127942,1,0,0:0:0:0:
320,192,127980,1,0,0:0:0:0:
448,192,127980,1,0,0:0:0:0:
64,192,128057,1,0,0:0:0:0:
192,192,128134,1,0,0:0:0:0:
448,192,128211,1,0,0:0:0:0:
64,192,128288,1,0,0:0:0:0:
320,192,128288,1,0,0:0:0:0:
448,192,128365,1,0,0:0:0:0:
192,192,128442,1,0,0:0:0:0:
448,192,128519,1,0,0:0:0:0:
64,192,128595,1,0,0:0:0:0:
192,192,128595,1,0,0:0:0:0:
320,192,128672,1,0,0:0:0:0:
64,192,128749,1,0,0:0:0:0:
192,192,128826,1,0,0:0:0:0:
448,192,128903,1,0,0:0:0:0:
320,192,128903,1,0,0:0:0:0:
192,192,128980,1,0,0:0:0:0:
64,192,129057,1,0,0:0:0:0:
320,192,129134,1,0,0:0:0:0:
64,192,129211,1,0,0:0:0:0:
192,192,129211,1,0,0:0:0:0:
448,192,129288,1,0,0:0:0:0:
320,192,129365,1,0,0:0:0:0:
64,192,129442,1,0,0:0:0:0:
320,192,129519,1,0,0:0:0:0:
448,192,129519,1,0,0:0:0:0:
64,192,129595,1,0,0:0:0:0:
320,192,129672,1,0,0:0:0:0:
448,192,129749,1,0,0:0:0:0:
64,192,129826,1,0,0:0:0:0:
192,192,129826,1,0,0:0:0:0:
320,192,129903,1,0,0:0:0:0:
192,192,129980,1,0,0:0:0:0:
64,192,130057,1,0,0:0:0:0:
320,192,130134,1,0,0:0:0:0:
448,192,130134,1,0,0:0:0:0:
192,192,130211,1,0,0:0:0:0:
448,192,130288,1,0,0:0:0:0:
320,192,130365,1,0,0:0:0:0:
192,192,130442,1,0,0:0:0:0:
64,192,130442,1,0,0:0:0:0:
448,192,130519,1,0,0:0:0:0:
64,192,130595,1,0,0:0:0:0:
192,192,130672,1,0,0:0:0:0:
320,192,130749,1,0,0:0:0:0:
448,192,130749,1,0,0:0:0:0:
192,192,130826,1,0,0:0:0:0:
320,192,130903,1,0,0:0:0:0:
448,192,130980,1,0,0:0:0:0:
192,192,131057,1,0,0:0:0:0:
64,192,131057,1,0,0:0:0:0:
448,192,131134,1,0,0:0:0:0:
192,192,131211,1,0,0:0:0:0:
64,192,131288,1,0,0:0:0:0:
448,192,131365,1,0,0:0:0:0:
320,192,131365,1,0,0:0:0:0:
192,192,131442,1,0,0:0:0:0:
448,192,131519,1,0,0:0:0:0:
64,192,131595,1,0,0:0:0:0:
320,192,131672,1,0,0:0:0:0:
448,192,131711,1,0,0:0:0:0:
192,192,131749,1,0,0:0:0:0:
64,192,131788,1,0,0:0:0:0:
320,192,131826,1,0,0:0:0:0:
448,192,131865,1,0,0:0:0:0:
192,192,131903,1,0,0:0:0:0:
64,192,131942,1,0,0:0:0:0:
320,192,131980,1,0,0:0:0:0:
448,192,132019,1,0,0:0:0:0:
192,192,132057,1,0,0:0:0:0:
64,192,132095,1,0,0:0:0:0:
320,192,132134,1,0,0:0:0:0:
448,192,132172,1,0,0:0:0:0:
192,192,132211,1,0,0:0:0:0:
64,192,132249,1,0,0:0:0:0:
320,192,132288,1,0,0:0:0:0:
448,192,132326,1,0,0:0:0:0:
192,192,132365,1,0,0:0:0:0:
64,192,132403,1,0,0:0:0:0:
320,192,132442,1,0,0:0:0:0:
448,192,132480,1,0,0:0:0:0:
192,192,132519,1,0,0:0:0:0:
64,192,132557,1,0,0:0:0:0:
320,192,132595,1,0,0:0:0:0:
448,192,132634,1,0,0:0:0:0:
192,192,132672,1,0,0:0:0:0:
64,192,132711,1,0,0:0:0:0:
320,192,132749,1,0,0:0:0:0:
448,192,132788,1,0,0:0:0:0:
192,192,132826,1,0,0:0:0:0:
64,192,132865,1,0,0:0:0:0:
320,192,132903,1,0,0:0:0:0:
448,192,132903,1,0,0:0:0:0:
192,192,132980,1,0,0:0:0:0:
64,192,133057,1,0,0:0:0:0:
320,192,133134,1,0,0:0:0:0:
192,192,133211,1,0,0:0:0:0:
448,192,133211,1,0,0:0:0:0:
320,192,133288,1,0,0:0:0:0:
64,192,133365,1,0,0:0:0:0:
192,192,133442,1,0,0:0:0:0:
64,192,133519,1,0,0:0:0:0:
448,192,133519,1,0,0:0:0:0:
320,192,133595,1,0,0:0:0:0:
64,192,133672,1,0,0:0:0:0:
192,192,133749,1,0,0:0:0:0:
64,192,133826,1,0,0:0:0:0:
320,192,133826,1,0,0:0:0:0:
448,192,133903,1,0,0:0:0:0:
192,192,133980,1,0,0:0:0:0:
320,192,134057,1,0,0:0:0:0:
64,192,134134,1,0,0:0:0:0:
192,192,134134,1,0,0:0:0:0:
448,192,134211,1,0,0:0:0:0:
192,192,134288,1,0,0:0:0:0:
320,192,134365,1,0,0:0:0:0:
448,192,134442,1,0,0:0:0:0:
64,192,134442,1,0,0:0:0:0:
192,192,134519,1,0,0:0:0:0:
320,192,134595,1,0,0:0:0:0:
64,192,134672,1,0,0:0:0:0:
448,192,134749,1,0,0:0:0:0:
320,192,134749,1,0,0:0:0:0:
192,192,134826,1,0,0:0:0:0:
320,192,134903,1,0,0:0:0:0:
64,192,134903,1,0,0:0:0:0:
192,192,134980,1,0,0:0:0:0:
320,192,135057,1,0,0:0:0:0:
448,192,135057,1,0,0:0:0:0:
192,192,135134,1,0,0:0:0:0:
64,192,135211,1,0,0:0:0:0:
320,192,135211,1,0,0:0:0:0:
192,192,135288,1,0,0:0:0:0:
448,192,135365,1,0,0:0:0:0:
64,192,135365,1,0,0:0:0:0:
320,192,135442,1,0,0:0:0:0:
192,192,135519,1,0,0:0:0:0:
448,192,135595,1,0,0:0:0:0:
192,192,135672,1,0,0:0:0:0:
320,192,135672,1,0,0:0:0:0:
64,192,135749,1,0,0:0:0:0:
448,192,135826,1,0,0:0:0:0:
320,192,135903,1,0,0:0:0:0:
192,192,135980,1,0,0:0:0:0:
64,192,135980,1,0,0:0:0:0:
320,192,136057,1,0,0:0:0:0:
448,192,136134,1,0,0:0:0:0:
64,192,136211,1,0,0:0:0:0:
192,192,136288,1,0,0:0:0:0:
320,192,136288,1,0,0:0:0:0:
448,192,136365,1,0,0:0:0:0:
64,192,136442,1,0,0:0:0:0:
192,192,136519,1,0,0:0:0:0:
320,192,136595,1,0,0:0:0:0:
448,192,136595,1,0,0:0:0:0:
64,192,136634,1,0,0:0:0:0:
192,192,136672,1,0,0:0:0:0:
320,192,136711,1,0,0:0:0:0:
448,192,136749,1,0,0:0:0:0:
64,192,136788,1,0,0:0:0:0:
192,192,136826,1,0,0:0:0:0:
320,192,136865,1,0,0:0:0:0:
448,192,136903,1,0,0:0:0:0:
64,192,136942,1,0,0:0:0:0:
192,192,136980,1,0,0:0:0:0:
320,192,137019,1,0,0:0:0:0:
448,192,137057,1,0,0:0:0:0:
64,192,137095,1,0,0:0:0:0:
192,192,137134,1,0,0:0:0:0:
320,192,137172,1,0,0:0:0:0:
448,192,137211,1,0,0:0:0:0:
64,192,137249,1,0,0:0:0:0:
192,192,137288,1,0,0:0:0:0:
320,192,137326,1,0,0:0:0:0:
448,192,137365,1,0,0:0:0:0:
64,192,137403,1,0,0:0:0:0:
192,192,137442,1,0,0:0:0:0:
320,192,137480,1,0,0:0:0:0:
448,192,137519,1,0,0:0:0:0:
64,192,137557,1,0,0:0:0:0:
192,192,137595,1,0,0:0:0:0:
320,192,137634,1,0,0:0:0:0:
448,192,137672,1,0,0:0:0:0:
64,192,137711,1,0,0:0:0:0:
192,192,137749,1,0,0:0:0:0:
320,192,137788,1,0,0:0:0:0:
64,192,137826,1,0,0:0:0:0:
448,192,137826,1,0,0:0:0:0:
192,192,137903,1,0,0:0:0:0:
320,192,137980,1,0,0:0:0:0:
64,192,138057,1,0,0:0:0:0:
448,192,138134,1,0,0:0:0:0:
192,192,138134,1,0,0:0:0:0:
64,192,138211,1,0,0:0:0:0:
192,192,138288,1,0,0:0:0:0:
320,192,138365,1,0,0:0:0:0:
448,192,138442,1,0,0:0:0:0:
64,192,138442,1,0,0:0:0:0:
320,192,138519,1,0,0:0:0:0:
448,192,138595,1,0,0:0:0:0:
64,192,138672,1,0,0:0:0:0:
448,192,138749,1,0,0:0:0:0:
192,192,138749,1,0,0:0:0:0:
320,192,138826,1,0,0:0:0:0:
64,192,138903,1,0,0:0:0:0:
448,192,138980,1,0,0:0:0:0:
320,192,139057,1,0,0:0:0:0:
448,192,139134,1,0,0:0:0:0:
64,192,139211,1,0,0:0:0:0:
320,192,139288,1,0,0:0:0:0:
192,192,139365,1,0,0:0:0:0:
448,192,139365,1,0,0:0:0:0:
64,192,139442,1,0,0:0:0:0:
320,192,139519,1,0,0:0:0:0:
192,192,139595,1,0,0:0:0:0:
64,192,139672,1,0,0:0:0:0:
448,192,139672,1,0,0:0:0:0:
192,192,139749,1,0,0:0:0:0:
320,192,139826,1,0,0:0:0:0:
448,192,139903,1,0,0:0:0:0:
320,192,139980,1,0,0:0:0:0:
64,192,139980,1,0,0:0:0:0:
192,192,140057,1,0,0:0:0:0:
448,192,140134,1,0,0:0:0:0:
320,192,140211,1,0,0:0:0:0:
192,192,140288,1,0,0:0:0:0:
64,192,140288,1,0,0:0:0:0:
192,192,140442,1,0,0:0:0:0:
448,192,140595,1,0,0:0:0:0:
64,192,140595,1,0,0:0:0:0:
192,192,140749,1,0,0:0:0:0:
320,192,140903,1,0,0:0:0:0:
192,192,140903,1,0,0:0:0:0:
320,192,141057,1,0,0:0:0:0:
448,192,141211,1,0,0:0:0:0:
192,192,141211,1,0,0:0:0:0:
448,192,141365,1,0,0:0:0:0:
320,192,141519,1,0,0:0:0:0:
192,192,141519,1,0,0:0:0:0:
448,192,142749,128,0,147663:0:0:0:0:
192,192,142749,1,0,0:0:0:0:
320,192,146433,1,0,0:0:0:0:
192,192,147067,1,0,0:0:0:0:
64,192,147663,1,0,0:0:0:0:
192,192,147663,128,0,152591:0:0:0:0:
448,192,151360,1,0,0:0:0:0:
320,192,151975,1,0,0:0:0:0:
64,192,152591,128,0,157523:0:0:0:0:
448,192,152591,1,0,0:0:0:0:
192,192,155696,1,0,0:0:0:0:
448,192,156908,1,0,0:0:0:0:
320,192,157523,128,0,159978:0:0:0:0:
192,192,157523,1,0,0:0:0:0:
448,192,159978,128,0,162446:0:0:0:0:
192,192,159978,1,0,0:0:0:0:
320,192,162446,1,0,0:0:0:0:
192,192,162446,1,0,0:0:0:0:
64,192,162446,1,0,0:0:0:0:
64,192,162599,1,0,0:0:0:0:
192,192,162599,1,0,0:0:0:0:
448,192,162753,1,0,0:0:0:0:
320,192,162753,1,0,0:0:0:0:
192,192,162753,1,0,0:0:0:0:
64,192,162907,1,0,0:0:0:0:
448,192,162984,1,0,0:0:0:0:
192,192,163061,1,0,0:0:0:0:
64,192,163138,1,0,0:0:0:0:
320,192,163215,1,0,0:0:0:0:
448,192,163215,1,0,0:0:0:0:
192,192,163369,1,0,0:0:0:0:
64,192,163369,1,0,0:0:0:0:
320,192,163369,1,0,0:0:0:0:
448,192,163522,1,0,0:0:0:0:
192,192,163599,1,0,0:0:0:0:
320,192,163676,1,0,0:0:0:0:
64,192,163753,1,0,0:0:0:0:
192,192,163830,1,0,0:0:0:0:
320,192,163830,1,0,0:0:0:0:
448,192,163984,1,0,0:0:0:0:
320,192,163984,1,0,0:0:0:0:
64,192,163984,1,0,0:0:0:0:
64,192,164138,1,0,0:0:0:0:
192,192,164215,1,0,0:0:0:0:
320,192,164292,1,0,0:0:0:0:
448,192,164369,1,0,0:0:0:0:
192,192,164446,1,0,0:0:0:0:
64,192,164446,1,0,0:0:0:0:
64,192,164599,1,0,0:0:0:0:
192,192,164599,1,0,0:0:0:0:
448,192,164599,1,0,0:0:0:0:
320,192,164753,1,0,0:0:0:0:
192,192,164830,1,0,0:0:0:0:
64,192,164907,1,0,0:0:0:0:
320,192,164907,1,0,0:0:0:0:
448,192,165061,1,0,0:0:0:0:
320,192,165061,1,0,0:0:0:0:
192,192,165215,1,0,0:0:0:0:
64,192,165215,1,0,0:0:0:0:
320,192,165215,1,0,0:0:0:0:
448,192,165369,1,0,0:0:0:0:
320,192,165446,1,0,0:0:0:0:
64,192,165503,1,0,0:0:0:0:
320,192,165599,1,0,0:0:0:0:
448,192,165676,1,0,0:0:0:0:
192,192,165676,1,0,0:0:0:0:
448,192,165830,1,0,0:0:0:0:
192,192,165830,1,0,0:0:0:0:
64,192,165830,1,0,0:0:0:0:
320,192,165984,1,0,0:0:0:0:
192,192,166061,1,0,0:0:0:0:
64,192,166061,1,0,0:0:0:0:
448,192,166138,1,0,0:0:0:0:
320,192,166215,1,0,0:0:0:0:
64,192,166292,1,0,0:0:0:0:
448,192,166292,1,0,0:0:0:0:
448,192,166446,1,0,0:0:0:0:
320,192,166446,1,0,0:0:0:0:
192,192,166446,1,0,0:0:0:0:
64,192,166599,1,0,0:0:0:0:
192,192,166676,1,0,0:0:0:0:
320,192,166753,1,0,0:0:0:0:
448,192,166830,1,0,0:0:0:0:
192,192,166907,1,0,0:0:0:0:
320,192,166907,1,0,0:0:0:0:
64,192,167061,1,0,0:0:0:0:
320,192,167061,1,0,0:0:0:0:
448,192,167061,1,0,0:0:0:0:
320,192,167215,1,0,0:0:0:0:
448,192,167292,1,0,0:0:0:0:
192,192,167369,1,0,0:0:0:0:
64,192,167369,1,0,0:0:0:0:
320,192,167369,1,0,0:0:0:0:
192,192,167522,1,0,0:0:0:0:
448,192,167522,1,0,0:0:0:0:
448,192,167676,1,0,0:0:0:0:
320,192,167676,1,0,0:0:0:0:
64,192,167676,1,0,0:0:0:0:
192,192,167830,1,0,0:0:0:0:
448,192,167907,1,0,0:0:0:0:
320,192,167984,1,0,0:0:0:0:
64,192,168061,1,0,0:0:0:0:
320,192,168138,1,0,0:0:0:0:
448,192,168138,1,0,0:0:0:0:
192,192,168292,1,0,0:0:0:0:
64,192,168292,1,0,0:0:0:0:
320,192,168292,1,0,0:0:0:0:
448,192,168446,1,0,0:0:0:0:
192,192,168522,1,0,0:0:0:0:
320,192,168599,1,0,0:0:0:0:
448,192,168676,1,0,0:0:0:0:
64,192,168753,1,0,0:0:0:0:
192,192,168753,1,0,0:0:0:0:
320,192,168907,1,0,0:0:0:0:
448,192,168907,1,0,0:0:0:0:
192,192,168907,1,0,0:0:0:0:
192,192,169061,1,0,0:0:0:0:
64,192,169138,1,0,0:0:0:0:
192,192,169215,1,0,0:0:0:0:
320,192,169292,1,0,0:0:0:0:
448,192,169369,1,0,0:0:0:0:
192,192,169369,1,0,0:0:0:0:
192,192,169503,1,0,0:0:0:0:
64,192,169503,1,0,0:0:0:0:
448,192,169503,1,0,0:0:0:0:
320,192,169676,1,0,0:0:0:0:
192,192,169753,1,0,0:0:0:0:
64,192,169830,1,0,0:0:0:0:
320,192,169830,1,0,0:0:0:0:
448,192,169984,1,0,0:0:0:0:
192,192,169984,1,0,0:0:0:0:
448,192,170138,1,0,0:0:0:0:
320,192,170138,1,0,0:0:0:0:
192,192,170138,1,0,0:0:0:0:
320,192,170292,1,0,0:0:0:0:
448,192,170369,1,0,0:0:0:0:
320,192,170446,1,0,0:0:0:0:
64,192,170522,1,0,0:0:0:0:
192,192,170599,1,0,0:0:0:0:
320,192,170599,1,0,0:0:0:0:
448,192,170753,1,0,0:0:0:0:
320,192,170753,1,0,0:0:0:0:
64,192,170753,1,0,0:0:0:0:
192,192,170907,1,0,0:0:0:0:
448,192,170984,1,0,0:0:0:0:
64,192,171061,1,0,0:0:0:0:
320,192,171138,1,0,0:0:0:0:
448,192,171215,1,0,0:0:0:0:
192,192,171215,1,0,0:0:0:0:
320,192,171369,1,0,0:0:0:0:
448,192,171369,1,0,0:0:0:0:
64,192,171369,1,0,0:0:0:0:
192,192,171522,1,0,0:0:0:0:
448,192,171599,1,0,0:0:0:0:
320,192,171676,1,0,0:0:0:0:
64,192,171753,1,0,0:0:0:0:
192,192,171830,1,0,0:0:0:0:
320,192,171830,1,0,0:0:0:0:
192,192,171984,1,0,0:0:0:0:
448,192,171984,1,0,0:0:0:0:
320,192,171984,1,0,0:0:0:0:
64,192,171984,1,0,0:0:0:0:
320,192,172138,1,0,0:0:0:0:
192,192,172215,1,0,0:0:0:0:
64,192,172292,1,0,0:0:0:0:
448,192,172292,1,0,0:0:0:0:
320,192,172292,1,0,0:0:0:0:
320,192,172446,1,0,0:0:0:0:
192,192,172446,1,0,0:0:0:0:
448,192,172599,1,0,0:0:0:0:
64,192,172599,1,0,0:0:0:0:
192,192,172599,1,0,0:0:0:0:
192,192,172753,1,0,0:0:0:0:
64,192,172830,1,0,0:0:0:0:
320,192,172907,1,0,0:0:0:0:
448,192,172984,1,0,0:0:0:0:
192,192,173061,1,0,0:0:0:0:
64,192,173061,1,0,0:0:0:0:
448,192,173215,1,0,0:0:0:0:
320,192,173215,1,0,0:0:0:0:
192,192,173215,1,0,0:0:0:0:
64,192,173369,1,0,0:0:0:0:
448,192,173446,1,0,0:0:0:0:
320,192,173522,1,0,0:0:0:0:
64,192,173599,1,0,0:0:0:0:
320,192,173676,1,0,0:0:0:0:
448,192,173676,1,0,0:0:0:0:
192,192,173830,1,0,0:0:0:0:
320,192,173830,1,0,0:0:0:0:
64,192,173830,1,0,0:0:0:0:
448,192,173984,1,0,0:0:0:0:
64,192,174061,1,0,0:0:0:0:
192,192,174138,1,0,0:0:0:0:
448,192,174215,1,0,0:0:0:0:
320,192,174292,1,0,0:0:0:0:
64,192,174292,1,0,0:0:0:0:
448,192,174446,1,0,0:0:0:0:
320,192,174446,1,0,0:0:0:0:
64,192,174446,1,0,0:0:0:0:
192,192,174599,1,0,0:0:0:0:
320,192,174676,1,0,0:0:0:0:
448,192,174753,1,0,0:0:0:0:
192,192,174753,1,0,0:0:0:0:
448,192,174907,1,0,0:0:0:0:
192,192,174907,1,0,0:0:0:0:
448,192,175061,1,0,0:0:0:0:
64,192,175061,1,0,0:0:0:0:
320,192,175061,1,0,0:0:0:0:
192,192,175215,1,0,0:0:0:0:
320,192,175292,1,0,0:0:0:0:
448,192,175369,1,0,0:0:0:0:
64,192,175446,1,0,0:0:0:0:
320,192,175522,1,0,0:0:0:0:
192,192,175522,1,0,0:0:0:0:
448,192,175676,1,0,0:0:0:0:
320,192,175676,1,0,0:0:0:0:
64,192,175676,1,0,0:0:0:0:
192,192,175830,1,0,0:0:0:0:
320,192,175907,1,0,0:0:0:0:
192,192,175984,1,0,0:0:0:0:
64,192,176061,1,0,0:0:0:0:
320,192,176138,1,0,0:0:0:0:
192,192,176138,1,0,0:0:0:0:
448,192,176292,1,0,0:0:0:0:
320,192,176292,1,0,0:0:0:0:
192,192,176292,1,0,0:0:0:0:
64,192,176446,1,0,0:0:0:0:
320,192,176522,1,0,0:0:0:0:
192,192,176599,1,0,0:0:0:0:
448,192,176676,1,0,0:0:0:0:
320,192,176753,1,0,0:0:0:0:
64,192,176753,1,0,0:0:0:0:
64,192,176907,1,0,0:0:0:0:
192,192,176907,1,0,0:0:0:0:
320,192,176907,1,0,0:0:0:0:
192,192,177061,1,0,0:0:0:0:
320,192,177138,1,0,0:0:0:0:
448,192,177215,1,0,0:0:0:0:
192,192,177215,1,0,0:0:0:0:
64,192,177215,1,0,0:0:0:0:
64,192,177369,1,0,0:0:0:0:
320,192,177369,1,0,0:0:0:0:
448,192,177522,1,0,0:0:0:0:
320,192,177522,1,0,0:0:0:0:
64,192,177522,1,0,0:0:0:0:
192,192,177676,1,0,0:0:0:0:
448,192,177753,1,0,0:0:0:0:
320,192,177830,1,0,0:0:0:0:
64,192,177907,1,0,0:0:0:0:
192,192,177984,1,0,0:0:0:0:
320,192,177984,1,0,0:0:0:0:
448,192,178138,1,0,0:0:0:0:
64,192,178138,1,0,0:0:0:0:
192,192,178138,1,0,0:0:0:0:
320,192,178292,1,0,0:0:0:0:
448,192,178369,1,0,0:0:0:0:
192,192,178446,1,0,0:0:0:0:
64,192,178503,1,0,0:0:0:0:
192,192,178599,1,0,0:0:0:0:
320,192,178599,1,0,0:0:0:0:
448,192,178753,1,0,0:0:0:0:
320,192,178753,1,0,0:0:0:0:
192,192,178753,1,0,0:0:0:0:
64,192,178907,1,0,0:0:0:0:
320,192,178984,1,0,0:0:0:0:
192,192,179061,1,0,0:0:0:0:
64,192,179138,1,0,0:0:0:0:
448,192,179215,1,0,0:0:0:0:
320,192,179215,1,0,0:0:0:0:
192,192,179369,1,0,0:0:0:0:
64,192,179369,1,0,0:0:0:0:
320,192,179369,1,0,0:0:0:0:
448,192,179503,1,0,0:0:0:0:
192,192,179599,1,0,0:0:0:0:
64,192,179676,1,0,0:0:0:0:
320,192,179676,1,0,0:0:0:0:
448,192,179676,1,0,0:0:0:0:
192,192,179830,1,0,0:0:0:0:
64,192,179830,1,0,0:0:0:0:
448,192,179984,1,0,0:0:0:0:
320,192,179984,1,0,0:0:0:0:
192,192,179984,1,0,0:0:0:0:
64,192,180138,1,0,0:0:0:0:
320,192,180215,1,0,0:0:0:0:
192,192,180215,1,0,0:0:0:0:
448,192,180292,1,0,0:0:0:0:
320,192,180369,1,0,0:0:0:0:
64,192,180369,1,0,0:0:0:0:
448,192,180446,1,0,0:0:0:0:
192,192,180446,1,0,0:0:0:0:
320,192,180599,1,0,0:0:0:0:
192,192,180599,1,0,0:0:0:0:
64,192,180599,1,0,0:0:0:0:
448,192,180753,1,0,0:0:0:0:
192,192,180830,1,0,0:0:0:0:
320,192,180830,1,0,0:0:0:0:
64,192,180907,1,0,0:0:0:0:
448,192,180984,1,0,0:0:0:0:
320,192,180984,1,0,0:0:0:0:
192,192,181061,1,0,0:0:0:0:
64,192,181061,1,0,0:0:0:0:
448,192,181215,1,0,0:0:0:0:
320,192,181215,1,0,0:0:0:0:
192,192,181215,1,0,0:0:0:0:
64,192,181369,1,0,0:0:0:0:
448,192,181446,1,0,0:0:0:0:
192,192,181446,1,0,0:0:0:0:
320,192,181522,1,0,0:0:0:0:
448,192,181599,1,0,0:0:0:0:
192,192,181599,1,0,0:0:0:0:
64,192,181676,1,0,0:0:0:0:
320,192,181676,1,0,0:0:0:0:
448,192,181830,1,0,0:0:0:0:
320,192,181830,1,0,0:0:0:0:
64,192,181830,1,0,0:0:0:0:
192,192,181984,1,0,0:0:0:0:
320,192,182061,1,0,0:0:0:0:
448,192,182138,1,0,0:0:0:0:
64,192,182138,1,0,0:0:0:0:
192,192,184138,1,0,0:0:0:0:
320,192,184215,1,0,0:0:0:0:
448,192,184292,1,0,0:0:0:0:
192,192,184369,1,0,0:0:0:0:
64,192,184446,1,0,0:0:0:0:
320,192,184599,1,0,0:0:0:0:
448,192,184753,1,0,0:0:0:0:
192,192,184830,1,0,0:0:0:0:
320,192,184907,1,0,0:0:0:0:
448,192,184984,1,0,0:0:0:0:
64,192,185061,1,0,0:0:0:0:
320,192,185215,1,0,0:0:0:0:
448,192,185369,1,0,0:0:0:0:
192,192,185446,1,0,0:0:0:0:
64,192,185522,1,0,0:0:0:0:
320,192,185599,1,0,0:0:0:0:
448,192,185676,1,0,0:0:0:0:
192,192,185830,1,0,0:0:0:0:
64,192,185984,1,0,0:0:0:0:
192,192,186061,1,0,0:0:0:0:
320,192,186138,1,0,0:0:0:0:
448,192,186215,1,0,0:0:0:0:
192,192,186292,1,0,0:0:0:0:
320,192,186446,1,0,0:0:0:0:
448,192,186599,1,0,0:0:0:0:
192,192,186676,1,0,0:0:0:0:
64,192,186753,1,0,0:0:0:0:
320,192,186830,1,0,0:0:0:0:
448,192,186907,1,0,0:0:0:0:
192,192,187061,1,0,0:0:0:0:
448,192,187215,1,0,0:0:0:0:
320,192,187292,1,0,0:0:0:0:
64,192,187369,1,0,0:0:0:0:
192,192,187446,1,0,0:0:0:0:
320,192,187522,1,0,0:0:0:0:
448,192,187676,1,0,0:0:0:0:
64,192,187830,1,0,0:0:0:0:
192,192,187907,1,0,0:0:0:0:
320,192,187984,1,0,0:0:0:0:
448,192,188061,1,0,0:0:0:0:
320,192,188138,1,0,0:0:0:0:
320,192,191676,128,0,191984:0:0:0:0:
64,192,191984,1,0,0:0:0:0:
448,192,191984,1,0,0:0:0:0:
192,192,192061,1,0,0:0:0:0:
320,192,192138,1,0,0:0:0:0:
448,192,192215,1,0,0:0:0:0:
64,192,192292,1,0,0:0:0:0:
192,192,192369,1,0,0:0:0:0:
320,192,192446,1,0,0:0:0:0:
448,192,192522,1,0,0:0:0:0:
320,192,192599,1,0,0:0:0:0:
64,192,192599,1,0,0:0:0:0:
192,192,192676,1,0,0:0:0:0:
64,192,192753,1,0,0:0:0:0:
192,192,192830,1,0,0:0:0:0:
320,192,192907,1,0,0:0:0:0:
448,192,192984,1,0,0:0:0:0:
64,192,193061,1,0,0:0:0:0:
192,192,193138,1,0,0:0:0:0:
320,192,193215,1,0,0:0:0:0:
64,192,193215,1,0,0:0:0:0:
448,192,193292,1,0,0:0:0:0:
320,192,193369,1,0,0:0:0:0:
64,192,193446,1,0,0:0:0:0:
192,192,193522,1,0,0:0:0:0:
448,192,193599,1,0,0:0:0:0:
320,192,193676,1,0,0:0:0:0:
64,192,193753,1,0,0:0:0:0:
192,192,193830,1,0,0:0:0:0:
448,192,193907,1,0,0:0:0:0:
320,192,193984,1,0,0:0:0:0:
192,192,194061,1,0,0:0:0:0:
64,192,194138,1,0,0:0:0:0:
192,192,194215,1,0,0:0:0:0:
320,192,194292,1,0,0:0:0:0:
448,192,194369,1,0,0:0:0:0:
320,192,194446,1,0,0:0:0:0:
64,192,194446,1,0,0:0:0:0:
192,192,194522,1,0,0:0:0:0:
64,192,194599,1,0,0:0:0:0:
192,192,194676,1,0,0:0:0:0:
320,192,194753,1,0,0:0:0:0:
448,192,194830,1,0,0:0:0:0:
320,192,194907,1,0,0:0:0:0:
192,192,194984,1,0,0:0:0:0:
64,192,195061,1,0,0:0:0:0:
320,192,195061,1,0,0:0:0:0:
448,192,195138,1,0,0:0:0:0:
320,192,195215,1,0,0:0:0:0:
192,192,195292,1,0,0:0:0:0:
64,192,195369,1,0,0:0:0:0:
448,192,195446,1,0,0:0:0:0:
320,192,195522,1,0,0:0:0:0:
192,192,195599,1,0,0:0:0:0:
64,192,195676,1,0,0:0:0:0:
448,192,195676,1,0,0:0:0:0:
192,192,195753,1,0,0:0:0:0:
320,192,195830,1,0,0:0:0:0:
448,192,195907,1,0,0:0:0:0:
64,192,195984,1,0,0:0:0:0:
320,192,195984,1,0,0:0:0:0:
192,192,196061,1,0,0:0:0:0:
320,192,196138,1,0,0:0:0:0:
448,192,196215,1,0,0:0:0:0:
64,192,196292,1,0,0:0:0:0:
320,192,196292,1,0,0:0:0:0:
192,192,196369,1,0,0:0:0:0:
320,192,196446,1,0,0:0:0:0:
448,192,196522,1,0,0:0:0:0:
64,192,196599,1,0,0:0:0:0:
320,192,196599,1,0,0:0:0:0:
192,192,196676,1,0,0:0:0:0:
320,192,196753,1,0,0:0:0:0:
448,192,196830,1,0,0:0:0:0:
320,192,196907,1,0,0:0:0:0:
64,192,196907,1,0,0:0:0:0:
192,192,196984,1,0,0:0:0:0:
64,192,197061,1,0,0:0:0:0:
448,192,197138,1,0,0:0:0:0:
320,192,197215,1,0,0:0:0:0:
192,192,197292,1,0,0:0:0:0:
64,192,197369,1,0,0:0:0:0:
192,192,197446,1,0,0:0:0:0:
64,192,197522,1,0,0:0:0:0:
320,192,197522,1,0,0:0:0:0:
448,192,197599,1,0,0:0:0:0:
320,192,197676,1,0,0:0:0:0:
192,192,197753,1,0,0:0:0:0:
64,192,197830,1,0,0:0:0:0:
448,192,197907,1,0,0:0:0:0:
320,192,197984,1,0,0:0:0:0:
192,192,198061,1,0,0:0:0:0:
64,192,198138,1,0,0:0:0:0:
448,192,198138,1,0,0:0:0:0:
192,192,198215,1,0,0:0:0:0:
320,192,198292,1,0,0:0:0:0:
448,192,198369,1,0,0:0:0:0:
64,192,198446,1,0,0:0:0:0:
192,192,198522,1,0,0:0:0:0:
320,192,198599,1,0,0:0:0:0:
64,192,198676,1,0,0:0:0:0:
192,192,198753,1,0,0:0:0:0:
448,192,198753,1,0,0:0:0:0:
320,192,198830,1,0,0:0:0:0:
64,192,198830,1,0,0:0:0:0:
448,192,198907,1,0,0:0:0:0:
320,192,198984,1,0,0:0:0:0:
192,192,199061,1,0,0:0:0:0:
448,192,199138,1,0,0:0:0:0:
320,192,199215,1,0,0:0:0:0:
192,192,199292,1,0,0:0:0:0:
448,192,199369,1,0,0:0:0:0:
64,192,199369,1,0,0:0:0:0:
320,192,199446,1,0,0:0:0:0:
192,192,199522,1,0,0:0:0:0:
64,192,199599,1,0,0:0:0:0:
192,192,199676,1,0,0:0:0:0:
320,192,199753,1,0,0:0:0:0:
448,192,199830,1,0,0:0:0:0:
192,192,199907,1,0,0:0:0:0:
320,192,199984,1,0,0:0:0:0:
64,192,199984,1,0,0:0:0:0:
448,192,200061,1,0,0:0:0:0:
192,192,200138,1,0,0:0:0:0:
320,192,200215,1,0,0:0:0:0:
192,192,200292,1,0,0:0:0:0:
448,192,200292,1,0,0:0:0:0:
64,192,200369,1,0,0:0:0:0:
448,192,200446,1,0,0:0:0:0:
320,192,200522,1,0,0:0:0:0:
192,192,200599,1,0,0:0:0:0:
448,192,200599,1,0,0:0:0:0:
64,192,200676,1,0,0:0:0:0:
448,192,200753,1,0,0:0:0:0:
320,192,200830,1,0,0:0:0:0:
192,192,200907,1,0,0:0:0:0:
64,192,200984,1,0,0:0:0:0:
192,192,201061,1,0,0:0:0:0:
320,192,201138,1,0,0:0:0:0:
448,192,201215,1,0,0:0:0:0:
64,192,201215,1,0,0:0:0:0:
320,192,201292,1,0,0:0:0:0:
192,192,201369,1,0,0:0:0:0:
320,192,201446,1,0,0:0:0:0:
64,192,201503,1,0,0:0:0:0:
192,192,201599,1,0,0:0:0:0:
320,192,201676,1,0,0:0:0:0:
448,192,201753,1,0,0:0:0:0:
64,192,201830,1,0,0:0:0:0:
320,192,201830,1,0,0:0:0:0:
192,192,201907,1,0,0:0:0:0:
320,192,201984,1,0,0:0:0:0:
448,192,202061,1,0,0:0:0:0:
64,192,202138,1,0,0:0:0:0:
192,192,202215,1,0,0:0:0:0:
320,192,202292,1,0,0:0:0:0:
448,192,202369,1,0,0:0:0:0:
320,192,202446,1,0,0:0:0:0:
64,192,202446,1,0,0:0:0:0:
192,192,202522,1,0,0:0:0:0:
64,192,202599,1,0,0:0:0:0:
192,192,202676,1,0,0:0:0:0:
320,192,202753,1,0,0:0:0:0:
448,192,202830,1,0,0:0:0:0:
64,192,202907,1,0,0:0:0:0:
192,192,202984,1,0,0:0:0:0:
320,192,203061,1,0,0:0:0:0:
64,192,203061,1,0,0:0:0:0:
448,192,203138,1,0,0:0:0:0:
320,192,203215,1,0,0:0:0:0:
64,192,203292,1,0,0:0:0:0:
192,192,203369,1,0,0:0:0:0:
448,192,203446,1,0,0:0:0:0:
320,192,203522,1,0,0:0:0:0:
64,192,203599,1,0,0:0:0:0:
192,192,203676,1,0,0:0:0:0:
448,192,203753,1,0,0:0:0:0:
320,192,203830,1,0,0:0:0:0:
192,192,203907,1,0,0:0:0:0:
64,192,203984,1,0,0:0:0:0:
192,192,204061,1,0,0:0:0:0:
320,192,204138,1,0,0:0:0:0:
448,192,204215,1,0,0:0:0:0:
320,192,204292,1,0,0:0:0:0:
64,192,204292,1,0,0:0:0:0:
192,192,204369,1,0,0:0:0:0:
64,192,204446,1,0,0:0:0:0:
192,192,204522,1,0,0:0:0:0:
320,192,204599,1,0,0:0:0:0:
448,192,204676,1,0,0:0:0:0:
320,192,204753,1,0,0:0:0:0:
192,192,204830,1,0,0:0:0:0:
64,192,204907,1,0,0:0:0:0:
320,192,204907,1,0,0:0:0:0:
448,192,204984,1,0,0:0:0:0:
320,192,205061,1,0,0:0:0:0:
192,192,205138,1,0,0:0:0:0:
64,192,205215,1,0,0:0:0:0:
448,192,205292,1,0,0:0:0:0:
320,192,205369,1,0,0:0:0:0:
192,192,205446,1,0,0:0:0:0:
448,192,205522,1,0,0:0:0:0:
64,192,205522,1,0,0:0:0:0:
192,192,205599,1,0,0:0:0:0:
320,192,205676,1,0,0:0:0:0:
448,192,205753,1,0,0:0:0:0:
64,192,205830,1,0,0:0:0:0:
192,192,205907,1,0,0:0:0:0:
320,192,205984,1,0,0:0:0:0:
448,192,206061,1,0,0:0:0:0:
64,192,206138,1,0,0:0:0:0:
192,192,206215,1,0,0:0:0:0:
320,192,206292,1,0,0:0:0:0:
448,192,206369,1,0,0:0:0:0:
64,192,206446,1,0,0:0:0:0:
320,192,206446,1,0,0:0:0:0:
192,192,206522,1,0,0:0:0:0:
320,192,206599,1,0,0:0:0:0:
448,192,206676,1,0,0:0:0:0:
320,192,206753,1,0,0:0:0:0:
64,192,206753,1,0,0:0:0:0:
192,192,206830,1,0,0:0:0:0:
64,192,206907,1,0,0:0:0:0:
448,192,206984,1,0,0:0:0:0:
64,192,207061,1,0,0:0:0:0:
320,192,207061,128,0,207138:0:0:0:0:
192,192,207138,1,0,0:0:0:0:
64,192,207215,1,0,0:0:0:0:
192,192,207292,1,0,0:0:0:0:
320,192,207369,1,0,0:0:0:0:
64,192,207369,1,0,0:0:0:0:
448,192,207446,1,0,0:0:0:0:
320,192,207522,1,0,0:0:0:0:
192,192,207599,1,0,0:0:0:0:
64,192,207676,1,0,0:0:0:0:
448,192,207753,1,0,0:0:0:0:
320,192,207830,1,0,0:0:0:0:
192,192,207907,1,0,0:0:0:0:
64,192,207984,1,0,0:0:0:0:
448,192,207984,1,0,0:0:0:0:
192,192,208061,1,0,0:0:0:0:
320,192,208138,1,0,0:0:0:0:
448,192,208215,1,0,0:0:0:0:
320,192,208292,1,0,0:0:0:0:
64,192,208292,128,0,208369:0:0:0:0:
192,192,208369,1,0,0:0:0:0:
320,192,208446,1,0,0:0:0:0:
64,192,208503,1,0,0:0:0:0:
192,192,208599,1,0,0:0:0:0:
448,192,208599,1,0,0:0:0:0:
320,192,208676,1,0,0:0:0:0:
64,192,208676,1,0,0:0:0:0:
448,192,208753,1,0,0:0:0:0:
320,192,208830,1,0,0:0:0:0:
192,192,208907,1,0,0:0:0:0:
448,192,208984,1,0,0:0:0:0:
320,192,209061,1,0,0:0:0:0:
192,192,209138,1,0,0:0:0:0:
448,192,209215,1,0,0:0:0:0:
64,192,209215,1,0,0:0:0:0:
320,192,209292,1,0,0:0:0:0:
192,192,209369,1,0,0:0:0:0:
64,192,209446,1,0,0:0:0:0:
192,192,209522,128,0,209599:0:0:0:0:
448,192,209522,1,0,0:0:0:0:
320,192,209599,1,0,0:0:0:0:
448,192,209676,1,0,0:0:0:0:
192,192,209753,1,0,0:0:0:0:
320,192,209830,1,0,0:0:0:0:
64,192,209830,1,0,0:0:0:0:
448,192,209907,1,0,0:0:0:0:
192,192,209984,1,0,0:0:0:0:
320,192,210061,1,0,0:0:0:0:
192,192,210138,1,0,0:0:0:0:
448,192,210138,1,0,0:0:0:0:
64,192,210215,1,0,0:0:0:0:
448,192,210292,1,0,0:0:0:0:
320,192,210369,1,0,0:0:0:0:
192,192,210446,1,0,0:0:0:0:
448,192,210446,1,0,0:0:0:0:
64,192,210522,1,0,0:0:0:0:
448,192,210599,1,0,0:0:0:0:
320,192,210676,1,0,0:0:0:0:
192,192,210753,1,0,0:0:0:0:
64,192,210830,1,0,0:0:0:0:
192,192,210907,1,0,0:0:0:0:
320,192,210984,1,0,0:0:0:0:
448,192,211061,1,0,0:0:0:0:
64,192,211061,1,0,0:0:0:0:
320,192,211138,1,0,0:0:0:0:
192,192,211215,1,0,0:0:0:0:
320,192,211292,1,0,0:0:0:0:
64,192,211369,1,0,0:0:0:0:
192,192,211446,1,0,0:0:0:0:
320,192,211522,1,0,0:0:0:0:
448,192,211599,1,0,0:0:0:0:
320,192,211676,1,0,0:0:0:0:
192,192,211676,1,0,0:0:0:0:
448,192,221533,5,0,0:0:0:0:
192,192,221533,5,0,0:0:0:0:
64,192,221840,1,0,0:0:0:0:
320,192,221840,1,0,0:0:0:0:
64,192,222148,1,0,0:0:0:0:
192,192,222148,1,0,0:0:0:0:
448,192,222456,1,0,0:0:0:0:
320,192,222456,1,0,0:0:0:0:
64,192,222763,1,0,0:0:0:0:
448,192,222763,1,0,0:0:0:0:
192,192,223071,1,0,0:0:0:0:
320,192,223071,1,0,0:0:0:0:
192,192,223379,1,0,0:0:0:0:
64,192,223379,1,0,0:0:0:0:
448,192,223686,1,0,0:0:0:0:
320,192,223686,1,0,0:0:0:0:
320,192,223994,1,0,0:0:0:0:
64,192,223994,1,0,0:0:0:0:
192,192,224302,1,0,0:0:0:0:
448,192,224302,1,0,0:0:0:0:
448,192,224609,1,0,0:0:0:0:
64,192,224609,1,0,0:0:0:0:
192,192,224917,1,0,0:0:0:0:
320,192,224917,1,0,0:0:0:0:
192,192,225225,1,0,0:0:0:0:
448,192,225225,1,0,0:0:0:0:
64,192,225533,1,0,0:0:0:0:
320,192,225533,1,0,0:0:0:0:
64,192,225840,1,0,0:0:0:0:
192,192,225840,1,0,0:0:0:0:
448,192,226148,1,0,0:0:0:0:
320,192,226148,1,0,0:0:0:0:
64,192,226456,1,0,0:0:0:0:
448,192,226456,1,0,0:0:0:0:
64,192,226609,1,0,0:0:0:0:
448,192,226609,1,0,0:0:0:0:
192,192,226763,1,0,0:0:0:0:
320,192,226763,1,0,0:0:0:0:
192,192,226917,1,0,0:0:0:0:
320,192,226917,1,0,0:0:0:0:
64,192,227071,1,0,0:0:0:0:
192,192,227071,1,0,0:0:0:0:
192,192,227225,1,0,0:0:0:0:
64,192,227225,1,0,0:0:0:0:
448,192,227379,1,0,0:0:0:0:
320,192,227379,1,0,0:0:0:0:
448,192,227533,1,0,0:0:0:0:
320,192,227533,1,0,0:0:0:0:
64,192,227686,1,0,0:0:0:0:
320,192,227686,1,0,0:0:0:0:
320,192,227840,1,0,0:0:0:0:
64,192,227840,1,0,0:0:0:0:
448,192,227994,1,0,0:0:0:0:
192,192,227994,1,0,0:0:0:0:
192,192,228148,1,0,0:0:0:0:
448,192,228148,1,0,0:0:0:0:
448,192,228302,1,0,0:0:0:0:
64,192,228302,1,0,0:0:0:0:
448,192,228456,1,0,0:0:0:0:
64,192,228456,1,0,0:0:0:0:
320,192,228609,1,0,0:0:0:0:
192,192,228609,1,0,0:0:0:0:
320,192,228763,1,0,0:0:0:0:
192,192,228763,1,0,0:0:0:0:
320,192,228917,1,0,0:0:0:0:
448,192,228917,1,0,0:0:0:0:
192,192,228994,1,0,0:0:0:0:
64,192,228994,1,0,0:0:0:0:
320,192,229071,1,0,0:0:0:0:
448,192,229071,1,0,0:0:0:0:
192,192,229148,1,0,0:0:0:0:
64,192,229148,1,0,0:0:0:0:
320,192,229225,1,0,0:0:0:0:
448,192,229225,1,0,0:0:0:0:
192,192,229302,1,0,0:0:0:0:
64,192,229302,1,0,0:0:0:0:
448,192,229379,1,0,0:0:0:0:
320,192,229379,1,0,0:0:0:0:
64,192,229456,1,0,0:0:0:0:
192,192,229456,1,0,0:0:0:0:
448,192,229533,1,0,0:0:0:0:
320,192,229533,1,0,0:0:0:0:
64,192,229609,1,0,0:0:0:0:
192,192,229609,1,0,0:0:0:0:
320,192,229686,1,0,0:0:0:0:
448,192,229686,1,0,0:0:0:0:
192,192,229763,1,0,0:0:0:0:
64,192,229763,1,0,0:0:0:0:
320,192,229840,1,0,0:0:0:0:
448,192,229840,1,0,0:0:0:0:
192,192,229917,1,0,0:0:0:0:
64,192,229917,1,0,0:0:0:0:
448,192,229994,1,0,0:0:0:0:
320,192,229994,1,0,0:0:0:0:
64,192,230071,1,0,0:0:0:0:
192,192,230071,1,0,0:0:0:0:
320,192,230167,1,0,0:0:0:0:
448,192,230167,1,0,0:0:0:0:
64,192,232610,1,0,0:0:0:0:
448,192,232610,1,0,0:0:0:0:
320,192,232610,1,0,0:0:0:0:
192,192,232686,1,0,0:0:0:0:
320,192,232763,1,0,0:0:0:0:
192,192,232840,1,0,0:0:0:0:
64,192,232917,1,0,0:0:0:0:
320,192,232917,1,0,0:0:0:0:
448,192,232917,1,0,0:0:0:0:
192,192,232994,1,0,0:0:0:0:
320,192,233071,1,0,0:0:0:0:
448,192,233148,1,0,0:0:0:0:
320,192,233225,1,0,0:0:0:0:
64,192,233225,1,0,0:0:0:0:
192,192,233225,1,0,0:0:0:0:
448,192,233302,1,0,0:0:0:0:
64,192,233379,1,0,0:0:0:0:
192,192,233456,1,0,0:0:0:0:
64,192,233533,1,0,0:0:0:0:
448,192,233533,1,0,0:0:0:0:
320,192,233533,1,0,0:0:0:0:
192,192,233610,1,0,0:0:0:0:
320,192,233686,1,0,0:0:0:0:
192,192,233763,1,0,0:0:0:0:
320,192,233840,1,0,0:0:0:0:
64,192,233840,1,0,0:0:0:0:
448,192,233840,1,0,0:0:0:0:
192,192,233917,1,0,0:0:0:0:
320,192,233994,1,0,0:0:0:0:
64,192,234071,1,0,0:0:0:0:
192,192,234148,1,0,0:0:0:0:
320,192,234148,1,0,0:0:0:0:
448,192,234148,1,0,0:0:0:0:
64,192,234225,1,0,0:0:0:0:
320,192,234302,1,0,0:0:0:0:
448,192,234379,1,0,0:0:0:0:
192,192,234456,1,0,0:0:0:0:
320,192,234456,1,0,0:0:0:0:
64,192,234456,1,0,0:0:0:0:
448,192,234533,1,0,0:0:0:0:
320,192,234610,1,0,0:0:0:0:
192,192,234686,1,0,0:0:0:0:
64,192,234763,1,0,0:0:0:0:
448,192,234763,1,0,0:0:0:0:
320,192,234763,1,0,0:0:0:0:
192,192,234840,1,0,0:0:0:0:
320,192,234917,1,0,0:0:0:0:
192,192,234994,1,0,0:0:0:0:
320,192,235071,1,0,0:0:0:0:
64,192,235071,1,0,0:0:0:0:
448,192,235071,1,0,0:0:0:0:
192,192,235148,1,0,0:0:0:0:
64,192,235225,1,0,0:0:0:0:
320,192,235302,1,0,0:0:0:0:
192,192,235379,1,0,0:0:0:0:
64,192,235379,1,0,0:0:0:0:
448,192,235379,1,0,0:0:0:0:
320,192,235456,1,0,0:0:0:0:
448,192,235533,1,0,0:0:0:0:
192,192,235610,1,0,0:0:0:0:
64,192,235686,1,0,0:0:0:0:
320,192,235686,1,0,0:0:0:0:
448,192,235686,1,0,0:0:0:0:
192,192,235763,1,0,0:0:0:0:
320,192,235840,1,0,0:0:0:0:
448,192,235917,1,0,0:0:0:0:
64,192,235994,1,0,0:0:0:0:
320,192,235994,1,0,0:0:0:0:
192,192,235994,1,0,0:0:0:0:
448,192,236071,1,0,0:0:0:0:
320,192,236148,1,0,0:0:0:0:
192,192,236225,1,0,0:0:0:0:
64,192,236302,1,0,0:0:0:0:
448,192,236302,1,0,0:0:0:0:
320,192,236302,1,0,0:0:0:0:
192,192,236379,1,0,0:0:0:0:
320,192,236456,1,0,0:0:0:0:
448,192,236533,1,0,0:0:0:0:
64,192,236610,1,0,0:0:0:0:
320,192,236610,1,0,0:0:0:0:
192,192,236610,1,0,0:0:0:0:
448,192,236686,1,0,0:0:0:0:
192,192,236763,1,0,0:0:0:0:
320,192,236840,1,0,0:0:0:0:
64,192,236917,1,0,0:0:0:0:
448,192,236917,1,0,0:0:0:0:
192,192,236917,1,0,0:0:0:0:
320,192,236994,1,0,0:0:0:0:
448,192,237071,1,0,0:0:0:0:
192,192,237148,1,0,0:0:0:0:
64,192,237225,1,0,0:0:0:0:
320,192,237225,1,0,0:0:0:0:
448,192,237225,1,0,0:0:0:0:
192,192,237302,1,0,0:0:0:0:
320,192,237379,1,0,0:0:0:0:
448,192,237456,1,0,0:0:0:0:
64,192,237533,1,0,0:0:0:0:
192,192,237533,1,0,0:0:0:0:
320,192,237533,1,0,0:0:0:0:
448,192,237610,1,0,0:0:0:0:
64,192,237686,1,0,0:0:0:0:
192,192,237763,1,0,0:0:0:0:
320,192,237840,1,0,0:0:0:0:
64,192,237840,1,0,0:0:0:0:
448,192,237840,1,0,0:0:0:0:
192,192,237917,1,0,0:0:0:0:
320,192,237994,1,0,0:0:0:0:
448,192,238071,1,0,0:0:0:0:
320,192,238148,1,0,0:0:0:0:
64,192,238148,1,0,0:0:0:0:
192,192,238148,1,0,0:0:0:0:
448,192,238225,1,0,0:0:0:0:
320,192,238302,1,0,0:0:0:0:
192,192,238379,1,0,0:0:0:0:
64,192,238456,1,0,0:0:0:0:
320,192,238456,1,0,0:0:0:0:
448,192,238456,1,0,0:0:0:0:
192,192,238533,1,0,0:0:0:0:
320,192,238610,1,0,0:0:0:0:
192,192,238686,1,0,0:0:0:0:
64,192,238763,1,0,0:0:0:0:
448,192,238763,1,0,0:0:0:0:
320,192,238763,1,0,0:0:0:0:
192,192,238840,1,0,0:0:0:0:
320,192,238917,1,0,0:0:0:0:
448,192,238994,1,0,0:0:0:0:
64,192,239071,1,0,0:0:0:0:
320,192,239071,1,0,0:0:0:0:
192,192,239071,1,0,0:0:0:0:
448,192,239148,1,0,0:0:0:0:
320,192,239225,1,0,0:0:0:0:
64,192,239302,1,0,0:0:0:0:
192,192,239379,1,0,0:0:0:0:
448,192,239379,1,0,0:0:0:0:
320,192,239379,1,0,0:0:0:0:
64,192,239456,1,0,0:0:0:0:
448,192,239533,1,0,0:0:0:0:
320,192,239610,1,0,0:0:0:0:
192,192,239686,1,0,0:0:0:0:
64,192,239686,1,0,0:0:0:0:
448,192,239686,1,0,0:0:0:0:
320,192,239763,1,0,0:0:0:0:
448,192,239840,1,0,0:0:0:0:
192,192,239917,1,0,0:0:0:0:
448,192,239994,1,0,0:0:0:0:
64,192,239994,1,0,0:0:0:0:
320,192,239994,1,0,0:0:0:0:
192,192,240071,1,0,0:0:0:0:
320,192,240148,1,0,0:0:0:0:
64,192,240225,1,0,0:0:0:0:
192,192,240302,1,0,0:0:0:0:
448,192,240302,1,0,0:0:0:0:
320,192,240302,1,0,0:0:0:0:
64,192,240379,1,0,0:0:0:0:
448,192,240456,1,0,0:0:0:0:
320,192,240533,1,0,0:0:0:0:
448,192,240610,1,0,0:0:0:0:
64,192,240610,1,0,0:0:0:0:
192,192,240610,1,0,0:0:0:0:
320,192,240686,1,0,0:0:0:0:
192,192,240763,1,0,0:0:0:0:
320,192,240840,1,0,0:0:0:0:
192,192,240917,1,0,0:0:0:0:
448,192,240917,1,0,0:0:0:0:
64,192,240917,1,0,0:0:0:0:
320,192,240994,1,0,0:0:0:0:
448,192,241071,1,0,0:0:0:0:
320,192,241148,1,0,0:0:0:0:
192,192,241225,1,0,0:0:0:0:
448,192,241225,1,0,0:0:0:0:
64,192,241225,1,0,0:0:0:0:
320,192,241302,1,0,0:0:0:0:
448,192,241379,1,0,0:0:0:0:
320,192,241456,1,0,0:0:0:0:
192,192,241533,1,0,0:0:0:0:
64,192,241610,1,0,0:0:0:0:
192,192,241686,1,0,0:0:0:0:
320,192,241763,1,0,0:0:0:0:
448,192,241840,1,0,0:0:0:0:
64,192,241840,1,0,0:0:0:0:
320,192,241917,1,0,0:0:0:0:
192,192,241994,1,0,0:0:0:0:
320,192,242071,1,0,0:0:0:0:
64,192,242148,1,0,0:0:0:0:
448,192,242148,1,0,0:0:0:0:
192,192,242148,1,0,0:0:0:0:
320,192,242225,1,0,0:0:0:0:
448,192,242302,1,0,0:0:0:0:
192,192,242379,1,0,0:0:0:0:
64,192,242456,1,0,0:0:0:0:
448,192,242456,1,0,0:0:0:0:
320,192,242456,1,0,0:0:0:0:
192,192,242533,1,0,0:0:0:0:
320,192,242610,1,0,0:0:0:0:
192,192,242686,1,0,0:0:0:0:
64,192,242763,1,0,0:0:0:0:
320,192,242763,1,0,0:0:0:0:
448,192,242763,1,0,0:0:0:0:
192,192,242840,1,0,0:0:0:0:
320,192,242917,1,0,0:0:0:0:
448,192,242994,1,0,0:0:0:0:
320,192,243071,1,0,0:0:0:0:
64,192,243071,1,0,0:0:0:0:
192,192,243071,1,0,0:0:0:0:
448,192,243148,1,0,0:0:0:0:
64,192,243225,1,0,0:0:0:0:
192,192,243302,1,0,0:0:0:0:
320,192,243379,1,0,0:0:0:0:
64,192,243379,1,0,0:0:0:0:
448,192,243379,1,0,0:0:0:0:
192,192,243456,1,0,0:0:0:0:
320,192,243533,1,0,0:0:0:0:
192,192,243610,1,0,0:0:0:0:
320,192,243686,1,0,0:0:0:0:
64,192,243686,1,0,0:0:0:0:
448,192,243686,1,0,0:0:0:0:
192,192,243763,1,0,0:0:0:0:
320,192,243840,1,0,0:0:0:0:
64,192,243917,1,0,0:0:0:0:
192,192,243994,1,0,0:0:0:0:
320,192,243994,1,0,0:0:0:0:
448,192,243994,1,0,0:0:0:0:
64,192,244071,1,0,0:0:0:0:
320,192,244148,1,0,0:0:0:0:
448,192,244225,1,0,0:0:0:0:
192,192,244302,1,0,0:0:0:0:
320,192,244302,1,0,0:0:0:0:
64,192,244302,1,0,0:0:0:0:
448,192,244379,1,0,0:0:0:0:
320,192,244456,1,0,0:0:0:0:
192,192,244533,1,0,0:0:0:0:
64,192,244610,1,0,0:0:0:0:
448,192,244610,1,0,0:0:0:0:
320,192,244610,1,0,0:0:0:0:
192,192,244686,1,0,0:0:0:0:
320,192,244763,1,0,0:0:0:0:
192,192,244840,1,0,0:0:0:0:
320,192,244917,1,0,0:0:0:0:
64,192,244917,1,0,0:0:0:0:
448,192,244917,1,0,0:0:0:0:
192,192,244994,1,0,0:0:0:0:
64,192,245071,1,0,0:0:0:0:
320,192,245148,1,0,0:0:0:0:
192,192,245225,1,0,0:0:0:0:
64,192,245225,1,0,0:0:0:0:
448,192,245225,1,0,0:0:0:0:
320,192,245302,1,0,0:0:0:0:
448,192,245379,1,0,0:0:0:0:
192,192,245456,1,0,0:0:0:0:
64,192,245533,1,0,0:0:0:0:
448,192,245533,1,0,0:0:0:0:
320,192,245533,1,0,0:0:0:0:
192,192,245610,1,0,0:0:0:0:
320,192,245686,1,0,0:0:0:0:
448,192,245763,1,0,0:0:0:0:
64,192,245840,1,0,0:0:0:0:
320,192,245840,1,0,0:0:0:0:
192,192,245840,1,0,0:0:0:0:
448,192,245917,1,0,0:0:0:0:
320,192,245994,1,0,0:0:0:0:
192,192,246071,1,0,0:0:0:0:
64,192,246148,1,0,0:0:0:0:
448,192,246148,1,0,0:0:0:0:
320,192,246148,1,0,0:0:0:0:
192,192,246225,1,0,0:0:0:0:
320,192,246302,1,0,0:0:0:0:
448,192,246379,1,0,0:0:0:0:
64,192,246456,1,0,0:0:0:0:
320,192,246456,1,0,0:0:0:0:
192,192,246456,1,0,0:0:0:0:
448,192,246513,1,0,0:0:0:0:
192,192,246610,1,0,0:0:0:0:
320,192,246686,1,0,0:0:0:0:
64,192,246763,1,0,0:0:0:0:
448,192,246763,1,0,0:0:0:0:
192,192,246763,1,0,0:0:0:0:
320,192,246840,1,0,0:0:0:0:
448,192,246917,1,0,0:0:0:0:
192,192,246994,1,0,0:0:0:0:
64,192,247071,1,0,0:0:0:0:
320,192,247071,1,0,0:0:0:0:
448,192,247071,1,0,0:0:0:0:
192,192,247148,1,0,0:0:0:0:
320,192,247225,1,0,0:0:0:0:
448,192,247302,1,0,0:0:0:0:
320,192,247379,1,0,0:0:0:0:
64,192,247379,1,0,0:0:0:0:
192,192,247379,1,0,0:0:0:0:
448,192,247456,1,0,0:0:0:0:
64,192,247533,1,0,0:0:0:0:
192,192,247610,1,0,0:0:0:0:
64,192,247686,1,0,0:0:0:0:
448,192,247686,128,0,247763:0:0:0:0:
192,192,247763,1,0,0:0:0:0:
320,192,247840,1,0,0:0:0:0:
448,192,247917,1,0,0:0:0:0:
320,192,247994,1,0,0:0:0:0:
64,192,247994,1,0,0:0:0:0:
192,192,247994,1,0,0:0:0:0:
448,192,248071,1,0,0:0:0:0:
320,192,248148,1,0,0:0:0:0:
192,192,248225,1,0,0:0:0:0:
448,192,248302,1,0,0:0:0:0:
192,192,248379,1,0,0:0:0:0:
320,192,248456,1,0,0:0:0:0:
192,192,248533,1,0,0:0:0:0:
64,192,248610,1,0,0:0:0:0:
448,192,248610,1,0,0:0:0:0:
320,192,248610,1,0,0:0:0:0:
192,192,248686,1,0,0:0:0:0:
320,192,248763,1,0,0:0:0:0:
448,192,248840,1,0,0:0:0:0:
64,192,248917,128,0,248994:0:0:0:0:
448,192,248994,1,0,0:0:0:0:
320,192,249071,1,0,0:0:0:0:
64,192,249148,1,0,0:0:0:0:
192,192,249225,1,0,0:0:0:0:
448,192,249225,1,0,0:0:0:0:
320,192,249225,1,0,0:0:0:0:
64,192,249302,1,0,0:0:0:0:
448,192,249379,1,0,0:0:0:0:
320,192,249456,1,0,0:0:0:0:
64,192,249533,1,0,0:0:0:0:
320,192,249610,1,0,0:0:0:0:
448,192,249686,1,0,0:0:0:0:
320,192,249763,1,0,0:0:0:0:
192,192,249840,1,0,0:0:0:0:
64,192,249840,1,0,0:0:0:0:
448,192,249840,1,0,0:0:0:0:
320,192,249994,1,0,0:0:0:0:
192,192,249994,1,0,0:0:0:0:
64,192,249994,1,0,0:0:0:0:
448,192,250148,1,0,0:0:0:0:
320,192,250148,1,0,0:0:0:0:
192,192,250148,128,0,250225:0:0:0:0:
448,192,250302,1,0,0:0:0:0:
320,192,250302,1,0,0:0:0:0:
64,192,250302,1,0,0:0:0:0:
192,192,250456,1,0,0:0:0:0:
448,192,250456,1,0,0:0:0:0:
64,192,250456,1,0,0:0:0:0:
192,192,250610,1,0,0:0:0:0:
64,192,250610,1,0,0:0:0:0:
320,192,250610,1,0,0:0:0:0:
192,192,250763,1,0,0:0:0:0:
448,192,250763,1,0,0:0:0:0:
320,192,250763,1,0,0:0:0:0:
448,192,250917,1,0,0:0:0:0:
64,192,250917,1,0,0:0:0:0:
320,192,250917,1,0,0:0:0:0:
192,192,251071,1,0,0:0:0:0:
64,192,251071,1,0,0:0:0:0:
448,192,251071,1,0,0:0:0:0:
320,192,251148,1,0,0:0:0:0:
448,192,251225,1,0,0:0:0:0:
320,192,251302,1,0,0:0:0:0:
192,192,251379,1,0,0:0:0:0:
448,192,251379,128,0,251456:0:0:0:0:
64,192,251456,1,0,0:0:0:0:
192,192,251533,1,0,0:0:0:0:
320,192,251610,1,0,0:0:0:0:
448,192,251686,1,0,0:0:0:0:
64,192,251686,1,0,0:0:0:0:
320,192,251763,1,0,0:0:0:0:
192,192,251840,1,0,0:0:0:0:
320,192,251917,1,0,0:0:0:0:
64,192,251994,1,0,0:0:0:0:
448,192,251994,1,0,0:0:0:0:
192,192,251994,1,0,0:0:0:0:
320,192,252071,1,0,0:0:0:0:
448,192,252148,1,0,0:0:0:0:
192,192,252225,1,0,0:0:0:0:
64,192,252302,1,0,0:0:0:0:
448,192,252302,1,0,0:0:0:0:
320,192,252302,1,0,0:0:0:0:
192,192,252379,1,0,0:0:0:0:
320,192,252456,1,0,0:0:0:0:
192,192,252533,1,0,0:0:0:0:
64,192,252610,1,0,0:0:0:0:
320,192,252610,1,0,0:0:0:0:
448,192,252610,1,0,0:0:0:0:
192,192,252686,1,0,0:0:0:0:
320,192,252763,1,0,0:0:0:0:
448,192,252840,1,0,0:0:0:0:
320,192,252917,1,0,0:0:0:0:
64,192,252917,1,0,0:0:0:0:
192,192,252917,1,0,0:0:0:0:
448,192,252994,1,0,0:0:0:0:
64,192,253071,1,0,0:0:0:0:
192,192,253148,1,0,0:0:0:0:
320,192,253225,1,0,0:0:0:0:
64,192,253225,1,0,0:0:0:0:
448,192,253225,1,0,0:0:0:0:
192,192,253302,1,0,0:0:0:0:
320,192,253379,1,0,0:0:0:0:
192,192,253456,1,0,0:0:0:0:
64,192,253533,1,0,0:0:0:0:
448,192,253533,1,0,0:0:0:0:
320,192,253533,1,0,0:0:0:0:
192,192,253610,1,0,0:0:0:0:
320,192,253686,1,0,0:0:0:0:
64,192,253763,1,0,0:0:0:0:
192,192,253840,1,0,0:0:0:0:
320,192,253840,1,0,0:0:0:0:
448,192,253840,1,0,0:0:0:0:
64,192,253917,1,0,0:0:0:0:
320,192,253994,1,0,0:0:0:0:
448,192,254071,1,0,0:0:0:0:
192,192,254148,1,0,0:0:0:0:
320,192,254148,1,0,0:0:0:0:
64,192,254148,1,0,0:0:0:0:
448,192,254225,1,0,0:0:0:0:
320,192,254302,1,0,0:0:0:0:
192,192,254379,1,0,0:0:0:0:
64,192,254456,1,0,0:0:0:0:
448,192,254456,1,0,0:0:0:0:
320,192,254456,1,0,0:0:0:0:
192,192,254533,1,0,0:0:0:0:
320,192,254610,1,0,0:0:0:0:
192,192,254686,1,0,0:0:0:0:
320,192,254763,1,0,0:0:0:0:
64,192,254763,1,0,0:0:0:0:
448,192,254763,1,0,0:0:0:0:
192,192,254840,1,0,0:0:0:0:
64,192,254917,1,0,0:0:0:0:
320,192,254994,1,0,0:0:0:0:
192,192,255071,1,0,0:0:0:0:
64,192,255071,1,0,0:0:0:0:
448,192,255071,1,0,0:0:0:0:
320,192,255148,1,0,0:0:0:0:
448,192,255225,1,0,0:0:0:0:
192,192,255302,1,0,0:0:0:0:
64,192,255379,1,0,0:0:0:0:
320,192,255379,1,0,0:0:0:0:
448,192,255379,1,0,0:0:0:0:
192,192,255456,1,0,0:0:0:0:
320,192,255533,1,0,0:0:0:0:
448,192,255610,1,0,0:0:0:0:
64,192,255686,1,0,0:0:0:0:
320,192,255686,1,0,0:0:0:0:
192,192,255686,1,0,0:0:0:0:
448,192,255763,1,0,0:0:0:0:
320,192,255840,1,0,0:0:0:0:
192,192,255917,1,0,0:0:0:0:
64,192,255994,1,0,0:0:0:0:
448,192,255994,1,0,0:0:0:0:
320,192,255994,1,0,0:0:0:0:
192,192,256071,1,0,0:0:0:0:
320,192,256148,1,0,0:0:0:0:
448,192,256225,1,0,0:0:0:0:
64,192,256302,1,0,0:0:0:0:
320,192,256302,1,0,0:0:0:0:
192,192,256302,1,0,0:0:0:0:
448,192,256379,1,0,0:0:0:0:
192,192,256456,1,0,0:0:0:0:
320,192,256533,1,0,0:0:0:0:
64,192,256610,1,0,0:0:0:0:
448,192,256610,1,0,0:0:0:0:
192,192,256610,1,0,0:0:0:0:
320,192,256686,1,0,0:0:0:0:
448,192,256763,1,0,0:0:0:0:
192,192,256840,1,0,0:0:0:0:
64,192,256917,1,0,0:0:0:0:
320,192,256917,1,0,0:0:0:0:
448,192,256917,1,0,0:0:0:0:
192,192,256994,1,0,0:0:0:0:
320,192,257071,1,0,0:0:0:0:
448,192,257148,1,0,0:0:0:0:
320,192,257225,1,0,0:0:0:0:
64,192,257225,1,0,0:0:0:0:
192,192,257225,1,0,0:0:0:0:
448,192,257302,1,0,0:0:0:0:
64,192,257379,1,0,0:0:0:0:
192,192,257456,1,0,0:0:0:0:
64,192,257533,1,0,0:0:0:0:
320,192,257533,1,0,0:0:0:0:
448,192,257533,1,0,0:0:0:0:
192,192,257610,1,0,0:0:0:0:
320,192,257686,1,0,0:0:0:0:
448,192,257763,1,0,0:0:0:0:
320,192,257840,1,0,0:0:0:0:
64,192,257840,1,0,0:0:0:0:
192,192,257840,1,0,0:0:0:0:
448,192,257917,1,0,0:0:0:0:
320,192,257994,1,0,0:0:0:0:
192,192,258071,1,0,0:0:0:0:
64,192,258148,1,0,0:0:0:0:
320,192,258148,1,0,0:0:0:0:
448,192,258148,1,0,0:0:0:0:
192,192,258225,1,0,0:0:0:0:
320,192,258302,1,0,0:0:0:0:
192,192,258379,1,0,0:0:0:0:
64,192,258456,1,0,0:0:0:0:
448,192,258456,1,0,0:0:0:0:
320,192,258456,1,0,0:0:0:0:
192,192,258533,1,0,0:0:0:0:
320,192,258610,1,0,0:0:0:0:
448,192,258686,1,0,0:0:0:0:
64,192,258763,1,0,0:0:0:0:
320,192,258763,1,0,0:0:0:0:
192,192,258763,1,0,0:0:0:0:
448,192,258840,1,0,0:0:0:0:
320,192,258917,1,0,0:0:0:0:
64,192,258994,1,0,0:0:0:0:
192,192,259071,1,0,0:0:0:0:
448,192,259071,1,0,0:0:0:0:
320,192,259071,1,0,0:0:0:0:
64,192,259148,1,0,0:0:0:0:
448,192,259225,1,0,0:0:0:0:
320,192,259302,1,0,0:0:0:0:
192,192,259379,1,0,0:0:0:0:
64,192,259379,1,0,0:0:0:0:
448,192,259379,1,0,0:0:0:0:
320,192,259456,1,0,0:0:0:0:
448,192,259533,1,0,0:0:0:0:
192,192,259610,1,0,0:0:0:0:
448,192,259686,1,0,0:0:0:0:
64,192,259686,1,0,0:0:0:0:
320,192,259686,1,0,0:0:0:0:
192,192,259763,1,0,0:0:0:0:
320,192,259840,1,0,0:0:0:0:
64,192,259917,1,0,0:0:0:0:
192,192,259994,1,0,0:0:0:0:
448,192,259994,1,0,0:0:0:0:
320,192,259994,1,0,0:0:0:0:
64,192,260071,1,0,0:0:0:0:
448,192,260148,1,0,0:0:0:0:
320,192,260225,1,0,0:0:0:0:
448,192,260302,1,0,0:0:0:0:
64,192,260302,1,0,0:0:0:0:
192,192,260302,1,0,0:0:0:0:
320,192,260379,1,0,0:0:0:0:
192,192,260456,1,0,0:0:0:0:
320,192,260533,1,0,0:0:0:0:
192,192,260610,1,0,0:0:0:0:
448,192,260610,1,0,0:0:0:0:
64,192,260610,1,0,0:0:0:0:
320,192,260686,1,0,0:0:0:0:
448,192,260763,1,0,0:0:0:0:
320,192,260840,1,0,0:0:0:0:
192,192,260917,1,0,0:0:0:0:
448,192,260917,1,0,0:0:0:0:
64,192,260917,1,0,0:0:0:0:
320,192,260994,1,0,0:0:0:0:
448,192,261071,1,0,0:0:0:0:
64,192,261148,1,0,0:0:0:0:
192,192,261225,1,0,0:0:0:0:
448,192,261225,1,0,0:0:0:0:
320,192,261225,1,0,0:0:0:0:
64,192,261302,1,0,0:0:0:0:
192,192,261379,1,0,0:0:0:0:
320,192,261456,1,0,0:0:0:0:
64,192,261533,1,0,0:0:0:0:
192,192,261533,1,0,0:0:0:0:
448,192,261533,1,0,0:0:0:0:
320,192,261610,1,0,0:0:0:0:
192,192,261686,1,0,0:0:0:0:
320,192,261763,1,0,0:0:0:0:
448,192,261840,1,0,0:0:0:0:
192,192,261840,1,0,0:0:0:0:
64,192,261840,1,0,0:0:0:0:
320,192,261917,1,0,0:0:0:0:
64,192,261994,1,0,0:0:0:0:
192,192,262071,1,0,0:0:0:0:
320,192,262148,1,0,0:0:0:0:
448,192,262148,1,0,0:0:0:0:
64,192,262148,1,0,0:0:0:0:
192,192,262225,1,0,0:0:0:0:
320,192,262302,1,0,0:0:0:0:
192,192,262379,1,0,0:0:0:0:
448,192,262456,1,0,0:0:0:0:
320,192,262456,1,0,0:0:0:0:
64,192,262456,1,0,0:0:0:0:
192,192,262533,1,0,0:0:0:0:
320,192,262610,1,0,0:0:0:0:
448,192,262686,1,0,0:0:0:0:
192,192,262763,1,0,0:0:0:0:
64,192,262763,1,0,0:0:0:0:
320,192,262763,1,0,0:0:0:0:
448,192,262840,1,0,0:0:0:0:
64,192,262917,1,0,0:0:0:0:
192,192,262994,1,0,0:0:0:0:
448,192,263071,1,0,0:0:0:0:
64,192,263071,1,0,0:0:0:0:
320,192,263071,1,0,0:0:0:0:
192,192,263148,1,0,0:0:0:0:
320,192,263225,1,0,0:0:0:0:
192,192,263302,1,0,0:0:0:0:
448,192,263379,1,0,0:0:0:0:
64,192,263379,1,0,0:0:0:0:
320,192,263379,1,0,0:0:0:0:
192,192,263456,1,0,0:0:0:0:
320,192,263533,1,0,0:0:0:0:
64,192,263610,1,0,0:0:0:0:
448,192,263686,1,0,0:0:0:0:
320,192,263686,1,0,0:0:0:0:
192,192,263686,1,0,0:0:0:0:
64,192,263763,1,0,0:0:0:0:
320,192,263840,1,0,0:0:0:0:
448,192,263917,1,0,0:0:0:0:
64,192,263994,1,0,0:0:0:0:
320,192,263994,1,0,0:0:0:0:
192,192,263994,1,0,0:0:0:0:
448,192,264071,1,0,0:0:0:0:
320,192,264148,1,0,0:0:0:0:
192,192,264225,1,0,0:0:0:0:
320,192,264302,1,0,0:0:0:0:
448,192,264302,1,0,0:0:0:0:
64,192,264302,1,0,0:0:0:0:
192,192,264379,1,0,0:0:0:0:
320,192,264456,1,0,0:0:0:0:
192,192,264533,1,0,0:0:0:0:
448,192,264610,1,0,0:0:0:0:
64,192,264610,1,0,0:0:0:0:
320,192,264610,1,0,0:0:0:0:
192,192,264686,1,0,0:0:0:0:
64,192,264763,1,0,0:0:0:0:
320,192,264840,1,0,0:0:0:0:
448,192,264917,1,0,0:0:0:0:
64,192,264917,1,0,0:0:0:0:
192,192,264917,1,0,0:0:0:0:
320,192,264994,1,0,0:0:0:0:
448,192,265071,1,0,0:0:0:0:
192,192,265148,1,0,0:0:0:0:
448,192,265225,1,0,0:0:0:0:
320,192,265225,1,0,0:0:0:0:
64,192,265225,1,0,0:0:0:0:
192,192,265302,1,0,0:0:0:0:
320,192,265379,1,0,0:0:0:0:
448,192,265456,1,0,0:0:0:0:
64,192,265533,1,0,0:0:0:0:
192,192,265533,1,0,0:0:0:0:
320,192,265533,1,0,0:0:0:0:
448,192,265610,1,0,0:0:0:0:
320,192,265686,1,0,0:0:0:0:
192,192,265763,1,0,0:0:0:0:
320,192,265840,1,0,0:0:0:0:
448,192,265840,1,0,0:0:0:0:
64,192,265840,1,0,0:0:0:0:
192,192,265917,1,0,0:0:0:0:
320,192,265994,1,0,0:0:0:0:
448,192,266071,1,0,0:0:0:0:
192,192,266148,1,0,0:0:0:0:
320,192,266148,1,0,0:0:0:0:
64,192,266148,1,0,0:0:0:0:
448,192,266225,1,0,0:0:0:0:
192,192,266302,1,0,0:0:0:0:
320,192,266379,1,0,0:0:0:0:
192,192,266456,1,0,0:0:0:0:
448,192,266456,1,0,0:0:0:0:
64,192,266456,1,0,0:0:0:0:
320,192,266533,1,0,0:0:0:0:
448,192,266610,1,0,0:0:0:0:
192,192,266686,1,0,0:0:0:0:
448,192,266763,1,0,0:0:0:0:
320,192,266763,1,0,0:0:0:0:
64,192,266763,1,0,0:0:0:0:
192,192,266840,1,0,0:0:0:0:
320,192,266917,1,0,0:0:0:0:
448,192,266994,1,0,0:0:0:0:
192,192,267071,1,0,0:0:0:0:
64,192,267071,1,0,0:0:0:0:
320,192,267071,1,0,0:0:0:0:
448,192,267148,1,0,0:0:0:0:
64,192,267225,1,0,0:0:0:0:
192,192,267302,1,0,0:0:0:0:
64,192,267379,1,0,0:0:0:0:
320,192,267379,1,0,0:0:0:0:
448,192,267379,128,0,267456:0:0:0:0:
192,192,267456,1,0,0:0:0:0:
320,192,267533,1,0,0:0:0:0:
448,192,267610,1,0,0:0:0:0:
192,192,267686,1,0,0:0:0:0:
64,192,267686,1,0,0:0:0:0:
320,192,267686,1,0,0:0:0:0:
448,192,267763,1,0,0:0:0:0:
320,192,267840,1,0,0:0:0:0:
192,192,267917,1,0,0:0:0:0:
448,192,267994,1,0,0:0:0:0:
320,192,267994,1,0,0:0:0:0:
64,192,267994,1,0,0:0:0:0:
192,192,268071,1,0,0:0:0:0:
320,192,268148,1,0,0:0:0:0:
192,192,268225,1,0,0:0:0:0:
320,192,268302,1,0,0:0:0:0:
448,192,268302,1,0,0:0:0:0:
64,192,268302,1,0,0:0:0:0:
192,192,268379,1,0,0:0:0:0:
320,192,268456,1,0,0:0:0:0:
448,192,268533,1,0,0:0:0:0:
192,192,268610,1,0,0:0:0:0:
320,192,268610,1,0,0:0:0:0:
64,192,268610,128,0,268686:0:0:0:0:
448,192,268686,1,0,0:0:0:0:
320,192,268763,1,0,0:0:0:0:
64,192,268840,1,0,0:0:0:0:
320,192,268917,1,0,0:0:0:0:
448,192,268917,1,0,0:0:0:0:
192,192,268917,1,0,0:0:0:0:
64,192,268994,1,0,0:0:0:0:
448,192,269071,1,0,0:0:0:0:
320,192,269148,1,0,0:0:0:0:
448,192,269225,1,0,0:0:0:0:
64,192,269225,1,0,0:0:0:0:
192,192,269225,1,0,0:0:0:0:
320,192,269302,1,0,0:0:0:0:
448,192,269379,1,0,0:0:0:0:
192,192,269456,1,0,0:0:0:0:
64,192,269533,1,0,0:0:0:0:
448,192,269533,1,0,0:0:0:0:
320,192,269533,1,0,0:0:0:0:
192,192,269610,1,0,0:0:0:0:
320,192,269686,1,0,0:0:0:0:
64,192,269763,1,0,0:0:0:0:
448,192,269840,1,0,0:0:0:0:
192,192,269840,1,0,0:0:0:0:
320,192,269840,128,0,269917:0:0:0:0:
64,192,269917,1,0,0:0:0:0:
448,192,269994,1,0,0:0:0:0:
320,192,270071,1,0,0:0:0:0:
192,192,270148,1,0,0:0:0:0:
64,192,270148,1,0,0:0:0:0:
448,192,270148,1,0,0:0:0:0:
320,192,270225,1,0,0:0:0:0:
192,192,270302,1,0,0:0:0:0:
320,192,270379,1,0,0:0:0:0:
64,192,270456,1,0,0:0:0:0:
448,192,270456,1,0,0:0:0:0:
192,192,270456,1,0,0:0:0:0:
320,192,270533,1,0,0:0:0:0:
448,192,270610,1,0,0:0:0:0:
320,192,270686,1,0,0:0:0:0:
64,192,270763,1,0,0:0:0:0:
448,192,270763,1,0,0:0:0:0:
192,192,270763,1,0,0:0:0:0:
320,192,270840,1,0,0:0:0:0:
448,192,270917,1,0,0:0:0:0:
320,192,270994,1,0,0:0:0:0:
192,192,271071,1,0,0:0:0:0:
64,192,271148,1,0,0:0:0:0:
192,192,271225,1,0,0:0:0:0:
320,192,271302,1,0,0:0:0:0:
64,192,271379,1,0,0:0:0:0:
448,192,271379,1,0,0:0:0:0:
320,192,271456,1,0,0:0:0:0:
192,192,271533,1,0,0:0:0:0:
320,192,271610,1,0,0:0:0:0:
448,192,271686,1,0,0:0:0:0:
192,192,271763,1,0,0:0:0:0:
320,192,271840,1,0,0:0:0:0:
64,192,271917,1,0,0:0:0:0:
320,192,271994,1,0,0:0:0:0:
192,192,271994,128,0,272145:0:0:0:0:
448,192,271994,128,0,272033:0:0:0:0:
448,192,272145,1,0,0:0:0:0:
320,192,272145,1,0,0:0:0:0:
320,192,272302,1,0,0:0:0:0:
64,192,272302,1,0,0:0:0:0:
192,192,272302,1,0,0:0:0:0:
448,192,272456,128,0,272610:0:0:0:0:
320,192,272610,1,0,0:0:0:0:
64,192,272610,1,0,0:0:0:0:
448,192,272764,1,0,0:0:0:0:
320,192,272764,1,0,0:0:0:0:
64,192,272918,1,0,0:0:0:0:
192,192,272918,1,0,0:0:0:0:
448,192,272995,1,0,0:0:0:0:
192,192,273072,1,0,0:0:0:0:
320,192,273149,1,0,0:0:0:0:
192,192,273225,1,0,0:0:0:0:
64,192,273225,1,0,0:0:0:0:
320,192,273379,1,0,0:0:0:0:
448,192,273379,1,0,0:0:0:0:
64,192,273533,1,0,0:0:0:0:
192,192,273533,1,0,0:0:0:0:
320,192,273533,1,0,0:0:0:0:
448,192,273687,1,0,0:0:0:0:
320,192,273764,1,0,0:0:0:0:
192,192,273841,1,0,0:0:0:0:
64,192,273841,1,0,0:0:0:0:
448,192,273918,1,0,0:0:0:0:
192,192,273995,1,0,0:0:0:0:
448,192,274149,1,0,0:0:0:0:
192,192,274149,1,0,0:0:0:0:
64,192,274149,1,0,0:0:0:0:
320,192,274302,1,0,0:0:0:0:
64,192,274379,1,0,0:0:0:0:
320,192,274456,1,0,0:0:0:0:
192,192,274456,1,0,0:0:0:0:
448,192,274456,128,0,274610:0:0:0:0:
64,192,274610,1,0,0:0:0:0:
448,192,274764,1,0,0:0:0:0:
192,192,274764,1,0,0:0:0:0:
448,192,274918,128,0,275072:0:0:0:0:
192,192,275072,1,0,0:0:0:0:
64,192,275072,1,0,0:0:0:0:
320,192,275226,1,0,0:0:0:0:
64,192,275379,1,0,0:0:0:0:
192,192,275379,1,0,0:0:0:0:
448,192,275456,1,0,0:0:0:0:
192,192,275533,1,0,0:0:0:0:
320,192,275610,1,0,0:0:0:0:
448,192,275687,1,0,0:0:0:0:
192,192,275687,1,0,0:0:0:0:
64,192,275687,128,0,275726:0:0:0:0:
64,192,275841,1,0,0:0:0:0:
320,192,275841,1,0,0:0:0:0:
192,192,275995,1,0,0:0:0:0:
448,192,275995,1,0,0:0:0:0:
64,192,276149,1,0,0:0:0:0:
320,192,276226,1,0,0:0:0:0:
448,192,276226,1,0,0:0:0:0:
192,192,276302,1,0,0:0:0:0:
64,192,276302,128,0,276341:0:0:0:0:
448,192,276379,1,0,0:0:0:0:
192,192,276456,1,0,0:0:0:0:
64,192,276456,1,0,0:0:0:0:
64,192,276610,1,0,0:0:0:0:
192,192,276610,1,0,0:0:0:0:
448,192,276610,1,0,0:0:0:0:
192,192,276764,1,0,0:0:0:0:
448,192,276764,1,0,0:0:0:0:
320,192,276841,1,0,0:0:0:0:
192,192,276918,1,0,0:0:0:0:
64,192,276918,128,0,277069:0:0:0:0:
448,192,276918,128,0,276935:0:0:0:0:
320,192,277069,1,0,0:0:0:0:
192,192,277225,1,0,0:0:0:0:
64,192,277225,1,0,0:0:0:0:
320,192,277225,1,0,0:0:0:0:
448,192,277379,128,0,277533:0:0:0:0:
64,192,277533,1,0,0:0:0:0:
192,192,277533,1,0,0:0:0:0:
448,192,277687,1,0,0:0:0:0:
320,192,277841,1,0,0:0:0:0:
192,192,277841,1,0,0:0:0:0:
448,192,277918,1,0,0:0:0:0:
192,192,277995,1,0,0:0:0:0:
320,192,278072,1,0,0:0:0:0:
448,192,278072,1,0,0:0:0:0:
192,192,278148,1,0,0:0:0:0:
64,192,278148,1,0,0:0:0:0:
320,192,278302,1,0,0:0:0:0:
192,192,278302,1,0,0:0:0:0:
448,192,278456,1,0,0:0:0:0:
320,192,278456,1,0,0:0:0:0:
64,192,278456,1,0,0:0:0:0:
192,192,278610,1,0,0:0:0:0:
64,192,278687,1,0,0:0:0:0:
320,192,278764,1,0,0:0:0:0:
192,192,278764,1,0,0:0:0:0:
64,192,278841,1,0,0:0:0:0:
448,192,278918,1,0,0:0:0:0:
192,192,278918,1,0,0:0:0:0:
448,192,279072,1,0,0:0:0:0:
320,192,279072,1,0,0:0:0:0:
64,192,279072,1,0,0:0:0:0:
192,192,279225,1,0,0:0:0:0:
320,192,279302,1,0,0:0:0:0:
448,192,279379,1,0,0:0:0:0:
192,192,279379,128,0,279514:0:0:0:0:
448,192,279514,1,0,0:0:0:0:
320,192,279514,1,0,0:0:0:0:
320,192,279687,1,0,0:0:0:0:
64,192,279687,1,0,0:0:0:0:
192,192,279687,1,0,0:0:0:0:
448,192,279841,128,0,279995:0:0:0:0:
320,192,279995,1,0,0:0:0:0:
64,192,279995,1,0,0:0:0:0:
448,192,280149,1,0,0:0:0:0:
320,192,280149,1,0,0:0:0:0:
64,192,280302,1,0,0:0:0:0:
192,192,280302,1,0,0:0:0:0:
448,192,280379,1,0,0:0:0:0:
192,192,280456,1,0,0:0:0:0:
320,192,280533,1,0,0:0:0:0:
192,192,280610,1,0,0:0:0:0:
64,192,280610,1,0,0:0:0:0:
448,192,280610,128,0,280649:0:0:0:0:
320,192,280764,1,0,0:0:0:0:
448,192,280764,1,0,0:0:0:0:
192,192,280918,1,0,0:0:0:0:
320,192,280918,1,0,0:0:0:0:
64,192,280918,1,0,0:0:0:0:
448,192,281072,1,0,0:0:0:0:
320,192,281149,1,0,0:0:0:0:
192,192,281225,1,0,0:0:0:0:
64,192,281225,1,0,0:0:0:0:
448,192,281302,1,0,0:0:0:0:
192,192,281379,1,0,0:0:0:0:
448,192,281514,1,0,0:0:0:0:
192,192,281514,1,0,0:0:0:0:
64,192,281514,1,0,0:0:0:0:
320,192,281687,1,0,0:0:0:0:
64,192,281764,1,0,0:0:0:0:
320,192,281841,1,0,0:0:0:0:
448,192,281841,128,0,281991:0:0:0:0:
192,192,281841,128,0,281859:0:0:0:0:
64,192,281991,1,0,0:0:0:0:
448,192,282148,1,0,0:0:0:0:
192,192,282148,1,0,0:0:0:0:
448,192,282302,128,0,282456:0:0:0:0:
192,192,282456,1,0,0:0:0:0:
64,192,282456,1,0,0:0:0:0:
320,192,282610,1,0,0:0:0:0:
64,192,282764,1,0,0:0:0:0:
192,192,282764,1,0,0:0:0:0:
448,192,282841,1,0,0:0:0:0:
192,192,282918,1,0,0:0:0:0:
320,192,282995,1,0,0:0:0:0:
448,192,283071,1,0,0:0:0:0:
192,192,283071,1,0,0:0:0:0:
64,192,283225,1,0,0:0:0:0:
320,192,283225,1,0,0:0:0:0:
192,192,283379,1,0,0:0:0:0:
448,192,283379,1,0,0:0:0:0:
64,192,283514,1,0,0:0:0:0:
320,192,283610,1,0,0:0:0:0:
448,192,283610,1,0,0:0:0:0:
192,192,283687,1,0,0:0:0:0:
448,192,283764,1,0,0:0:0:0:
192,192,283841,1,0,0:0:0:0:
64,192,283841,1,0,0:0:0:0:
64,192,283995,1,0,0:0:0:0:
192,192,283995,1,0,0:0:0:0:
448,192,283995,1,0,0:0:0:0:
192,192,284148,1,0,0:0:0:0:
448,192,284148,1,0,0:0:0:0:
320,192,284225,1,0,0:0:0:0:
448,192,284302,1,0,0:0:0:0:
192,192,284302,1,0,0:0:0:0:
64,192,284302,128,0,284456:0:0:0:0:
320,192,284456,1,0,0:0:0:0:
192,192,284610,1,0,0:0:0:0:
64,192,284610,1,0,0:0:0:0:
320,192,284610,1,0,0:0:0:0:
448,192,284764,128,0,284918:0:0:0:0:
192,192,284918,1,0,0:0:0:0:
64,192,284918,1,0,0:0:0:0:
448,192,285072,1,0,0:0:0:0:
320,192,285225,1,0,0:0:0:0:
192,192,285225,1,0,0:0:0:0:
448,192,285302,1,0,0:0:0:0:
192,192,285379,1,0,0:0:0:0:
320,192,285456,1,0,0:0:0:0:
448,192,285456,1,0,0:0:0:0:
64,192,285533,1,0,0:0:0:0:
192,192,285533,1,0,0:0:0:0:
320,192,285687,1,0,0:0:0:0:
192,192,285687,1,0,0:0:0:0:
448,192,285841,1,0,0:0:0:0:
320,192,285841,1,0,0:0:0:0:
64,192,285841,1,0,0:0:0:0:
192,192,285995,1,0,0:0:0:0:
64,192,286072,1,0,0:0:0:0:
320,192,286148,1,0,0:0:0:0:
192,192,286148,1,0,0:0:0:0:
64,192,286225,1,0,0:0:0:0:
448,192,286302,1,0,0:0:0:0:
192,192,286302,1,0,0:0:0:0:
448,192,286456,1,0,0:0:0:0:
320,192,286456,1,0,0:0:0:0:
64,192,286456,1,0,0:0:0:0:
192,192,286610,1,0,0:0:0:0:
320,192,286687,1,0,0:0:0:0:
192,192,286764,128,0,286914:0:0:0:0:
64,192,286764,1,0,0:0:0:0:
448,192,286764,128,0,286802:0:0:0:0:
320,192,286914,1,0,0:0:0:0:
64,192,286914,1,0,0:0:0:0:
448,192,287071,1,0,0:0:0:0:
64,192,287071,1,0,0:0:0:0:
320,192,287071,1,0,0:0:0:0:
448,192,287225,128,0,287379:0:0:0:0:
64,192,287379,1,0,0:0:0:0:
192,192,287379,1,0,0:0:0:0:
448,192,287533,1,0,0:0:0:0:
192,192,287533,1,0,0:0:0:0:
320,192,287687,1,0,0:0:0:0:
64,192,287687,1,0,0:0:0:0:
448,192,287764,1,0,0:0:0:0:
192,192,287841,1,0,0:0:0:0:
320,192,287918,1,0,0:0:0:0:
64,192,287994,1,0,0:0:0:0:
448,192,287994,1,0,0:0:0:0:
448,192,288148,1,0,0:0:0:0:
192,192,288148,1,0,0:0:0:0:
64,192,288302,1,0,0:0:0:0:
320,192,288302,1,0,0:0:0:0:
448,192,288302,1,0,0:0:0:0:
192,192,288456,1,0,0:0:0:0:
320,192,288533,1,0,0:0:0:0:
64,192,288610,1,0,0:0:0:0:
448,192,288610,1,0,0:0:0:0:
320,192,288687,1,0,0:0:0:0:
192,192,288764,1,0,0:0:0:0:
64,192,288918,1,0,0:0:0:0:
192,192,288918,1,0,0:0:0:0:
448,192,288918,1,0,0:0:0:0:
320,192,289071,1,0,0:0:0:0:
64,192,289148,1,0,0:0:0:0:
448,192,289225,128,0,289379:0:0:0:0:
192,192,289225,1,0,0:0:0:0:
320,192,289225,128,0,289264:0:0:0:0:
192,192,289379,1,0,0:0:0:0:
64,192,289533,1,0,0:0:0:0:
320,192,289533,1,0,0:0:0:0:
448,192,289687,128,0,289841:0:0:0:0:
64,192,289841,1,0,0:0:0:0:
192,192,289841,1,0,0:0:0:0:
320,192,289995,1,0,0:0:0:0:
192,192,290148,1,0,0:0:0:0:
64,192,290148,1,0,0:0:0:0:
448,192,290225,1,0,0:0:0:0:
192,192,290302,1,0,0:0:0:0:
320,192,290379,1,0,0:0:0:0:
192,192,290456,1,0,0:0:0:0:
448,192,290456,1,0,0:0:0:0:
320,192,290610,1,0,0:0:0:0:
64,192,290610,1,0,0:0:0:0:
448,192,290764,1,0,0:0:0:0:
192,192,290764,1,0,0:0:0:0:
64,192,290918,1,0,0:0:0:0:
448,192,290995,1,0,0:0:0:0:
320,192,290995,1,0,0:0:0:0:
192,192,291071,1,0,0:0:0:0:
448,192,291148,1,0,0:0:0:0:
64,192,291225,1,0,0:0:0:0:
320,192,291225,1,0,0:0:0:0:
448,192,291379,1,0,0:0:0:0:
192,192,291379,1,0,0:0:0:0:
320,192,291379,1,0,0:0:0:0:
448,192,291533,1,0,0:0:0:0:
192,192,291533,1,0,0:0:0:0:
320,192,291610,1,0,0:0:0:0:
64,192,291687,128,0,291837:0:0:0:0:
192,192,291687,1,0,0:0:0:0:
448,192,291687,128,0,291725:0:0:0:0:
320,192,291837,1,0,0:0:0:0:
320,192,291994,1,0,0:0:0:0:
64,192,291994,1,0,0:0:0:0:
192,192,291994,1,0,0:0:0:0:
448,192,292148,128,0,292302:0:0:0:0:
64,192,292302,1,0,0:0:0:0:
192,192,292302,1,0,0:0:0:0:
448,192,292456,1,0,0:0:0:0:
192,192,292610,1,0,0:0:0:0:
320,192,292610,1,0,0:0:0:0:
448,192,292687,1,0,0:0:0:0:
320,192,292764,1,0,0:0:0:0:
448,192,292841,1,0,0:0:0:0:
192,192,292841,1,0,0:0:0:0:
64,192,292917,1,0,0:0:0:0:
320,192,292917,1,0,0:0:0:0:
192,192,293071,1,0,0:0:0:0:
320,192,293071,1,0,0:0:0:0:
64,192,293225,1,0,0:0:0:0:
320,192,293225,1,0,0:0:0:0:
448,192,293225,1,0,0:0:0:0:
320,192,293379,1,0,0:0:0:0:
192,192,293456,1,0,0:0:0:0:
448,192,293514,1,0,0:0:0:0:
320,192,293514,1,0,0:0:0:0:
64,192,293610,1,0,0:0:0:0:
320,192,293687,1,0,0:0:0:0:
448,192,293687,1,0,0:0:0:0:
64,192,293841,1,0,0:0:0:0:
320,192,293841,1,0,0:0:0:0:
448,192,293841,1,0,0:0:0:0:
192,192,293994,1,0,0:0:0:0:
448,192,294071,1,0,0:0:0:0:
320,192,294148,1,0,0:0:0:0:
192,192,294148,128,0,294302:0:0:0:0:
448,192,294302,1,0,0:0:0:0:
320,192,294302,1,0,0:0:0:0:
320,192,294456,1,0,0:0:0:0:
64,192,294456,1,0,0:0:0:0:
192,192,294456,1,0,0:0:0:0:
448,192,294610,128,0,294764:0:0:0:0:
320,192,294764,1,0,0:0:0:0:
64,192,294764,1,0,0:0:0:0:
448,192,294918,1,0,0:0:0:0:
320,192,294918,1,0,0:0:0:0:
64,192,295071,1,0,0:0:0:0:
192,192,295071,1,0,0:0:0:0:
448,192,295148,1,0,0:0:0:0:
192,192,295225,1,0,0:0:0:0:
320,192,295302,1,0,0:0:0:0:
192,192,295379,1,0,0:0:0:0:
64,192,295379,1,0,0:0:0:0:
448,192,295379,128,0,295418:0:0:0:0:
320,192,295514,1,0,0:0:0:0:
448,192,295514,1,0,0:0:0:0:
192,192,295687,1,0,0:0:0:0:
320,192,295687,1,0,0:0:0:0:
64,192,295687,1,0,0:0:0:0:
448,192,295841,1,0,0:0:0:0:
320,192,295918,1,0,0:0:0:0:
192,192,295994,1,0,0:0:0:0:
64,192,295994,1,0,0:0:0:0:
448,192,295994,128,0,296033:0:0:0:0:
320,192,296071,1,0,0:0:0:0:
192,192,296148,1,0,0:0:0:0:
448,192,296302,1,0,0:0:0:0:
192,192,296302,1,0,0:0:0:0:
64,192,296302,1,0,0:0:0:0:
320,192,296456,1,0,0:0:0:0:
64,192,296514,1,0,0:0:0:0:
192,192,296610,1,0,0:0:0:0:
448,192,296610,128,0,296761:0:0:0:0:
320,192,296610,128,0,296647:0:0:0:0:
64,192,296761,1,0,0:0:0:0:
320,192,296917,1,0,0:0:0:0:
192,192,296917,1,0,0:0:0:0:
448,192,297071,128,0,297225:0:0:0:0:
192,192,297225,1,0,0:0:0:0:
64,192,297225,1,0,0:0:0:0:
320,192,297379,1,0,0:0:0:0:
64,192,297514,1,0,0:0:0:0:
192,192,297514,1,0,0:0:0:0:
448,192,297610,1,0,0:0:0:0:
192,192,297687,1,0,0:0:0:0:
320,192,297764,1,0,0:0:0:0:
448,192,297840,1,0,0:0:0:0:
192,192,297840,1,0,0:0:0:0:
64,192,297994,1,0,0:0:0:0:
320,192,297994,1,0,0:0:0:0:
192,192,298148,1,0,0:0:0:0:
448,192,298148,1,0,0:0:0:0:
64,192,298302,1,0,0:0:0:0:
320,192,298379,1,0,0:0:0:0:
448,192,298379,1,0,0:0:0:0:
192,192,298456,1,0,0:0:0:0:
448,192,298514,1,0,0:0:0:0:
192,192,298610,1,0,0:0:0:0:
64,192,298610,1,0,0:0:0:0:
64,192,298764,1,0,0:0:0:0:
192,192,298764,1,0,0:0:0:0:
448,192,298764,1,0,0:0:0:0:
192,192,298917,1,0,0:0:0:0:
448,192,298917,1,0,0:0:0:0:
320,192,298994,1,0,0:0:0:0:
448,192,299071,1,0,0:0:0:0:
192,192,299071,1,0,0:0:0:0:
64,192,299071,128,0,299225:0:0:0:0:
320,192,299225,1,0,0:0:0:0:
192,192,299379,1,0,0:0:0:0:
64,192,299379,1,0,0:0:0:0:
320,192,299379,1,0,0:0:0:0:
448,192,299514,128,0,299687:0:0:0:0:
192,192,299687,1,0,0:0:0:0:
64,192,299687,1,0,0:0:0:0:
448,192,299841,1,0,0:0:0:0:
320,192,299994,1,0,0:0:0:0:
192,192,299994,1,0,0:0:0:0:
448,192,300071,1,0,0:0:0:0:
192,192,300148,1,0,0:0:0:0:
64,192,300225,1,0,0:0:0:0:
448,192,300225,1,0,0:0:0:0:
192,192,300302,1,0,0:0:0:0:
320,192,300302,128,0,300341:0:0:0:0:
320,192,300456,1,0,0:0:0:0:
192,192,300456,1,0,0:0:0:0:
448,192,300610,1,0,0:0:0:0:
320,192,300610,1,0,0:0:0:0:
64,192,300610,1,0,0:0:0:0:
192,192,300764,1,0,0:0:0:0:
448,192,300841,1,0,0:0:0:0:
192,192,300917,1,0,0:0:0:0:
64,192,300994,1,0,0:0:0:0:
448,192,301071,1,0,0:0:0:0:
192,192,301071,1,0,0:0:0:0:
448,192,301225,1,0,0:0:0:0:
320,192,301225,1,0,0:0:0:0:
64,192,301225,1,0,0:0:0:0:
192,192,301379,1,0,0:0:0:0:
320,192,301456,1,0,0:0:0:0:
64,192,301533,128,0,301684:0:0:0:0:
192,192,301533,1,0,0:0:0:0:
448,192,301533,128,0,301570:0:0:0:0:
192,192,301684,1,0,0:0:0:0:
448,192,301684,1,0,0:0:0:0:
192,192,301840,1,0,0:0:0:0:
64,192,301840,1,0,0:0:0:0:
448,192,301840,1,0,0:0:0:0:
320,192,301994,128,0,302148:0:0:0:0:
64,192,302148,1,0,0:0:0:0:
192,192,302148,1,0,0:0:0:0:
192,192,302302,1,0,0:0:0:0:
448,192,302302,1,0,0:0:0:0:
64,192,302456,1,0,0:0:0:0:
320,192,302456,1,0,0:0:0:0:
448,192,302533,1,0,0:0:0:0:
192,192,302610,1,0,0:0:0:0:
448,192,302687,1,0,0:0:0:0:
64,192,302763,1,0,0:0:0:0:
320,192,302763,1,0,0:0:0:0:
448,192,302917,1,0,0:0:0:0:
192,192,302917,1,0,0:0:0:0:
64,192,303071,1,0,0:0:0:0:
320,192,303071,1,0,0:0:0:0:
448,192,303071,1,0,0:0:0:0:
448,192,303225,1,0,0:0:0:0:
320,192,303302,1,0,0:0:0:0:
64,192,303379,1,0,0:0:0:0:
192,192,303379,1,0,0:0:0:0:
448,192,303456,1,0,0:0:0:0:
192,192,303533,1,0,0:0:0:0:
64,192,303687,1,0,0:0:0:0:
192,192,303687,1,0,0:0:0:0:
448,192,303687,1,0,0:0:0:0:
320,192,303840,1,0,0:0:0:0:
64,192,303917,1,0,0:0:0:0:
448,192,303994,128,0,304148:0:0:0:0:
192,192,303994,1,0,0:0:0:0:
320,192,303994,1,0,0:0:0:0:
192,192,304148,1,0,0:0:0:0:
64,192,304302,1,0,0:0:0:0:
448,192,304302,1,0,0:0:0:0:
448,192,304456,128,0,304610:0:0:0:0:
64,192,304610,128,0,304648:0:0:0:0:
192,192,304610,1,0,0:0:0:0:
320,192,304764,1,0,0:0:0:0:
192,192,304918,1,0,0:0:0:0:
64,192,304918,1,0,0:0:0:0:
448,192,304995,1,0,0:0:0:0:
192,192,305071,1,0,0:0:0:0:
320,192,305148,1,0,0:0:0:0:
192,192,305225,1,0,0:0:0:0:
448,192,305225,1,0,0:0:0:0:
192,192,305379,1,0,0:0:0:0:
64,192,305379,1,0,0:0:0:0:
448,192,305533,1,0,0:0:0:0:
320,192,305533,1,0,0:0:0:0:
320,192,305687,1,0,0:0:0:0:
192,192,305764,1,0,0:0:0:0:
64,192,305764,128,0,305802:0:0:0:0:
320,192,305841,1,0,0:0:0:0:
448,192,305918,1,0,0:0:0:0:
64,192,305995,1,0,0:0:0:0:
320,192,305995,1,0,0:0:0:0:
192,192,306148,1,0,0:0:0:0:
64,192,306148,1,0,0:0:0:0:
448,192,306302,1,0,0:0:0:0:
192,192,306302,1,0,0:0:0:0:
320,192,306379,1,0,0:0:0:0:
64,192,306456,128,0,306610:0:0:0:0:
448,192,306456,1,0,0:0:0:0:
192,192,306456,128,0,306493:0:0:0:0:
320,192,306610,1,0,0:0:0:0:
320,192,306763,1,0,0:0:0:0:
448,192,306763,1,0,0:0:0:0:
192,192,306763,1,0,0:0:0:0:
320,192,306917,128,0,307071:0:0:0:0:
64,192,307071,1,0,0:0:0:0:
192,192,307071,1,0,0:0:0:0:
448,192,307225,1,0,0:0:0:0:
64,192,307379,1,0,0:0:0:0:
320,192,307379,1,0,0:0:0:0:
448,192,307456,1,0,0:0:0:0:
192,192,307533,1,0,0:0:0:0:
448,192,307610,1,0,0:0:0:0:
320,192,307610,1,0,0:0:0:0:
64,192,307686,1,0,0:0:0:0:
192,192,307686,1,0,0:0:0:0:
192,192,307840,1,0,0:0:0:0:
320,192,307840,1,0,0:0:0:0:
64,192,307994,1,0,0:0:0:0:
320,192,307994,1,0,0:0:0:0:
448,192,307994,1,0,0:0:0:0:
192,192,308148,1,0,0:0:0:0:
64,192,308225,1,0,0:0:0:0:
192,192,308302,1,0,0:0:0:0:
320,192,308302,1,0,0:0:0:0:
64,192,308379,1,0,0:0:0:0:
192,192,308456,1,0,0:0:0:0:
448,192,308456,1,0,0:0:0:0:
64,192,308610,1,0,0:0:0:0:
320,192,308610,1,0,0:0:0:0:
448,192,308610,1,0,0:0:0:0:
192,192,308763,1,0,0:0:0:0:
320,192,308840,1,0,0:0:0:0:
448,192,308917,1,0,0:0:0:0:
192,192,308917,128,0,309071:0:0:0:0:
64,192,308917,128,0,308937:0:0:0:0:
320,192,309071,1,0,0:0:0:0:
448,192,309071,1,0,0:0:0:0:
320,192,309225,1,0,0:0:0:0:
64,192,309225,1,0,0:0:0:0:
448,192,309225,1,0,0:0:0:0:
448,192,309379,128,0,309513:0:0:0:0:
192,192,309513,1,0,0:0:0:0:
64,192,309513,1,0,0:0:0:0:
448,192,309687,1,0,0:0:0:0:
320,192,309687,1,0,0:0:0:0:
64,192,309840,1,0,0:0:0:0:
192,192,309840,1,0,0:0:0:0:
320,192,309917,1,0,0:0:0:0:
448,192,309994,1,0,0:0:0:0:
320,192,310071,1,0,0:0:0:0:
192,192,310148,1,0,0:0:0:0:
64,192,310148,1,0,0:0:0:0:
320,192,310302,1,0,0:0:0:0:
448,192,310302,1,0,0:0:0:0:
192,192,310456,1,0,0:0:0:0:
448,192,310456,1,0,0:0:0:0:
64,192,310456,1,0,0:0:0:0:
448,192,310610,1,0,0:0:0:0:
192,192,310687,1,0,0:0:0:0:
320,192,310763,1,0,0:0:0:0:
64,192,310763,1,0,0:0:0:0:
448,192,310840,1,0,0:0:0:0:
192,192,310917,1,0,0:0:0:0:
448,192,311071,1,0,0:0:0:0:
192,192,311071,1,0,0:0:0:0:
64,192,311071,1,0,0:0:0:0:
320,192,311225,1,0,0:0:0:0:
64,192,311302,1,0,0:0:0:0:
448,192,311379,128,0,316302:0:0:0:0:
320,192,315071,1,0,0:0:0:0:
192,192,315687,1,0,0:0:0:0:
64,192,316302,1,0,0:0:0:0:
192,192,316302,128,0,321225:0:0:0:0:
320,192,318456,128,0,323071:0:0:0:0:
64,192,319994,1,0,0:0:0:0:
64,192,320610,1,0,0:0:0:0:
448,192,321225,1,0,0:0:0:0:
64,192,321225,128,0,326148:0:0:0:0:
192,192,323071,128,0,326148:0:0:0:0:
448,192,324302,1,0,0:0:0:0:
320,192,325513,1,0,0:0:0:0:
448,192,326148,1,0,0:0:0:0:
320,192,326148,1,0,0:0:0:0:
64,192,328610,1,0,0:0:0:0:
448,192,328610,1,0,0:0:0:0:
